#TITLE:Glimmer;
#SUBTITLE:;
#ARTIST:92elm;
#TITLETRANSLIT:;
#SUBTITLETRANSLIT:;
#ARTISTTRANSLIT:;
#GENRE:;
#CREDIT:;
#BANNER:[Round C] - Glimmer.png;
#BACKGROUND:[Round C] - Glimmer-bg.png;
#LYRICSPATH:;
#CDTITLE:cdtitle.png;
#MUSIC:[Round C] - Glimmer.ogg;
#OFFSET:0.012000;
#SAMPLESTART:14.644000;
#SAMPLELENGTH:14.656000;
#SELECTABLE:YES;
#DISPLAYBPM:65.000000;
#BPMS:0.000000=65.500000
;
#STOPS:
;
#BGCHANGES:;
#KEYSOUNDS:;
#ATTACKS:;

//---------------dance-single - ----------------
#NOTES:
     dance-single:
     :
     Hard:
     6:
     0.179177,0.221504,0.118644,0.177966,0.114407,148.000000,134.000000,14.000000,21.000000,0.000000,0.000000,0.179177,0.221504,0.118644,0.177966,0.114407,148.000000,134.000000,14.000000,21.000000,0.000000,0.000000:
0000
0000
0000
0000
,
0000
0000
0000
0000
,
1000
0000
0000
0001
,
0100
0000
0010
0000
,
2002
0000
3003
0000
0010
0000
1000
0001
,
0010
0000
0000
0000
0000
0000
0010
0000
0000
0000
0000
0000
0010
0000
0000
0000
0000
0000
0000
0000
0200
0000
0000
0300
0000
0000
0000
0000
0020
0000
0000
0000
,
0230
0000
0000
0000
0300
0000
0000
0000
1000
0000
0001
0000
0100
0001
0010
0100
,
0000
0000
2000
0000
0000
0000
0000
0000
0000
0000
0000
0000
0000
0000
0000
0000
3010
0000
0000
0010
0000
0000
0010
0000
0020
0000
0000
0000
0030
0000
0000
0000
,
0000
0100
0010
0010
0000
0000
1001
0010
,
0100
0000
0000
0100
0000
0000
0100
0000
0100
0000
0001
0000
0020
0000
0000
0000
,
0230
0000
0300
0000
1001
0000
1001
0000
0000
0000
0000
0000
0000
0010
1000
0010
,
2001
0000
0000
0000
,
3010
0000
0100
0000
0010
1000
0001
0000
,
0010
0000
0000
0010
0000
0000
0010
0000
0000
0000
1000
0000
0000
0002
0000
0000
,
0100
0000
0000
0100
0000
0000
0000
0000
0000
0000
0010
0000
0013
0000
0000
0000
,
0120
0000
0000
0100
0000
0000
0100
0000
0000
0000
0000
0000
0000
0000
0000
0000
,
0130
0100
1001
0000
0010
1000
0100
0000
,
0011
0000
0011
0000
0100
0000
0011
0000
0000
0000
0010
0000
0000
0001
0000
0000
,
0200
0000
0000
0000
0000
0000
0010
0010
0010
0000
0010
0010
0000
0000
0001
0000
,
0302
0000
0000
0000
0000
0000
0000
0000
0000
0000
0000
0000
0000
0000
0000
0000
0100
0000
0000
0100
0000
0000
0100
0000
0000
0100
0000
0000
0100
0000
0000
0000
,
2003
0000
0000
0000
0001
0001
3001
0000
,
0100
0000
0010
0100
0000
0000
0110
0000
0000
0000
0010
0000
0000
1000
0010
0000
,
0200
0010
0000
0010
0000
0010
0000
0010
,
0302
0000
0000
0010
0000
0000
0010
0000
0000
0000
2000
0000
0000
0000
3003
0000
,
1000
0200
0301
0000
0010
0010
0100
0000
,
1010
0000
1010
0000
0100
0000
1010
0000
0000
0000
0001
0000
0000
0010
0000
0000
,
0200
0000
0000
0000
0000
0000
0000
0000
1000
0000
1000
1000
0000
0000
1000
0000
,
0320
0000
0000
0000
0000
0000
0000
0000
0000
0000
0000
0000
0000
0000
0000
0000
0100
0000
0000
0100
0000
0000
0100
0000
0000
0100
0000
0000
1000
0000
0000
0000
,
0031
0000
0000
0010
,
0100
0000
0000
1000
0000
0000
0000
0000
,
0010
0000
0000
0100
;

//---------------dance-single - ----------------
#NOTES:
     dance-single:
     :
     Medium:
     4:
     0.119855,0.169386,0.042373,0.161017,0.025424,99.000000,94.000000,5.000000,19.000000,0.000000,0.000000,0.119855,0.169386,0.042373,0.161017,0.025424,99.000000,94.000000,5.000000,19.000000,0.000000,0.000000:
// measure 0
0000
0000
0000
0000
,  // measure 1
0000
0000
0000
0000
,  // measure 2
0001
0000
0000
0010
,  // measure 3
0100
0000
1000
0000
,  // measure 4
0001
0100
0001
0000
0020
0000
0130
0100
,  // measure 5
1000
0000
0000
1000
0000
0000
1000
0000
0000
0000
0020
0000
0000
0000
0130
0000
,  // measure 6
0001
0010
0001
0000
1000
1000
2000
0000
,  // measure 7
3002
0000
0000
0000
0023
0000
0000
0030
,  // measure 8
0000
0000
0010
0000
0100
0100
1000
0010
,  // measure 9
0100
0000
0000
0100
0000
0000
0100
0000
0002
0000
0000
0000
2003
0000
0000
0000
,  // measure 10
3002
0003
0010
0010
0000
0100
0000
1000
,  // measure 11
0220
0000
0000
0030
,  // measure 12
0301
0000
0010
0000
0100
1000
0001
0000
,  // measure 13
1000
0000
0000
1000
0000
0000
1000
0000
0000
0000
0001
0000
0000
0001
0000
0000
,  // measure 14
0002
0000
0000
0000
0000
1000
0003
0000
,  // measure 15
0020
0000
0000
0000
,  // measure 16
0130
0000
1001
0000
0100
1000
0010
0000
,  // measure 17
0100
0000
0001
0000
0000
0000
0100
0000
0000
0000
0001
0000
0000
0100
0000
0000
,  // measure 18
0002
0000
0000
0000
,  // measure 19
0023
0000
0000
0000
,  // measure 20
0230
0000
1000
1300
,  // measure 21
0010
1000
0100
1000
0010
1000
0100
1000
,  // measure 22
0020
0000
0000
0030
,  // measure 23
0200
0000
0000
0000
,  // measure 24
0300
0000
1001
0000
0010
1000
0100
0000
,  // measure 25
1000
0000
0100
0000
0000
0000
1000
0000
0000
0000
0100
0000
0000
1000
0000
0000
,  // measure 26
0200
0000
0000
0300
,  // measure 27
0020
0000
0000
0030
,  // measure 28
1001
0000
0000
0010
,  // measure 29
1001
0000
0000
0100
0000
0000
0000
0000
,  // measure 30
0010
0000
0000
0001
;

//---------------dance-single - ----------------
#NOTES:
     dance-single:
     :
     Easy:
     2:
     0.082324,0.104237,0.042373,0.237288,0.000000,68.000000,63.000000,5.000000,28.000000,0.000000,0.000000,0.082324,0.104237,0.042373,0.237288,0.000000,68.000000,63.000000,5.000000,28.000000,0.000000,0.000000:
0000
0000
0000
0000
,
0000
0000
0000
0000
,
0010
0000
0000
0100
,
0010
0000
0100
0000
,
2000
3010
0100
0100
,
0002
0000
0000
0000
0003
1000
0000
0000
,
0001
0100
0010
0020
,
2030
0000
3002
0000
,
0003
0000
0010
0010
0000
0000
0100
0000
,
0020
0030
0001
0200
,
0310
0000
0000
2000
,
3200
0000
0000
0000
,
0310
0000
0001
0001
,
2000
3000
0000
0020
,
0200
0000
0000
0330
,
2002
0000
0000
3003
,
0010
0010
0100
0100
,
0002
0000
0000
0000
0000
0003
2000
0000
,
0002
0000
0000
3003
,
0220
0000
0000
0330
,
1001
0000
0010
0010
,
0200
0010
0000
0010
,
0302
0000
0000
0003
,
2200
0000
0000
3300
,
0010
0000
0100
0000
0010
0010
0010
0000
,
2000
0000
0000
3002
,
0200
0000
0000
0303
,
2020
0000
0000
3030
,
0001
0000
0000
0010
,
0001
0000
0000
1000
0000
0000
0000
0000
,
0010
0000
0000
0100
;

//---------------dance-single - ----------------
#NOTES:
     dance-single:
     :
     Beginner:
     1:
     0.031477,0.065148,0.000000,0.101695,0.000000,26.000000,26.000000,0.000000,12.000000,0.000000,0.000000,0.031477,0.065148,0.000000,0.101695,0.000000,26.000000,26.000000,0.000000,12.000000,0.000000,0.000000:
0000
0000
0000
0000
,
0000
0000
0000
0000
,
1000
0000
0000
0001
,
0001
0000
0001
0000
,
2000
3000
0000
0000
,
0100
0000
0000
0000
,
0002
0003
0000
0000
,
0000
0000
0100
0000
,
0000
0000
0000
0000
,
2000
0000
0000
0000
,
3000
0000
0000
0000
,
0002
0000
0000
0000
,
0003
0000
0000
0000
,
0100
0000
0000
0000
,
0002
0000
0003
0000
,
2000
0000
0000
0000
,
3000
0000
0000
0000
,
0010
0000
0000
0000
,
0200
0000
0300
0000
,
0020
0000
0000
0000
,
0030
0000
0000
0000
,
0001
0000
0000
0000
,
2000
0000
3000
0000
,
0002
0000
0000
0000
,
0003
0000
0000
0000
,
1000
0000
0000
0000
,
0020
0000
0030
0000
,
0200
0000
0000
0000
,
0300
0000
0000
0001
,
0001
0000
0000
0000
,
0010
0000
0000
0010
;
