#VERSION:0.83;
#TITLE:Firehouse;
#SUBTITLE:;
#ARTIST:Play-n-skillz feat. Daddy Yankee;
#TITLETRANSLIT:;
#SUBTITLETRANSLIT:;
#ARTISTTRANSLIT:;
#GENRE:MERENGUE;
#ORIGIN:;
#CREDIT:;
#BANNER:[Round C] - Firehouse.png;
#BACKGROUND:[Round C] - Firehouse-bg.png;
#PREVIEWVID:;
#JACKET:[Round C] - Firehouse-jacket.png;
#CDIMAGE:;
#DISCIMAGE:;
#LYRICSPATH:;
#CDTITLE:cdtitle.png;
#MUSIC:[Round C] - Firehouse.ogg;
#OFFSET:1.527000;
#SAMPLESTART:12.280000;
#SAMPLELENGTH:15.000000;
#SELECTABLE:YES;
#BPMS:0.000=156.000;
#STOPS:;
#DELAYS:;
#WARPS:;
#TIMESIGNATURES:0.000=4=4;
#TICKCOUNTS:0.000=4;
#COMBOS:0.000=1;
#SPEEDS:0.000=1.000=0.000=0;
#SCROLLS:0.000=1.000;
#FAKES:;
#LABELS:0.000=Song Start;
#BGCHANGES:;
#KEYSOUNDS:;
#ATTACKS:
;

//---------------dance-single - ----------------
#NOTEDATA:;
#CHARTNAME:9646_ESP;
#STEPSTYPE:dance-single;
#DESCRIPTION:;
#CHARTSTYLE:Dance;
#DIFFICULTY:Hard;
#METER:9;
#RADARVALUES:0.614542,0.641323,0.404527,0.443993,0.133198,436.000000,395.000000,41.000000,45.000000,0.000000,0.000000,0.000000,0.000000,0.000000,0.614542,0.641323,0.404527,0.443993,0.133198,436.000000,395.000000,41.000000,45.000000,0.000000,0.000000,0.000000,0.000000,0.000000;
#CREDIT:9646;
#NOTES:
0000
0000
0000
0000
,
0000
0000
0000
0000
,
0000
0000
0000
0000
,
0000
0000
0000
0000
,
0000
0000
0000
0000
,
0002
0000
0000
0013
0100
0000
0010
0000
0002
0000
0000
0013
0100
0000
0010
0000
,
0001
0001
0200
0000
0310
0001
0010
0100
,
0001
0001
0010
0010
0100
0100
1000
1000
,
0001
0100
0010
1000
0100
0010
0100
0000
,
1100
0000
1000
0000
0001
0000
1000
0000
0010
0000
0000
0010
0001
0000
0020
0000
,
1000
0000
1030
0010
0100
0001
0010
0000
,
0100
0000
0001
0000
0100
0000
1000
0000
0001
0000
0000
0001
0010
0000
2000
0000
,
0010
0000
3010
0001
1000
0010
0001
0000
,
0010
0000
1000
0000
0001
0000
1000
0000
0100
0000
0000
0100
0001
0000
0200
0000
,
1000
0000
1300
0100
0010
0001
0100
0000
,
0110
0000
1000
0100
0001
0010
1000
0000
,
0110
0000
0001
0100
1000
0010
0001
0001
,
1000
0000
0010
0100
0001
0000
1000
0000
0001
0000
0010
0100
1000
0000
0001
0000
,
1000
0000
0010
0100
0001
0000
0010
0000
2000
0000
0000
0000
3010
0000
0000
0000
,
0001
0000
0010
0100
1000
0000
0001
0000
1000
0000
0010
0100
0001
0000
1000
0000
,
0001
0000
0010
0100
1000
0000
0010
0000
0002
0000
0000
0000
0013
0000
0000
0000
,
1000
0000
0000
1000
0100
0000
0001
0000
0100
0000
0100
0000
1000
0000
0001
0000
,
0010
0000
0000
0010
1000
0000
0010
0000
0001
0000
0001
0000
0010
0000
0100
0000
,
1000
0000
0000
1000
0010
0000
0001
0000
0010
0000
0010
0000
1000
0000
0001
0000
,
1000
0100
1000
0000
0001
0100
0001
0000
1000
0000
0100
0000
0010
0000
0100
0000
,
1000
0100
1000
0100
1100
0001
0100
0010
,
0100
0001
0100
0001
0101
0001
0020
0030
,
0100
0010
0100
0010
0110
0100
1000
0001
,
0100
0010
0100
0010
0110
0001
0020
0030
,
2100
3100
2100
3100
,
2100
3100
2100
3100
,
0102
0103
0102
0103
,
0102
0000
0000
0103
0000
0000
0100
0010
0100
0010
0100
0010
,
2000
0000
3100
0010
0002
0000
0013
0100
,
2000
0000
0001
0000
3001
1000
0010
0100
,
0002
0000
0100
0000
2003
0000
3100
0010
,
0002
0000
0010
0000
0013
0100
1000
0001
,
2000
0000
0000
3001
1000
0000
0010
0000
0100
0000
0010
0000
1000
0000
1000
0000
,
0002
0000
0000
0013
0100
0000
0010
0000
0001
0000
0100
0000
0010
0000
0010
0000
,
2000
0000
0000
3010
0100
0000
0001
0000
0010
0000
0100
0000
1000
0000
0001
0000
,
0020
0200
0330
0000
,
1001
0100
0010
0000
1001
0100
0010
0000
,
1001
0100
0010
0000
1001
0100
0010
0000
,
0110
0001
1000
0000
0110
0001
1000
0000
,
0110
0001
1000
0000
0210
0000
0310
0000
,
1200
0310
1200
0310
,
0201
0310
0201
0310
,
1001
0100
0010
0000
1001
0100
0010
0000
,
0110
0001
1000
0000
0110
0001
1000
0001
,
0011
0000
0010
0100
1000
0000
0100
0010
,
0001
0000
0011
0000
0011
0001
0100
0010
,
1000
0000
0110
0000
0001
0000
0010
0100
,
2000
0000
3100
0000
0100
0010
0001
1000
,
0002
0000
0000
0013
0100
0000
0010
0000
0001
0000
0100
0000
0010
0000
0010
0000
,
2000
0000
0000
3010
0100
0000
0001
0000
0010
0000
0100
0000
1000
0000
0001
0000
,
0020
0000
0000
0130
0010
0000
0001
0000
0100
0000
0010
0000
1000
0000
0001
0000
,
0020
0200
0330
0000
,
1001
0000
0100
0000
1001
0100
0010
0001
,
0000
0001
0010
0100
1000
0001
0020
0030
,
0110
0000
1000
0000
0110
0001
1000
0010
,
0000
0010
0100
0001
0100
0010
2000
3000
,
2100
0000
3001
0000
1000
0010
0001
0010
,
2010
0000
3001
0000
1000
0100
0001
0100
,
2100
0000
0000
0000
3001
0000
0000
0000
1000
0000
0010
0000
0001
0000
0010
1000
,
0010
1000
0001
0010
0100
1000
0002
0000
,
0003
0000
0000
0000
;

//---------------dance-single - ----------------
#NOTEDATA:;
#CHARTNAME:9646_BEG;
#STEPSTYPE:dance-single;
#DESCRIPTION:;
#CHARTSTYLE:Dance;
#DIFFICULTY:Beginner;
#METER:3;
#RADARVALUES:0.155045,0.287485,0.059199,0.078932,0.000000,110.000000,104.000000,6.000000,8.000000,0.000000,0.000000,0.000000,0.000000,0.000000,0.155045,0.287485,0.059199,0.078932,0.000000,110.000000,104.000000,6.000000,8.000000,0.000000,0.000000,0.000000,0.000000,0.000000;
#CREDIT:9646;
#NOTES:
0000
0000
0000
0000
,
0000
0000
0000
0000
,
0000
0000
0000
0000
,
0000
0000
0000
0000
,
0000
0000
0000
0000
,
0010
0000
0100
0000
,
0010
0010
0010
0000
,
0100
0100
0100
0100
,
0100
0100
0100
0000
,
1000
0000
0001
0000
,
1000
1000
1000
0000
,
0001
0000
1000
0000
,
0001
0001
0001
0000
,
0010
0000
0100
0000
,
0010
0010
0010
0000
,
1001
0000
0000
0000
,
0110
0000
0000
0000
,
0010
0000
0010
0000
,
0010
0010
0010
0000
,
0100
0000
0100
0000
,
0100
0100
0100
0000
,
0001
0000
0001
0000
,
1000
0000
1000
0000
,
0001
0000
0001
0000
,
0010
0010
0010
0000
,
0100
0000
0000
0000
,
0100
0000
0000
0000
,
0010
0000
0000
0000
,
0010
0000
0000
0000
,
0001
0000
0001
0000
,
0001
0000
0001
0000
,
1000
0000
1000
0000
,
1000
0000
1000
0000
,
0020
0000
0000
0000
,
0000
0000
0030
0000
,
0200
0000
0000
0000
,
0000
0000
0300
0000
,
0002
0000
0003
0000
,
2000
0000
3000
0000
,
0002
0000
0003
0000
,
0020
0000
0030
0000
,
0100
0000
0100
0000
,
1000
0000
1000
0000
,
0010
0000
0010
0000
,
0001
0000
0001
0000
,
1001
0000
1001
0000
,
0110
0000
0110
0000
,
0001
0000
0001
0000
,
1000
0000
1000
0000
,
0001
0000
0100
0000
,
1000
0000
1000
0000
,
0001
0000
0010
0000
,
1000
0000
1000
0000
,
0001
0000
0001
0000
,
1000
0000
1000
0000
,
0001
0000
0001
0000
,
0020
0000
0030
0000
,
0100
0000
0000
0000
,
0000
0000
0000
0000
,
0100
0000
0000
0000
,
0000
0000
0000
0000
,
1000
0000
0000
0000
,
1000
0000
0000
0000
,
0001
0000
0000
0000
,
0001
0000
0002
0003
;

//---------------dance-single - ----------------
#NOTEDATA:;
#CHARTNAME:9646_BSP;
#STEPSTYPE:dance-single;
#DESCRIPTION:;
#CHARTSTYLE:Dance;
#DIFFICULTY:Easy;
#METER:5;
#RADARVALUES:0.377746,0.447199,0.473592,0.256529,0.000000,268.000000,220.000000,48.000000,26.000000,0.000000,0.000000,0.000000,0.000000,0.000000,0.377746,0.447199,0.473592,0.256529,0.000000,268.000000,220.000000,48.000000,26.000000,0.000000,0.000000,0.000000,0.000000,0.000000;
#CREDIT:9646;
#NOTES:
0000
0000
0000
0000
,
0000
0000
0000
0000
,
0000
0000
0000
0000
,
0000
0000
0000
0000
,
0000
0000
0000
0000
,
2000
3100
0002
0013
,
1000
1000
1000
0000
,
0001
0100
1000
0010
,
0001
1000
2000
3001
,
0011
1100
0011
0100
,
2000
0001
0001
3010
,
0101
1010
0101
0001
,
0020
0100
0100
0031
,
1100
0011
1100
0010
,
0002
1000
1000
0103
,
1001
0100
0010
0100
,
1001
0010
0100
0000
,
0001
0001
0001
0001
,
0001
0001
0002
0003
,
1000
1000
1000
1000
,
1000
1000
2000
3000
,
1100
0100
0010
0100
,
0101
0100
0010
0100
,
1100
0100
0010
0100
,
1000
1000
0001
0001
,
0010
0010
0110
0010
,
1000
1000
1001
1000
,
0100
0100
0110
0100
,
0001
0001
1001
0001
,
0022
0033
0022
0033
,
2020
3030
2020
3030
,
2200
3300
2200
3300
,
0202
0303
0020
0230
,
2300
0100
0100
0100
,
0100
0100
0100
0100
,
3002
0010
0010
0010
,
0010
0010
0010
0010
,
1003
0010
0100
0010
,
0001
0010
0100
0010
,
1000
0010
0100
0010
,
1000
1000
0001
0000
,
1100
0100
0101
0001
,
0011
0010
1010
1000
,
1100
0100
0101
0001
,
1001
1000
1100
0100
,
0101
0000
1010
0000
,
1100
0000
0011
0000
,
0110
0100
1001
0010
,
0110
0100
0010
0000
,
1000
1000
0010
0010
,
0001
0100
1000
1000
,
0001
0001
0010
0010
,
1000
0100
0001
0001
,
1000
0100
0010
0100
,
0001
0100
0010
0100
,
1000
0100
0010
0100
,
1000
1000
0001
0000
,
0010
0010
0110
0010
,
0000
0100
1001
0010
,
1000
1000
1001
1000
,
0000
0001
0110
1000
,
0100
0100
0110
0100
,
0001
0001
1001
0001
,
0010
0010
0110
0010
,
0100
0100
1001
0010
;

//---------------dance-single - ----------------
#NOTEDATA:;
#CHARTNAME:9646_DSP;
#STEPSTYPE:dance-single;
#DESCRIPTION:;
#CHARTSTYLE:Dance;
#DIFFICULTY:Medium;
#METER:7;
#RADARVALUES:0.511649,0.513058,0.374927,0.256529,0.009867,363.000000,325.000000,38.000000,26.000000,0.000000,0.000000,0.000000,0.000000,0.000000,0.511649,0.513058,0.374927,0.256529,0.009867,363.000000,325.000000,38.000000,26.000000,0.000000,0.000000,0.000000,0.000000,0.000000;
#CREDIT:9646;
#NOTES:
// measure 0
0000
0000
0000
0000
,  // measure 1
0000
0000
0000
0000
,  // measure 2
0000
0000
0000
0000
,  // measure 3
0000
0000
0000
0000
,  // measure 4
0000
0000
0000
0000
,  // measure 5
1100
0000
0000
0001
0010
0000
0000
0000
0101
0000
0000
1000
0010
0000
0000
0000
,  // measure 6
0100
0001
0010
0000
0200
0000
0310
0000
,  // measure 7
0100
0001
0100
0001
0100
1000
0100
1000
,  // measure 8
0001
0100
0010
1000
0001
0000
0110
0000
,  // measure 9
1000
0100
0001
0100
1000
0000
1100
0000
,  // measure 10
0002
0000
1003
0010
0100
0010
1000
0000
,  // measure 11
0001
0100
1000
0100
0001
0000
0101
0000
,  // measure 12
2000
0000
3001
0010
0100
0010
0001
0000
,  // measure 13
1000
0100
0010
0001
1000
0000
1100
0000
,  // measure 14
0002
0000
1003
0010
0001
0010
1000
0000
,  // measure 15
1001
0000
0010
0001
0100
0001
0010
0000
,  // measure 16
1001
0000
0100
1000
0010
1000
0100
0000
,  // measure 17
0010
0100
0010
0001
0010
0100
0010
1000
,  // measure 18
0010
0100
0010
0001
0020
0000
0130
0000
,  // measure 19
0100
0001
0100
0010
0100
1000
0100
0010
,  // measure 20
0100
0001
0100
0010
0200
0000
1300
0000
,  // measure 21
1100
0000
0001
1000
0010
0100
0010
0000
,  // measure 22
1010
0000
0001
1000
0100
0010
0100
0000
,  // measure 23
0011
0000
0001
0100
1000
0100
0010
0000
,  // measure 24
0200
0300
0200
0300
0010
1000
0010
1000
,  // measure 25
0001
0000
0001
0000
0101
0001
0010
0100
,  // measure 26
0000
0100
0000
0100
0001
0100
2000
3000
,  // measure 27
0001
0000
0001
0000
0011
0001
0100
0010
,  // measure 28
0000
0010
0000
0010
0001
0010
2000
3000
,  // measure 29
1100
0010
1100
0010
,  // measure 30
1100
0010
1100
0010
,  // measure 31
0101
0010
0101
0010
,  // measure 32
0101
0000
0010
0000
1000
0001
1000
0001
,  // measure 33
2000
0100
0100
0100
,  // measure 34
0001
0001
0001
0001
,  // measure 35
3002
0100
0100
0100
,  // measure 36
1000
1000
1000
1003
,  // measure 37
1001
0000
0010
0100
1000
0001
0010
0000
,  // measure 38
1001
0000
0010
0100
0001
1000
0010
0000
,  // measure 39
0110
0000
0010
1000
0100
0010
0001
0000
,  // measure 40
2000
0002
3003
0000
,  // measure 41
1000
0100
0010
0000
0010
1000
0001
0000
,  // measure 42
0001
0010
0100
0000
0100
0001
1000
0000
,  // measure 43
1000
0100
0010
0000
0010
1000
0001
0000
,  // measure 44
0001
0010
0100
0000
0200
0000
0301
0000
,  // measure 45
1001
0100
1001
0000
,  // measure 46
0110
0001
0110
0000
,  // measure 47
1000
0100
0010
0000
0010
1000
0001
0000
,  // measure 48
0001
0010
0100
0000
0001
0000
0000
0000
,  // measure 49
1001
0000
1000
0100
0001
0000
0001
0100
,  // measure 50
2000
3001
0110
0001
,  // measure 51
1001
0000
0100
0000
1001
0000
0001
1000
,  // measure 52
0020
0100
0200
0330
,  // measure 53
1001
0000
0010
0100
1000
0001
0010
0000
,  // measure 54
1001
0000
0010
0100
0001
1000
0010
0000
,  // measure 55
0110
0000
0010
1000
0100
0010
0001
0000
,  // measure 56
2000
0002
3003
0000
,  // measure 57
0110
0000
0001
0000
0110
1000
0001
0010
,  // measure 58
0000
0010
0000
0010
1000
0010
0200
0300
,  // measure 59
0110
0000
1000
0000
0110
0001
1000
0010
,  // measure 60
0000
0010
0000
0010
0001
0010
0200
0300
,  // measure 61
0002
0000
0013
0000
0010
0100
0010
0001
,  // measure 62
2000
0000
3010
0000
0010
0100
0010
1000
,  // measure 63
0002
0000
0013
0000
0100
1000
0010
0001
,  // measure 64
0010
1000
0010
1000
0100
0010
0002
0000
,  // measure 65
0003
0000
0000
0000
;
