#TITLE:ECHO;
#SUBTITLE:(Yunosuke Remix);
#ARTIST:CIRCRUSH feat. Yunosuke;
#TITLETRANSLIT:;
#SUBTITLETRANSLIT:;
#ARTISTTRANSLIT:;
#GENRE:;
#CREDIT:;
#BANNER:ECHO (Yunosuke Remix).png;
#BACKGROUND:ECHO (Yunosuke Remix)-bg.png;
#LYRICSPATH:;
#CDTITLE:;
#MUSIC:Echo (Yunosuke Remix).ogg;
#OFFSET:-2.505000;
#SAMPLESTART:98.219002;
#SAMPLELENGTH:13.714279;
#SELECTABLE:YES;
#BPMS:0.000000=140.000000
;
#STOPS:
;
#BGCHANGES:;
#KEYSOUNDS:;
#ATTACKS:;

//---------------dance-single - ----------------
#NOTES:
     dance-single:
     :
     Hard:
     9:
     0.508707,0.624441,0.447080,0.250992,0.129418,454.000000,397.000000,57.000000,32.000000,0.000000,0.000000,0.508707,0.624441,0.447080,0.250992,0.129418,454.000000,397.000000,57.000000,32.000000,0.000000,0.000000:
// measure 0
0000
0000
0000
0000
,  // measure 1
0000
0000
0000
0000
,  // measure 2
0000
0000
0000
0000
,  // measure 3
0000
0000
0000
0000
0000
0000
1000
0001
,  // measure 4
2100
0000
3010
0100
0020
0000
1000
0000
,  // measure 5
1030
0000
0100
0000
0001
0010
0001
1000
,  // measure 6
1001
0000
0100
0000
0010
1000
0001
1000
,  // measure 7
0000
0110
0000
1100
0000
0101
0001
0010
,  // measure 8
0001
0000
1000
0000
0100
0100
0000
0010
,  // measure 9
0001
1000
0001
0200
0000
0300
0000
1000
,  // measure 10
0010
1000
1000
0100
0020
0000
0030
0000
,  // measure 11
0100
0001
0000
0101
0000
0000
1001
0000
,  // measure 12
0010
0000
0100
0001
0100
0000
0010
0010
,  // measure 13
0100
0001
0000
2000
0000
3000
0000
0100
,  // measure 14
1000
1000
0100
0010
0200
0000
1300
0001
,  // measure 15
1000
0020
0000
2000
0000
0000
3030
0000
,  // measure 16
0101
0000
0002
0010
0000
0010
0003
0000
,  // measure 17
0100
0000
0020
1000
0000
1000
0030
0000
,  // measure 18
0001
0000
2000
0001
0000
0001
3000
0000
,  // measure 19
0110
1100
2020
3030
,  // measure 20
0101
0000
0020
0100
0000
0001
0030
0000
,  // measure 21
0100
0000
0002
1000
0000
0100
0003
0000
,  // measure 22
0010
0000
2000
0001
0000
0100
3000
0000
,  // measure 23
0120
0000
0100
0000
0130
0000
0010
0100
,  // measure 24
0010
0000
0010
0001
0010
0000
1000
0000
,  // measure 25
0100
0001
0100
1000
0200
0000
0300
0000
,  // measure 26
1000
0010
0010
0100
0100
0001
0001
0100
,  // measure 27
0010
0100
0010
1000
0001
0000
0100
0000
,  // measure 28
1100
0000
1000
0100
0010
0000
0011
0000
,  // measure 29
0001
1000
0100
1000
0001
0000
0010
0000
,  // measure 30
0100
1000
1000
0001
0001
0100
0100
0010
,  // measure 31
1000
0100
1000
0001
0020
0000
0030
0001
,  // measure 32
1001
0000
0000
0100
0000
0000
1000
0000
0000
0100
0000
0000
1000
0000
0100
0000
,  // measure 33
1010
0000
0000
0100
0000
0000
0010
0000
0000
0100
0000
0000
0010
0000
0100
0000
,  // measure 34
0110
0000
0000
0001
0000
0000
0010
0000
0000
0001
0000
0000
0010
0000
0001
0000
,  // measure 35
1010
0000
0000
0001
0000
0000
1000
0000
0000
0001
0000
0000
1000
0000
0001
0000
,  // measure 36
1001
0000
0010
0000
0110
0100
0010
0100
,  // measure 37
1100
1000
0001
0000
0011
0001
0001
0000
,  // measure 38
0100
0010
0100
0001
1000
0010
0100
0001
,  // measure 39
0102
0000
0000
0100
0000
0000
0010
0000
0000
0010
0003
0000
1000
0001
1000
0000
,  // measure 40
0010
1000
0100
0010
0001
0000
0101
0000
,  // measure 41
1000
0001
0100
0010
1000
0000
1001
0000
,  // measure 42
0001
0100
0010
0100
0001
0000
0011
0000
,  // measure 43
0100
0001
0010
1000
0010
0000
0110
0000
,  // measure 44
0001
0010
0100
1000
0100
0000
1010
0000
,  // measure 45
0010
0100
0001
0010
0100
1000
0001
1000
,  // measure 46
0100
0010
0001
1000
0010
1000
0010
0100
,  // measure 47
1001
1001
1001
0110
1001
0000
0100
0010
,  // measure 48
0210
0000
0000
0001
0000
0000
0010
0000
0000
0001
0000
0000
0310
0000
1000
0000
,  // measure 49
2010
0000
0000
0100
0000
0000
0010
0000
0000
0100
0000
0000
3010
0000
0100
0000
,  // measure 50
0102
0000
0000
1000
0000
0000
0100
0000
0000
1000
0000
0000
0103
0000
0010
0000
,  // measure 51
0021
0000
0000
0100
0000
0000
0001
0000
0000
0100
0000
0000
0031
0000
1000
0000
,  // measure 52
1001
0000
0000
0010
0000
0000
0100
0000
1100
0000
0000
0001
0000
0000
0100
0000
,  // measure 53
0101
0000
0000
1000
0000
0000
0010
0000
0110
0000
0000
0001
0000
0000
1000
0000
,  // measure 54
1100
0010
0011
0001
0101
1000
1010
0010
,  // measure 55
0200
0302
0023
2030
3020
0000
0000
0100
,  // measure 56
0130
0000
0000
0000
1010
0000
0000
0000
1000
0000
0000
0100
0000
0000
0010
0000
,  // measure 57
0001
1000
1000
0001
1000
0000
0110
0000
,  // measure 58
0100
0001
1000
0010
0100
0000
0001
0010
,  // measure 59
0010
0001
1000
0001
0100
0000
0110
0000
,  // measure 60
0001
0000
1000
0000
0010
0000
0000
0000
0100
0000
0000
0001
0000
0000
1000
0000
,  // measure 61
0100
0010
0010
0100
0001
0000
1010
0000
,  // measure 62
0010
1000
0100
0010
0001
0000
0100
0010
,  // measure 63
1000
0010
1000
1000
0200
0000
0310
0000
,  // measure 64
1000
0000
0000
0000
1010
0000
0000
0000
0100
0010
0000
0010
0000
0000
0100
0000
,  // measure 65
0001
0100
0010
0000
1000
0100
0010
0010
,  // measure 66
0001
0000
0000
0000
0110
0000
0000
0000
1000
0001
0000
0001
0000
0000
0010
0000
,  // measure 67
1000
0100
1010
0101
,  // measure 68
0010
0000
0001
0000
1001
0000
0000
0000
0100
0010
0000
0010
0000
0000
1000
0000
,  // measure 69
0001
0100
0100
0010
1000
0000
0100
0010
,  // measure 70
0001
0000
0100
0000
0101
0000
0000
0000
0010
1000
0000
1000
0000
0000
0001
0000
,  // measure 71
1000
0000
0011
0000
0100
0010
2000
0002
,  // measure 72
0000
0000
0000
3003
0000
0000
0000
0000
;

//---------------dance-single - ----------------
#NOTES:
     dance-single:
     :
     Medium:
     6:
     0.364163,0.395313,0.094122,0.243149,0.000000,325.000000,313.000000,12.000000,31.000000,0.000000,0.000000,0.364163,0.395313,0.094122,0.243149,0.000000,325.000000,313.000000,12.000000,31.000000,0.000000,0.000000:
0000
0000
0000
0000
,
0000
0000
0000
0000
,
0000
0000
0000
0000
,
0000
0000
0000
0000
0000
0000
0010
1000
,
0010
0100
0010
0010
,
0001
0000
1000
0000
0001
0010
0001
0000
,
0101
0000
0100
0000
1000
0010
1000
0020
,
0000
0100
0000
0100
0030
0000
0001
0100
,
0001
0100
0010
0010
,
0001
1000
0001
1000
0000
0000
0100
0000
,
1000
1000
0001
0010
,
1000
0001
0000
1000
0000
0000
0010
0000
,
0100
0000
1000
0000
0100
0010
0100
0000
,
0001
0010
0000
0001
0000
0000
1000
0000
,
0100
0001
0100
0010
,
0100
1000
0000
0200
0000
0000
0300
0000
,
1000
0000
0001
0000
1000
0010
1000
0000
,
0100
0000
0010
0000
0100
1000
0100
0000
,
0010
0000
1000
0000
0001
0010
0001
0000
,
2000
3002
0020
0033
,
0100
0000
0100
0000
1000
0100
0001
0000
,
0010
0000
0010
0000
0001
0010
1000
0000
,
0010
0000
0010
0000
0100
0010
1000
0000
,
0200
0000
0010
0000
0310
0000
0001
0100
,
0001
0001
0010
0100
,
1000
0010
1000
0000
0200
0000
0300
0000
,
0001
1000
0100
1000
,
0010
0001
0010
0001
0010
0000
0100
0000
,
1000
1000
0001
1000
,
0010
0000
0100
0010
0100
0000
0010
0000
,
1000
0100
0010
0100
,
0001
1000
0001
1000
0002
0000
0003
0000
,
0100
0000
0001
0000
0100
0000
0001
0010
,
0001
0000
0100
0000
0001
0000
0100
1000
,
0100
0000
0010
0000
0100
0000
1000
0001
,
1000
0000
0100
0000
1000
0000
0010
1000
,
0002
1003
0200
1300
,
0020
0130
2000
3100
,
0011
1010
1100
0101
,
0220
0000
0000
0330
,
1000
0100
1000
0000
0010
0000
0010
0000
,
0001
0100
0001
0000
1000
0000
1000
0000
,
0010
0001
0010
0000
0100
0000
0100
0000
,
0010
1000
0010
0000
0001
0000
0001
0000
,
0100
0001
0100
0000
0010
0000
0010
0000
,
1000
0100
1000
0100
1000
0000
0001
0000
,
0010
0001
0010
0001
0010
0000
0100
0000
,
0010
0010
0010
0010
0010
0000
1000
0010
,
2000
0001
0010
0010
,
3200
0001
1000
1300
,
0020
0100
0001
0001
,
0230
1000
0310
1000
,
0002
0010
2003
0010
,
3200
0010
2300
0010
,
3020
0230
0320
0032
,
2000
0000
0000
3003
,
1000
0000
1001
0000
0001
0000
1000
0010
,
1000
0000
0010
0000
0001
0100
0001
0000
,
1000
0000
1000
0000
0010
1000
0010
0000
,
0001
0100
0001
0100
0001
0000
0011
0000
,
0100
0010
0100
0000
1000
0000
1000
0000
,
0010
0100
0010
0000
0001
0000
0001
0000
,
1000
0100
1000
0100
1000
0000
0010
0000
,
0100
0010
0100
0010
0100
0000
1001
0000
,
2000
0001
0010
3010
,
0001
0000
0010
0000
0100
0001
1000
0000
,
0010
0000
1000
0000
0100
0001
0100
0000
,
1000
0100
0110
1001
,
0002
0010
0100
0103
,
1000
0100
1000
0000
0010
0000
0001
0000
,
0100
0000
1000
0000
0010
1000
0001
0000
,
0001
0100
1000
2002
,
3003
0000
0000
0000
;

//---------------dance-single - ----------------
#NOTES:
     dance-single:
     :
     Easy:
     4:
     0.270041,0.281386,0.078435,0.101966,0.000000,241.000000,231.000000,10.000000,13.000000,0.000000,0.000000,0.270041,0.281386,0.078435,0.101966,0.000000,241.000000,231.000000,10.000000,13.000000,0.000000,0.000000:
0000
0000
0000
0000
,
0000
0000
0000
0000
,
0000
0000
0000
0000
,
0000
0000
0000
0001
,
0001
0000
0100
0000
,
1000
0010
1000
0000
,
0100
0100
0001
0100
,
0000
0110
0000
1000
,
1000
0001
1000
0000
,
0010
0001
0001
0000
,
0100
1000
0100
0000
,
1000
0010
0010
0000
,
0100
0100
1000
0100
,
0010
1000
0010
0000
,
0001
0001
1000
0001
,
0010
0100
0200
0300
,
1000
0001
1000
0000
,
0010
0100
0010
0000
,
0100
0001
0100
0000
,
1000
1000
1001
0000
,
0010
0100
0010
0000
,
0001
0100
0001
0000
,
1000
0010
0100
0010
,
0200
0000
0300
0001
,
0001
1000
1000
0010
,
0100
0001
0200
0300
,
0001
0001
0010
0001
,
1000
0100
2000
3000
,
0010
0010
0100
0010
,
0001
1000
0001
0100
,
0010
0010
1000
1000
,
0100
1000
0020
0030
,
0001
0000
0010
0010
,
1000
0000
0010
0010
,
0100
0000
0010
0010
,
0001
0000
0010
0010
,
1001
0000
0110
0000
,
1100
0000
0011
0000
,
0010
1000
0100
0001
,
2002
0000
0000
3003
,
0010
0010
0100
0010
,
1000
1000
0100
1000
,
0001
0001
1000
0001
,
0010
0010
0001
0010
,
0100
0100
1000
0100
,
0010
0100
0001
0001
,
1000
0100
0010
0100
,
0202
0000
0303
0010
,
0010
0100
0010
1000
,
0100
1000
0002
0003
,
0010
0001
1000
1000
,
0001
0100
2000
3000
,
0010
1000
0010
0001
,
0010
0100
0010
0010
,
0001
1000
0010
0100
,
0110
0000
0000
0000
,
1000
0001
1000
0010
,
0100
0100
0001
0100
,
0010
1000
0010
0010
,
0001
1000
2000
3000
,
0001
1000
0010
1000
,
0100
0100
0010
0100
,
1000
0100
0010
0001
,
0100
0100
0020
0030
,
0100
1000
0100
1000
,
0001
0001
0010
1000
,
0100
0001
0100
1000
,
0010
0010
0100
0010
,
0001
1000
0001
1000
,
0001
0001
0010
0001
,
1000
0001
0100
0010
,
0100
0100
0010
0110
;

//---------------dance-single - ----------------
#NOTES:
     dance-single:
     :
     Beginner:
     2:
     0.155750,0.196284,0.078435,0.086279,0.000000,139.000000,129.000000,10.000000,11.000000,0.000000,0.000000,0.155750,0.196284,0.078435,0.086279,0.000000,139.000000,129.000000,10.000000,11.000000,0.000000,0.000000:
0000
0000
0000
0000
,
0000
0000
0000
0000
,
0000
0000
0000
0000
,
0000
0000
0000
0000
,
1000
0000
0000
0000
,
1000
0000
0000
0000
,
0001
0000
0000
0000
,
0001
0000
0000
0000
,
0110
0000
0000
0000
,
0100
0100
0100
0000
,
1000
0000
0000
0000
,
0010
0010
0010
0000
,
1001
0000
0000
0000
,
0001
0001
0001
0000
,
0100
0000
0000
0000
,
1000
1000
1000
0000
,
0020
0000
0030
0000
,
0020
0000
0030
0000
,
0200
0000
0300
0000
,
0100
0100
0100
0000
,
2000
0000
3000
0000
,
0002
0000
0003
0000
,
1000
1000
1000
0000
,
2002
0000
3003
0000
,
0010
0000
0010
0000
,
0100
0100
0100
0000
,
1000
0000
1000
0000
,
0001
0001
0001
0000
,
0100
0000
0100
0000
,
1000
1000
1000
0000
,
0001
0000
0001
0000
,
0010
0010
0010
0000
,
0110
0000
0000
0000
,
1001
0000
0000
0000
,
0110
0000
0000
0000
,
1001
0000
0000
0000
,
1000
0000
0001
0000
,
0100
0000
0100
0000
,
0010
0000
0100
0000
,
1001
0000
0000
0000
,
0010
0010
0010
0000
,
0100
0100
0100
0000
,
0001
0001
0001
0000
,
1000
1000
1000
0000
,
0010
0000
0010
0000
,
0100
0000
0100
0000
,
1000
0000
0001
0000
,
0000
0000
0000
0000
,
0020
0000
0030
0000
,
2000
0000
3000
0000
,
0002
0000
0003
0000
,
0200
0000
0300
0000
,
0010
0000
1000
0000
,
0001
0000
0100
0000
,
0010
0010
0010
0000
,
1001
0000
0000
0000
,
0000
0100
0000
0001
,
0001
0000
1000
1000
,
1000
0000
0010
0000
,
0100
0100
0100
0000
,
0001
0000
1000
1000
,
0000
0010
0010
0000
,
0100
0000
1000
0000
,
0001
0001
0001
0000
,
0010
0000
0100
0000
,
0100
0000
0001
0000
,
1000
0000
0010
0000
,
0010
0000
0110
0000
,
0001
0000
1000
0000
,
0100
0000
0100
0000
,
0010
0000
1000
0000
,
0001
0000
0001
0000
;
