#TITLE:Credits;
#SUBTITLE:;
#ARTIST:Frums;
#TITLETRANSLIT:;
#SUBTITLETRANSLIT:;
#ARTISTTRANSLIT:;
#GENRE:;
#CREDIT:TiKAL+;
#BANNER:[Round C] - Credits.png;
#BACKGROUND:[Round C] - Credits-bg.png;
#LYRICSPATH:;
#CDTITLE:cdtitle.png;
#MUSIC:[Round C] - Credits.ogg;
#OFFSET:0.000;
#SAMPLESTART:77.765;
#SAMPLELENGTH:21.453;
#SELECTABLE:YES;
#BPMS:0.000=179.000;
#STOPS:;
#BGCHANGES:;
#KEYSOUNDS:;

//---------------dance-single - TiKAL----------------
#NOTES:
     dance-single:
     TiKAL:
     Easy:
     3:
     0.176,0.224,0.033,0.125,0.000:
0000
0000
0000
0000
,
0000
0000
0000
0000
,
0000
0000
0000
0000
,
0000
0000
0000
0000
,
0000
0000
0000
0000
,
0000
0000
0000
0000
,
0000
0000
0000
0000
,
0000
0000
0000
0000
,
0000
0000
0000
0000
,
0000
0000
0000
0000
,
0001
0000
0000
0000
,
0001
0000
0002
0003
,
1000
0000
0000
0000
,
1000
0000
2000
3000
,
0010
0000
0000
0000
,
0010
0000
0020
0030
,
0100
0000
0000
0000
,
0100
0000
0200
0300
,
0001
0000
0010
0000
,
0100
0000
0100
0000
,
1000
0000
0100
0000
,
0010
0000
0010
0000
,
0001
0000
1000
0000
,
0010
0000
0100
0000
,
0001
0000
0100
0000
,
1000
0000
0010
0000
,
0001
0000
0100
0000
,
0010
0000
0010
0000
,
1000
0000
0010
0000
,
0100
0000
0100
0000
,
0001
0000
1000
0000
,
0100
0000
0010
0000
,
0001
0000
0010
0000
,
1000
0000
0200
0300
,
0001
0000
0001
0000
,
0001
0000
0001
0001
,
1000
0000
1000
0000
,
1000
0000
1000
1000
,
0010
0000
0100
0000
,
0010
0000
0100
0000
,
0010
0000
0100
0000
,
0020
0000
0000
0030
,
1000
0000
1000
0000
,
1000
0000
1000
1000
,
0001
0000
0001
0000
,
0001
0000
0001
0001
,
0100
0000
0100
0000
,
0010
0000
0010
0100
,
0010
0000
0010
0000
,
0100
0000
0100
0000
,
1001
0000
0000
0000
,
0000
0000
0000
0000
,
0000
0000
0000
0000
,
0000
0000
0000
0000
,
0001
0000
0010
0000
,
0100
0000
1000
0000
,
0001
0000
0100
0000
,
0010
0000
2000
3000
,
0001
0000
0100
0000
,
0020
0030
1000
1000
,
1001
0000
0001
0000
,
1001
0000
1000
0000
,
0001
0000
0002
0003
,
2000
3000
1000
0000
,
0020
0030
0100
0000
,
0001
0000
1000
0000
,
0001
0000
0001
0000
,
2000
0000
0000
0000
,
3000
0000
0000
0000
,
0000
0000
0000
0000
,
0000
0000
0000
0000
,
0000
0000
0000
0000
,
0000
0000
0000
0000
,
0000
0000
0000
0000
,
0001
0000
0001
0000
,
0000
0000
0000
0000
,
0100
0000
0100
0000
,
0000
0000
0000
0000
,
1000
0000
1000
0000
,
0000
0000
0000
0000
,
0010
0000
0010
0000
,
0000
0000
0000
0000
,
0001
0000
0000
0000
,
0001
0000
0002
0003
,
1000
0000
0000
0000
,
1000
0000
2000
3000
,
0010
0000
0000
0000
,
0010
0000
0020
0030
,
0100
0000
0000
0000
,
0100
0000
1001
0000
;

//---------------dance-single - TiKAL----------------
#NOTES:
     dance-single:
     TiKAL:
     Medium:
     5:
     0.317,0.365,0.050,0.283,0.008:
0000
0000
0000
0000
,
0000
0000
0000
0000
,
0000
0000
0000
0000
,
0000
0000
0000
0000
,
0000
0000
0000
0000
,
0000
0000
0000
0000
,
0000
0000
0000
0000
,
0000
0000
0000
0000
,
0000
0000
0000
0000
,
0000
0000
0000
0000
,
1000
0000
0001
0000
0000
0001
0000
0000
,
1000
0001
0200
0300
,
0001
0000
1000
0000
0000
1000
0000
0000
,
0001
1000
0200
0300
,
1000
0000
0001
0000
0000
0001
0000
0000
,
1000
0001
0020
0030
,
0001
0000
1000
0000
0000
1000
0000
0000
,
0001
1000
0020
0030
,
0100
0001
1000
0100
,
0010
0001
0001
0001
,
2000
3000
0002
0003
,
1000
0000
0100
0000
0010
0001
0010
0000
,
0001
0010
0100
0100
,
1000
0000
0100
0000
0002
0000
0000
0203
,
0000
0000
2300
0000
0000
3020
0000
0000
,
0032
0000
0000
0023
0000
0000
1030
0000
,
0001
1000
0001
0010
,
0100
1000
1000
1000
,
0002
0003
2000
3000
,
0001
0000
0010
0000
0100
1000
0100
0000
,
1000
0100
0010
0010
,
0001
0000
0010
0000
2000
0000
0000
3020
,
0000
0000
0032
0000
0000
0203
0000
0000
,
0310
1000
1001
0000
,
0001
0000
0001
0000
,
1000
0000
0000
0000
1000
0000
0000
0001
,
1000
0000
0100
0000
,
0010
0000
0000
0000
0001
0000
1000
0001
,
1000
0000
0000
1000
0100
0000
0000
0100
,
0010
0000
0000
0010
0001
0000
0000
0001
,
1000
0000
0000
0010
1000
0000
0000
0010
,
0100
0000
0000
0001
0000
0000
1001
0000
,
1000
0000
0000
0100
0100
0000
0000
0010
,
0010
0000
0000
0001
0001
0000
1000
0000
,
0001
0000
0000
0010
0010
0000
0000
0100
,
0100
0000
0000
1000
1000
0000
0002
0003
,
0100
0000
0000
0010
0010
0000
0000
1000
,
1000
0000
0000
0001
0001
0000
1000
0001
,
1000
0000
0000
0010
0010
0000
0000
0100
,
0100
0000
0000
0001
0002
0000
0003
0000
,
2002
0000
0000
0000
,
0000
0000
0000
3003
,
1000
0000
0001
0000
0000
0001
0000
0000
,
0100
0010
2000
3000
,
0001
0000
0010
0000
0000
0100
0000
0000
,
1000
0000
0100
0000
0000
0010
0000
0000
,
0001
0000
0100
0000
0000
0010
0000
0000
,
1000
0001
2000
3000
,
0001
1000
0010
0100
,
0002
0000
1003
0000
0001
0000
0200
0300
,
0110
0000
0010
1000
,
1001
0000
0001
0100
,
0001
0010
0200
0300
,
2000
3000
0001
1000
,
0002
1003
0100
0010
,
0001
1000
0010
0100
,
0002
0000
0000
0003
,
1000
0000
0100
0000
0010
0000
0001
0000
0000
0000
0000
0000
,
1000
0000
0000
0000
,
0000
0000
0000
0000
,
0001
0000
0000
0000
,
0000
0000
0000
0000
,
0200
0000
0000
0000
,
0000
0000
0000
0300
,
0001
0000
1000
0000
0000
0100
0000
0000
,
0000
0000
0000
0000
,
1000
0000
0001
0000
0000
0100
0000
0000
,
0000
0000
0000
0000
,
0001
0000
1000
0000
0000
0010
0000
0000
,
0000
0000
0000
0000
,
1000
0000
0001
0000
0000
0001
0000
0000
,
1000
0001
0200
0300
,
0001
0000
1000
0000
0000
1000
0000
0000
,
0001
1000
0200
0300
,
1000
0000
0001
0000
0000
0001
0000
0000
,
1000
0001
0020
0030
,
0001
0000
1000
0000
0000
1000
0000
0000
,
0001
1000
1001
0000
;

//---------------dance-single - TiKAL----------------
#NOTES:
     dance-single:
     TiKAL:
     Hard:
     8:
     0.529,0.597,0.075,0.383,0.237:
0000
0000
0000
0000
,
0000
0000
0000
0000
,
0000
0000
0000
0000
,
0000
0000
0000
0000
,
0000
0000
0000
0000
,
0000
0000
0000
0000
,
0000
0000
0000
0000
,
0000
0000
0000
0000
,
0000
0000
0000
0000
,
0000
0000
0000
0000
,
0001
0000
0200
0310
0000
2000
3100
0000
,
0100
0000
0010
0001
2000
0000
0000
3000
,
0001
0000
0020
0130
0000
2000
3010
0000
,
0010
0000
0100
0001
2000
0000
0000
3000
,
0010
0000
0200
0301
0000
2000
3100
0000
,
0100
0000
1000
0001
0200
0000
0000
0300
,
0010
0000
2000
3100
0000
2000
3001
0000
,
0001
0000
1000
0001
0400
0000
0000
0300
,
0001
0000
0010
0100
1000
0100
0010
0001
,
1000
0000
0001
0100
0001
0100
0001
1000
,
0010
0010
0010
0000
0100
0100
0100
0000
,
0001
0000
0010
0000
0001
0000
0010
0000
0100
0000
0000
1000
0000
0000
0001
0000
,
0100
0010
1000
0001
0001
1000
0010
0000
,
0100
0001
0010
0100
1000
0000
0001
0100
,
0000
1000
0100
0000
0001
0010
0000
1000
,
0010
0000
0001
0100
0000
1000
0100
0001
,
1000
0000
0001
0010
0100
1000
0100
0010
,
0001
0000
1000
0010
1000
0010
1000
0010
,
0100
0100
0100
0000
0010
0010
0010
0000
,
1000
0000
0100
0000
1000
0000
0100
0000
0010
0000
0000
0001
0000
0000
1000
0000
,
0010
0100
0001
1000
1000
0001
0100
0000
,
0010
1000
0100
0010
0001
0000
1000
0010
,
0000
0001
0010
0000
1000
0100
0000
0001
,
0100
0000
1000
0010
0200
0000
0300
0000
,
0001
0000
0000
0011
0000
0000
0000
0000
1000
0000
0000
1010
0000
0000
0000
0000
,
0001
0000
0000
0101
0000
0000
0000
0000
1000
0000
0000
0100
0000
0000
1000
0000
,
0010
0000
0000
1010
0000
0000
0000
0000
0100
0000
0000
0101
0000
0000
0000
0000
,
0001
0000
0000
1001
0000
0000
0000
0000
1000
0000
0000
0001
0000
0000
0100
0000
,
0010
0000
0000
0010
0000
0000
0010
0000
0100
0000
0000
0100
0000
0000
0100
0000
,
0001
0000
0000
0001
0000
0000
0001
0000
1000
0000
0000
1000
0000
0000
1000
0000
,
0001
0000
0000
0001
0000
0000
0001
0000
0010
0000
0000
0010
0000
0000
0010
0000
,
0100
0000
0000
1000
0000
0000
0001
0000
0000
0100
0000
0000
0110
0000
0000
0000
,
1000
0000
0000
1000
0000
1000
0000
0000
0100
0000
0000
0100
0000
0100
0000
0000
,
0010
0000
0000
0010
0000
0010
0000
0000
0001
0000
0001
0000
0001
0000
1000
0000
,
0001
0000
0000
0001
0000
0001
0000
0000
0100
0000
0000
0100
0000
0100
0000
0000
,
0010
0000
0000
0010
0000
0010
0000
0000
1000
0000
0001
0000
1000
0000
0100
0000
,
0010
0000
0000
0010
0000
0001
0000
0000
1000
0000
0000
1000
0000
0010
0000
0000
,
0100
0000
0000
0100
0000
0001
0000
0000
1000
0000
1000
0000
1000
0000
0010
0000
,
0100
0000
0000
0001
0000
1000
0000
0000
0100
0000
0000
1000
0000
0001
0000
0000
,
0010
0000
0000
0001
0000
1000
0000
0000
0010
0000
0100
0000
0002
0000
0000
0003
,
2002
0000
0000
0000
,
0000
0000
0000
3003
,
1000
0000
0200
0310
0000
0002
0103
0000
,
0100
0000
0010
1000
0002
0000
0000
0003
,
1000
0000
0100
1000
0000
0001
0100
0001
,
1000
0000
0010
1000
0000
0001
0010
0001
,
1000
0000
0001
0100
0000
0010
1000
0001
,
0100
0001
2000
3000
,
0001
0010
0100
1000
0001
0100
0010
1000
,
0001
0000
0010
0000
0000
0100
0000
0000
1000
0000
0001
0000
0200
0000
0000
0000
,
0310
0000
0010
0000
1000
0000
0000
0001
0000
0000
0100
0000
0001
0000
1000
0000
,
0100
0000
0100
0000
0010
0000
0000
0001
0000
0000
1000
0000
0010
0000
0100
0000
,
0001
0000
0001
0000
1000
0000
1000
0000
0100
0000
0000
0100
0000
0000
0100
0000
,
0020
0000
0031
0000
0001
0000
0000
1000
0000
0000
0010
0000
0000
0100
0000
0000
,
0002
0000
1003
1000
0100
1000
0001
0020
,
0130
0000
1000
0000
0001
0000
0000
1000
0000
0001
0000
0000
0100
0000
0100
0000
,
0010
0000
0000
1000
0000
0100
0000
1000
0000
0000
0001
0000
0001
0000
0100
0000
,
0001
0010
0100
1000
0100
0010
0002
0000
0000
0000
0000
0000
,
2003
0000
0000
0000
,
0000
0000
0000
0000
,
3002
0000
0000
0000
,
0000
0000
0000
0000
,
0203
0000
0000
0000
,
0000
0000
0000
0000
,
0301
0000
0200
1300
0000
0200
0301
0000
,
M000
0M00
00M0
000M
M000
00M0
0M00
000M
,
1000
0000
0200
0301
0000
0200
1300
0000
,
000M
000M
00M0
0M00
M000
0M00
00M0
000M
,
1000
0000
0020
0031
0000
0020
1030
0000
,
000M
00M0
0M00
M000
000M
0M00
00M0
M000
,
0001
0000
0020
1030
0000
0020
0031
0000
,
M000
M000
0M00
00M0
000M
00M0
0M00
M000
,
0001
0000
0200
0310
0000
2000
3100
0000
,
0100
0000
0010
0001
2000
0000
0000
3000
,
0001
0000
0020
0130
0000
2000
3010
0000
,
0010
0000
0100
0001
2000
0000
0000
3000
,
0010
0000
0200
0301
0000
2000
3100
0000
,
0100
0000
1000
0001
0200
0000
0000
0300
,
0010
0000
2000
3100
0000
2000
3001
0000
,
0001
0000
1000
0001
1001
0000
0000
0000
;

//---------------dance-single - TiKAL----------------
#NOTES:
     dance-single:
     TiKAL:
     Challenge:
     11:
     0.801,1.000,0.242,0.492,0.967:
0000
0000
0000
0000
,
0000
0000
0000
0000
,
0000
0000
0000
0000
,
0000
0000
0000
0000
,
0000
0000
0000
0000
,
0000
0000
0000
0000
,
0000
0000
0000
0000
,
0000
0000
0000
0000
,
0000
0000
0000
0000
,
0000
0000
0000
0000
,
01M1
00M0
02M0
03M1
00M0
20M0
30M1
00M0
,
11M0
0000
00M0
0000
20M0
0000
30M1
00M0
04M0
00M0
00M0
00M0
00M0
00M0
03M0
0000
,
1M10
0M00
0M02
1M03
0M00
0M20
1M30
0M00
,
0M11
0000
0M00
0000
2M00
0000
3M01
0M00
0M40
0M00
0M00
0M00
0M00
0M00
0M30
0000
,
011M
000M
020M
130M
000M
002M
103M
000M
,
101M
0000
000M
0000
200M
0000
310M
000M
004M
000M
000M
000M
000M
000M
003M
0000
,
M110
M000
M020
M031
M000
M200
M301
M000
,
M101
0000
M000
0000
M002
0000
M103
M000
M040
M000
M000
M000
M000
M000
M000
0000
,
0130
0001
1000
0100
0001
1000
0010
0001
,
1000
0010
0100
0001
0001
0001
0001
0001
,
1000
0000
0100
1000
0100
1000
0100
0000
0010
0001
0010
0001
0010
0000
0400
0000
,
1300
0000
0100
0000
0010
0000
0001
0000
1000
0100
1000
0100
0000
0010
0001
0010
,
0001
0000
0100
0000
0010
0000
1000
0MMM
1000
0000
0100
0000
0001
0000
0000
0000
,
1000
0010
1000
0001
0010
0001
0100
1000
,
0001
0010
1000
0001
0100
1000
0001
0010
,
1000
0000
0001
0000
0100
0000
1000
0000
0001
0000
0010
0000
1000
0000
0001
1000
,
0001
1000
0001
0010
1000
0001
0100
1000
,
0001
1000
0100
0010
0010
0010
0010
0010
,
0001
0000
1000
0010
1000
0010
1000
0000
0001
0100
0001
0100
0001
0000
0040
0000
,
0031
0000
0100
0000
0010
0000
1000
0000
0001
0010
0001
0010
0000
0100
1000
0100
,
1000
0000
0010
0000
0100
0000
0001
MMM0
0001
0000
0100
0000
1000
0000
0000
0000
,
0001
0010
0001
1000
0010
1000
0100
0001
,
1000
0010
0001
1000
0100
0001
1000
0010
,
0001
1000
0010
0100
0002
0000
0103
0001
,
1000
0000
0001
0010
0000
0011
0000
0000
1000
0000
0010
1000
0000
1010
0000
0000
,
0001
0000
1000
0100
0000
1100
0000
0000
1000
0000
0001
0010
0000
0001
0010
0001
,
1000
0000
0001
0100
0000
0101
0000
0000
1000
0000
0100
1000
0000
1100
0000
0000
,
0001
0000
1000
0010
0000
1010
0000
0000
1000
0100
1000
0001
0010
0001
1000
0001
,
1000
0000
0010
1000
0000
0001
0100
0001
0100
0000
0010
0100
0000
0010
1000
0010
,
1000
0000
0100
1000
0000
0001
0100
0001
0100
0000
0010
0100
0000
0010
1000
0001
,
0100
0000
0001
0010
0000
0100
1000
0100
1000
0000
0010
0100
0000
0001
1000
0001
,
1000
0000
0010
0100
0000
0001
0010
0000
0100
1000
0000
0001
2000
0000
0000
0000
,
3001
0000
0010
0001
0000
0001
0000
0001
0010
0000
0100
1000
0000
1000
0000
1000
,
0100
0000
0010
0100
0000
0100
0000
0100
0010
0000
0010
0000
0010
0000
0001
1000
,
0001
0000
0100
0010
0000
0010
0000
0010
1000
0000
0100
0010
0000
0010
0000
0010
,
0001
0000
0100
0001
0000
0001
0000
0001
0100
0000
0100
0000
0020
0000
1030
0001
,
1000
0000
0100
0010
0000
0010
0000
0001
1000
0000
0010
1000
0000
1000
0000
0100
,
0010
0000
0001
0100
0000
0100
0000
0010
1000
0000
1000
0000
1000
0000
0001
1000
,
0001
0000
0010
0001
0000
0100
0000
0001
0010
0000
0100
1000
0000
0010
0000
1000
,
0100
0000
0010
0001
0000
1000
0000
0001
0010
0000
0100
0000
2000
0000
0000
3000
,
0004
4000
0000
0000
0000
0000
0000
0000
0000
0000
0000
0000
0000
0000
0000
0000
,
0000
0000
0000
0000
0000
0000
0000
3003
,
01M1
00M0
02M0
03M1
00M0
20M0
31M0
00M0
,
1M10
0000
0M00
0000
0M20
0000
1M30
0M00
0M04
0M00
0M00
0M00
0M00
0M00
0M03
0000
,
1000
0010
1000
0100
0001
1000
0010
0001
,
1000
0100
1000
0010
0001
1000
0100
0001
,
0010
0001
1000
0100
0001
1000
0010
0001
,
0100
0001
1000
0010
4000
0000
3002
0000
,
1003
0100
0010
0010
0001
0010
0001
0010
0400
0000
4300
0000
3004
0000
0103
0100
,
0020
0000
0130
0001
1000
0100
0010
0001
1000
0010
0100
0001
4000
0000
0000
0000
,
3001
0000
0001
0000
2000
0000
3010
0100
0000
0001
1000
0000
0020
0000
0130
0100
,
0001
0000
0001
0000
2000
0000
3100
1000
0000
0001
0100
0000
0040
0000
0130
0001
,
1000
0100
1000
0100
0010
0001
1000
0010
0200
0000
0000
0302
0000
0000
2003
0000
,
3004
0000
0013
0100
0010
0100
0000
0010
0100
0000
1000
0100
0000
0010
0001
0000
,
2000
0000
3000
1000
0010
1000
0001
0100
0001
0010
0100
1000
0100
0010
0002
0000
,
1003
0010
1000
0100
0010
0002
0000
0023
0000
0230
0000
1300
0001
0000
0100
0000
,
0010
0000
1000
0001
0000
0100
0000
0001
0000
1000
1000
0000
0100
0000
0010
0001
,
1000
0000
0000
0000
0000
0000
0000
0000
0000
0000
0000
0000
0000
0000
0000
0000
0100
0000
0000
0000
0000
0000
0000
0000
0000
0000
0000
0000
0000
0000
0000
0000
0010
0000
0000
0000
0000
0000
0000
0000
0000
0000
0000
0000
0000
0000
0000
0000
0001
0000
0000
0000
0000
0000
0000
0000
0000
0000
0000
0000
0000
0000
0000
0000
0010
0000
0000
0000
0000
0000
0000
0000
0000
0000
0000
0000
0000
0000
0000
0000
0100
0000
0000
0000
0000
0000
0000
0000
0000
0000
0000
0000
0000
0000
0000
0000
1000
0000
0000
0000
0000
0000
0000
0000
0000
0000
0000
0000
0000
0000
0000
0000
0000
0000
0100
0000
0000
0000
0000
0000
0000
0000
0000
0000
0000
0000
0010
0000
0000
0000
0000
0000
0000
0000
0000
0000
0000
0000
0000
0000
0000
0000
0000
0000
0000
0000
0000
0000
0000
0000
0001
0000
0000
0000
0000
0000
0000
0000
0000
0000
0000
0000
2000
0000
0000
0000
0000
0000
0000
0000
0000
0000
0000
0000
0000
0000
0000
0000
0000
0000
0000
0000
0000
0000
0000
0000
3001
0000
0000
0000
0000
0000
,
02M0
0000
0000
0000
0000
0000
0000
0000
0000
0000
0000
0000
0000
0000
0000
0000
0000
0000
0000
0000
0000
0000
0000
0000
000M
0000
0000
0000
0000
0000
0000
0000
0000
0000
0000
0000
0000
0000
0000
0000
0000
0000
0000
0000
0000
0000
0000
0000
0000
0000
0000
0000
0000
0000
0000
0000
0000
0000
M000
0000
0000
0000
0000
0000
0000
0000
0000
0000
0000
0000
0000
0000
0000
0000
0000
0000
0000
0000
0000
0000
0000
0000
0000
0000
00M0
0000
0000
0000
0000
0000
0000
0000
0000
0000
0000
0000
0000
0000
0000
0000
0000
0000
0000
0000
M000
0000
0000
0000
0000
0000
0000
0000
0000
0000
0000
0000
0000
0000
0000
0000
0000
0000
0000
0000
0000
0000
0000
0000
000M
0000
0000
0000
0000
0000
0000
0000
0000
0000
0000
0000
0000
0000
0000
0000
0000
0000
0000
0000
0000
0000
00M0
0000
0000
0000
0000
0000
0000
0000
0000
0000
0000
0000
0000
0000
0000
0000
0000
0000
0000
0000
0000
0000
0000
0000
0000
0000
0000
0000
0000
0000
M000
0000
0000
0000
0000
0000
0000
0000
0000
0000
0000
0000
,
0000
0000
0000
0000
0000
0000
0000
0000
0000
0000
0000
0000
000M
0000
0000
0000
0000
0000
0000
0000
0000
0000
0000
0000
0000
0000
0000
0000
0000
0000
0000
0000
0000
0000
0000
0000
0000
0000
0000
0000
0000
0000
00M0
0000
0000
0000
0000
0000
0000
0000
0000
0000
0000
0000
0000
0000
0000
0000
0000
0000
000M
0000
0000
0000
0000
0000
0000
0000
0000
0000
0000
0000
0320
0000
0000
0000
0000
0000
0000
0000
0000
0000
0000
0000
M000
0000
0000
0000
0000
0000
0000
0000
0000
0000
0000
0000
0000
0000
0000
0000
0000
0000
0000
0000
0000
0000
0000
0000
0M00
0000
0000
0000
0000
0000
0000
0000
0000
0000
0000
0000
0000
0000
0000
0000
0000
0000
M000
0000
0000
0000
0000
0000
0000
0000
0000
0000
0000
0000
0000
0000
0000
0000
0000
0000
0000
0000
0000
0000
0000
0000
000M
0000
0000
0000
0000
0000
0000
0000
0000
0000
0000
0000
0000
0000
0000
0000
0000
0000
0M00
0000
0000
0000
0000
0000
0000
0000
0M00
0000
0000
0000
0000
0000
0000
0000
0M00
0000
0000
0000
0000
0000
0000
0000
,
2M30
0000
0000
0000
0000
0000
0000
0000
0000
0000
0000
0000
0000
0000
0000
0000
0000
0000
0000
0000
0000
0000
0000
0000
0000
0000
000M
0000
0000
0000
0000
0000
0000
0000
0000
0000
0000
0000
0000
0000
0000
0000
0000
0000
0000
0000
0000
0000
0000
0000
00M0
0000
0000
0000
0000
0000
0000
0000
0000
0000
0000
0000
0000
0000
0000
0000
0000
0000
0000
0000
0M00
0000
0000
0000
0000
0000
0000
0000
0000
0000
0000
0000
0000
0000
0000
0000
0000
0000
0000
0000
0000
0000
0000
0000
0000
0000
0000
0000
0000
0000
0000
0000
0000
0000
00M0
0000
0000
0000
0000
0000
0000
0000
0000
0000
0000
0000
0000
0000
0000
0000
000M
0000
0000
0000
0000
0000
000M
0000
0000
0000
0000
0000
000M
0000
0000
0000
0000
0000
000M
0000
0000
0000
0000
0000
000M
0000
0000
0000
0000
0000
00M0
0000
0000
0000
0000
0000
0000
0000
0000
0000
0000
0000
0M0M
0000
0000
0000
0000
0000
0000
0000
0MM0
0000
0000
0000
0000
0000
0000
0000
0000
0000
0000
0000
0000
0000
0000
0000
00MM
0000
0000
0000
0000
0000
,
0M00
0000
0000
0000
0000
0000
0000
0000
0000
0000
0000
0000
0000
0000
0000
0000
0000
0000
0000
0000
0000
0000
00M0
0000
0000
0000
0000
0000
0000
0000
0000
0000
0000
0000
0000
0000
0000
0000
00MM
0000
0000
0000
0000
0000
0000
0000
0000
0000
0000
0000
0000
0000
0000
0000
0000
0000
0000
0000
0MM0
0000
0000
0000
0000
0000
0000
0000
0000
0000
0000
0000
0000
0000
3M02
0000
0000
0000
0000
0000
0M00
0000
0000
0000
0000
0000
0M00
0000
0000
0000
0000
0000
0M00
0000
0000
0000
0000
0000
0M00
0000
0000
0000
0000
0000
0000
0000
0000
0000
0000
0000
0000
0000
0000
0000
M000
0000
0000
0000
0000
0000
0000
0000
0000
0000
0000
0000
0000
0000
0000
0000
0000
0000
0000
0000
0000
0000
0000
0000
0000
0000
00M0
0000
0000
0000
0000
0000
00M0
0000
0000
0000
0000
0000
00M0
0000
0000
0000
0000
0000
00M0
0000
0000
0000
0000
0000
00M0
0000
0000
0000
0000
0000
00M0
0000
0000
0000
0000
0000
00M0
0000
0000
0000
0000
0000
00M0
0000
0000
0000
0000
0000
00M0
0000
0000
0000
0000
0000
,
2M03
0000
0M00
0000
000M
0000
0000
0000
000M
0000
00M0
0000
000M
00M0
0000
000M
,
00M0
0000
000M
00M0
0M00
00M0
0M02
00M0
0M00
00M0
0M00
00M0
0M00
00M0
3M03
0000
,
0M11
0M00
0M02
0M13
0M00
2M00
3M10
0M00
,
0001
0010
0001
0100
1000
0001
0010
1000
,
01M1
00M0
20M0
31M0
00M0
00M2
01M3
00M0
,
1000
0100
0010
0001
1000
0001
0010
0100
,
M110
M000
M020
M031
M000
M200
M301
M000
,
0001
1000
0010
0100
0001
0010
0100
1000
,
101M
000M
200M
310M
000M
002M
013M
000M
,
1000
0100
0001
1000
0010
0001
0100
0010
,
1M10
0M00
0M20
1M30
0M00
0M02
1M03
0M00
,
0M11
0000
0M00
0000
0M02
0000
1M03
0M00
0M40
0M00
0M00
0M00
0M00
0M00
0M30
0000
,
01M1
00M0
20M0
30M1
00M0
02M0
03M1
00M0
,
11M0
0000
00M0
0000
00M2
0000
10M3
00M0
04M0
00M0
00M0
00M0
00M0
00M0
03M0
0000
,
M110
M000
M020
M031
M000
M200
M301
M000
,
M101
0000
M000
0000
M002
0000
M013
M000
M400
M000
M000
M000
M000
M000
M300
0000
,
011M
000M
020M
130M
000M
002M
103M
000M
,
101M
000M
200M
301M
0110
0000
0000
0000
;
