#TITLE:Beyond the Seven;
#ARTIST:Nhato;
#GENRE:Trance;
#MUSIC:[Round C] - Beyond the Seven.ogg;
#OFFSET:-1.263;
#SAMPLESTART:82.372;
#SAMPLELENGTH:13.501;
#BPMS:0=142;

//---------------dance-single - ----------------
#NOTES:
     dance-single:
     :
     Easy:
     4:
     :
0000
0000
0000
0000
,
0000
0000
0000
0000
,
0000
0000
0000
0000
,
0000
0000
0000
0000
,
0001
0010
0000
0001
,
1000
0010
0000
1000
,
0001
0010
0100
1000
,
0001
1000
0020
0030
,
1000
0002
0003
0200
,
0300
0020
0030
2000
,
3000
0002
0003
2000
,
3000
0002
0003
0010
,
0010
0002
0103
0020
,
1030
0200
0310
0002
,
2003
3020
0230
0302
,
2003
0000
0000
3001
,
1000
1000
0001
0001
,
0010
0010
0001
0001
,
1000
1000
0010
0010
,
0100
0100
0002
2003
,
3001
0001
1000
1000
,
0100
0100
0010
0010
,
0001
0001
1000
1000
,
0020
0000
0000
0030
,
1000
1000
0100
0010
,
0002
0000
1003
0000
,
0001
0001
0010
0100
,
2000
0001
3001
0000
,
0001
0100
0010
1000
,
0002
0000
0013
0020
,
0130
1000
0100
0001
,
0200
0000
2300
0000
,
3020
0000
0000
0000
,
0030
0100
0001
1000
,
0200
0000
0300
0010
,
0100
0000
1000
1000
,
0010
1000
0100
0000
,
0010
0001
0100
0000
,
0001
0010
0100
0000
,
1000
0010
0100
0000
,
0001
0001
1000
1000
,
0001
0001
1000
1000
,
0100
0100
0010
0010
,
0100
0100
0010
0010
,
0001
0100
0010
1000
,
0001
0010
0001
0100
,
0020
2030
3200
0320
,
0032
0000
0000
1003
,
0001
0001
1000
0001
,
0100
0010
1000
0000
,
0001
0001
1000
1000
,
0001
0010
0100
0000
,
1000
1000
0010
0010
,
1000
0100
0010
0000
,
0001
0001
1000
1000
,
0002
0023
0200
0330
,
1000
0100
1000
0001
,
0010
0001
0010
0001
,
0100
0010
1000
0010
,
0100
0001
2000
0000
,
3001
0010
0001
0010
,
0100
0010
0001
1000
,
0001
0100
0001
0100
,
0020
2030
0002
3003
,
1000
1000
0001
0001
,
1000
1000
0100
0100
,
0010
0001
0010
1000
,
0010
0100
0010
0100
,
0110
0000
0000
0000
;

//---------------dance-single - ----------------
#NOTES:
     dance-single:
     :
     Medium:
     5:
     :
0000
0000
0000
0000
,
0000
0000
0000
0000
,
0000
0000
0000
0000
,
0000
0000
0000
0000
0000
0000
0000
0000
1000
0000
0000
0100
0000
0000
0010
0000
,
0001
0001
1000
1000
,
0010
0010
0100
0100
,
0001
0100
0001
0000
0100
0010
0100
0000
,
0010
1000
0010
1000
0002
0000
2003
0000
,
3001
0021
0031
0021
,
0031
2001
3001
2001
,
3010
0210
0310
0210
,
0310
0000
1002
0000
1003
0000
0001
1000
,
0001
0012
0013
0012
,
1003
1002
1003
1002
,
1003
0010
0100
0001
1000
0010
0100
0001
,
2000
0000
3000
0101
,
1000
0100
2000
0000
3001
0010
0002
0000
,
0103
0001
0200
0000
0310
1000
0020
0000
,
1030
0001
2000
0000
3100
0010
0200
0000
,
0310
0001
0020
0000
0032
0000
0203
0000
,
0310
1000
0002
0000
0013
0001
0020
0000
,
0130
1000
0002
0000
1003
0001
2000
0000
,
3010
1000
0002
0000
0103
0001
0200
0000
,
0320
0000
0000
0000
0000
0000
0000
0000
1030
0000
0000
0001
0000
0000
0010
0000
,
0100
2000
3200
0320
,
0032
0000
1003
0101
,
1000
0002
0203
0320
,
2030
0000
3001
1000
0200
0000
1300
0001
,
1000
0020
0230
0302
,
2003
0000
3001
1100
,
0001
0020
0230
2300
,
3001
0000
0000
0100
0000
0000
0010
0000
1000
0000
0000
0100
0000
0000
0010
0000
,
0001
0000
0000
0000
,
0000
1000
0001
2000
,
3010
0000
0000
0200
,
0301
0000
0000
0000
0000
0000
0000
0000
1000
0000
0000
0001
0000
0000
0010
0000
,
0001
0100
0010
1000
,
0100
0010
0001
0100
,
0001
1000
0010
1000
,
0100
0010
0200
0300
,
1000
1100
1000
1001
,
1000
1010
1000
1001
,
0001
0011
0001
1001
,
0001
0101
0001
1001
,
1000
0100
0001
0010
,
1000
0100
0001
0010
,
1010
1100
0101
0011
,
2002
0000
3003
0110
,
1000
0000
0000
0100
0000
0000
1000
0000
0001
0000
0000
0000
0011
0000
0000
0000
,
0001
0000
0000
0100
0000
0000
0001
0000
1000
0000
0000
0000
1010
0000
0000
0000
,
0100
0000
0000
0001
0000
0000
1000
0000
0100
0000
0000
0000
0110
0000
0000
0000
,
0001
0000
0000
0010
0000
0000
0001
0000
0100
0000
0000
0100
0000
0000
0100
0000
,
0010
0000
0000
1000
0000
0000
0001
0000
0100
0000
0000
0000
0110
0000
0000
0000
,
0001
0000
0000
1000
0000
0000
0100
0000
0010
0000
0000
0000
0110
0000
0000
0000
,
1000
0000
0000
0001
0000
0000
0010
0000
0100
0000
0000
1000
0000
0000
0001
0000
,
0200
0320
2030
3001
,
1000
0000
0000
0100
0000
0000
1000
0000
0001
0000
0000
0000
0011
0000
0000
0000
,
0001
0000
0000
0010
0000
0000
0001
0000
0010
0000
0000
0000
1001
0000
0000
0000
,
1000
0000
0000
0010
0000
0000
1000
0000
0001
0000
0000
1000
0000
0000
0001
0000
,
0010
0000
0000
0001
0000
0000
0010
0000
0100
0000
0000
0100
0000
0000
0100
0000
,
0010
0000
0000
0001
0000
0000
0010
0000
0001
0000
0000
0000
1001
0000
0000
0000
,
1000
0000
0000
0010
0000
0000
0100
0000
0001
0000
0000
0000
0101
0000
0000
0000
,
1000
0000
0000
0001
0000
0000
1000
0000
0001
0000
0000
0010
0000
0000
0100
0000
,
2000
3200
0020
0330
,
0001
0100
0001
0000
0100
0010
0100
0000
,
0010
1000
0010
0000
1000
0001
1000
0000
,
0001
0011
0110
1100
,
1000
0100
1000
0100
0010
0001
0010
0001
,
0100
0000
0000
0000
;

//---------------dance-single - ----------------
#NOTES:
     dance-single:
     :
     Hard:
     8:
     :
0000
0000
0000
0000
,
0000
0000
0000
0000
,
0000
0000
0000
0000
,
0000
0000
0000
0000
0000
0000
0000
0000
1100
0000
0000
1001
0000
0000
1010
0000
,
2000
0001
0100
3001
,
0020
0100
0001
0130
,
1000
0001
1000
0001
0010
0100
0010
0100
,
1000
0100
1000
0000
0100
0010
0100
0000
0020
0000
0000
0000
0032
0000
0000
0000
,
1003
0000
0000
0010
0200
0000
0310
0000
1000
0000
0010
0000
0200
0000
0310
0000
,
1000
0000
0000
0001
0020
0000
0130
0000
0010
0000
0001
0000
0020
0000
0130
0000
,
1000
0000
0000
0001
0200
0000
1300
0000
0100
0000
0001
0000
0200
0000
1300
0000
,
0100
0000
0000
0010
2000
0000
3100
0000
1000
0000
0010
0000
1000
0010
1000
0010
,
0100
0001
0020
0031
0100
0001
0020
0031
,
0100
0010
2000
3100
1000
0010
2000
3100
,
0010
0001
0010
0000
0001
0100
0001
0000
0100
0010
0100
0000
0010
1000
0010
1000
,
0001
0000
0000
0001
0000
0010
0000
0000
0100
0000
0000
0100
0000
2000
0000
0000
,
3001
0000
0100
0000
0000
0001
0000
0000
1000
0000
0100
0000
0000
1000
0000
0000
,
0100
0000
0100
0000
0000
0010
0000
0000
0001
0000
0000
0001
0000
1000
0000
0000
,
0010
0000
0010
0000
0000
0100
0000
0000
0001
0000
0001
0000
0000
1000
0000
0000
,
0001
0000
0001
0000
0000
0010
0000
0000
0100
0000
0000
1000
0000
0001
0000
0000
,
0100
0000
0100
0000
0000
0010
0000
0000
1000
0000
1000
0000
0000
0100
0000
0000
,
0001
0000
0001
0000
0000
0100
0000
0000
0010
0000
0000
0010
0000
0001
0000
0000
,
0100
0000
0100
0000
0000
1000
0000
0000
0100
0000
0100
0000
0000
0001
0000
0000
,
0020
0000
0000
0130
0000
1000
0100
0000
2000
0000
0000
3020
0000
0000
0230
0000
,
0301
0001
1000
0010
0100
0001
1000
0001
,
0010
0100
0010
0010
0001
1000
1200
0000
,
1300
1000
0001
0100
0010
1000
0100
0010
,
0001
0001
1000
0001
0200
0300
1010
0100
,
0100
0000
0001
0001
1000
1000
0100
0100
,
0010
0010
0100
0010
0001
0001
1002
0000
,
1003
1000
0001
0001
0010
0010
0100
0100
,
1000
0000
0000
0100
0000
0000
1000
0000
0001
0000
0000
0010
0000
0000
0100
0000
,
1000
0000
0000
0000
,
0000
0000
0010
0000
1000
0000
0100
0100
,
0010
0000
0000
0000
0000
0000
0000
0000
0000
0000
0000
0000
0001
1000
0001
0000
,
0100
0000
0000
0000
0000
0000
0000
0000
0010
0000
0000
1000
0000
0000
0001
0000
,
0010
0100
0010
0000
0100
1000
0100
0000
,
1000
0001
2000
0000
3020
0000
0000
0130
,
0001
0000
0100
0000
0001
0000
0000
0000
1000
0000
0000
0001
0000
0000
0010
0100
,
0020
0000
0000
0000
0030
0000
0100
1000
0200
0000
0000
0000
0000
0000
0310
0000
,
1000
0000
0000
0010
0000
0000
0001
0000
1000
0000
0000
0010
0000
0000
0001
0000
,
1000
0000
0000
0100
0000
0000
0010
0000
1000
0000
0000
0100
0000
0000
0010
0000
,
1000
0000
0000
0010
0000
0000
0001
0000
1000
0000
0000
0010
0000
0000
0001
0000
,
1000
0000
0000
0100
0000
0000
0001
0000
1000
0000
0000
0100
0000
0000
0001
0000
,
0100
0100
0010
0010
0001
0001
1000
1000
,
0010
0010
0100
0100
0001
0001
1000
1000
,
0001
0010
0001
0000
0010
0100
0010
0000
0100
1000
0100
0000
1000
0001
1000
0001
,
0200
0000
0010
0000
0310
0000
2002
3003
,
1000
0100
1000
0001
1000
0010
0100
0001
,
0010
0100
1000
0001
0100
1000
0100
0001
,
1000
0100
0010
0001
1000
0010
0100
0001
,
0010
0000
1000
0000
0010
0000
0001
0000
0100
0000
0000
0010
0000
0000
0010
0000
,
1000
0001
0100
0001
0010
0100
1000
0100
,
0001
0100
0010
0001
1000
0010
1000
0010
,
0001
0010
0100
0001
0010
0100
1000
0001
,
0200
0320
1030
1001
,
1000
0000
0000
2000
0000
0000
3001
0000
0100
0000
0000
0200
0000
0000
1300
0000
,
0100
0000
0000
0200
0000
0000
0301
0000
0010
0000
0000
0020
0000
0000
0130
0000
,
1000
0000
0000
2000
0000
0000
3001
0000
0100
0000
0000
0200
0000
0000
0310
0000
,
1000
0000
0000
2000
0000
0000
3001
0000
1000
0000
0000
0100
0000
0000
0010
0000
,
0001
0000
0000
0002
0000
0000
1003
0000
0001
0000
0000
0002
0000
0000
1003
0001
,
0010
0000
0000
0020
0000
0000
0031
1000
0100
0000
0000
0200
0000
0000
1300
0000
,
0001
0000
0000
0020
0000
0000
0130
0000
1000
0000
0000
0002
0000
0103
0010
0100
,
0020
2030
3002
2003
,
3001
0000
0000
0200
0000
0000
0301
0000
1000
0000
0000
0020
0000
0000
1030
0000
,
0001
0000
0000
2000
0000
0000
3100
0000
1000
0000
0000
0002
0000
0000
0103
0000
,
0001
0000
0000
2000
3010
0000
0000
0020
0130
0000
0000
0200
0301
0000
0000
0002
,
1003
0000
0100
0000
1000
0000
0100
0000
0010
0001
0010
0001
0010
0001
0010
0001
,
1000
0000
0000
0000
;

//---------------dance-single - ----------------
#NOTES:
     dance-single:
     :
     Challenge:
     9:
     :
0000
0000
0000
0000
,
0000
0000
0000
0000
,
0000
0000
0000
0000
,
0000
0000
0000
0000
0000
0000
0000
0000
1100
0000
0000
0110
0000
0000
0011
0000
,
1000
0000
0000
0010
0000
0000
1000
0000
0100
0000
0000
0001
0000
0000
0100
0000
,
0010
0000
0000
0001
0000
0000
0100
0000
1000
0000
0000
0100
0000
0000
0010
0000
,
1000
0100
1000
0001
0010
0100
0010
0001
,
0100
0010
0100
0010
1000
0100
0010
0001
0200
0000
0000
0000
0320
0000
0000
0000
,
1030
0000
0000
0001
0020
0000
0031
0000
1000
0000
0001
0000
0020
0000
0031
0000
,
0100
0000
0000
1000
0020
0000
1030
0000
0100
0000
1000
0000
0020
0000
1030
0000
,
0100
0000
0000
0001
0020
0000
1030
0000
0010
0000
0001
0000
0020
0000
0130
0000
,
1000
0000
0000
0000
0000
0000
0000
0000
0000
1000
0000
0000
0020
0000
0000
0000
0000
0000
0031
0000
0000
0000
0000
0000
0010
0000
0000
0000
0000
0000
0100
0000
0010
0000
0100
0000
0010
0000
0000
0100
0000
0000
0010
0000
0000
0100
0000
0000
,
0001
0100
0201
0301
1001
0001
0021
0031
,
1001
1000
1020
1030
1001
1000
1200
1300
,
0001
0010
0001
0010
0100
1000
0100
0010
0001
0010
0001
1000
0010
0100
0001
0100
,
0010
0000
1000
0001
0000
1000
0000
0001
0010
0000
0100
1000
0000
0010
0100
0010
,
0100
0000
0100
0000
0001
1000
0000
0000
0100
0000
0100
0000
1000
0001
0000
0000
,
0010
0000
0010
0000
0001
0100
0000
0000
0010
0000
0010
1000
0000
0001
0000
0000
,
0001
0000
0001
0000
0010
0100
0000
0000
1000
0000
1000
0000
0010
0100
0000
0000
,
0001
0000
0001
0000
1000
0100
0000
0000
0010
0001
0010
0001
0100
0010
0100
0010
,
1000
0000
1000
0000
0001
0010
0000
0000
0100
0000
0100
0000
1000
0010
0000
0000
,
0100
0000
0100
0000
0001
1000
0000
0000
0100
0000
0100
0010
0000
0001
0000
0000
,
1000
0000
1000
0000
0001
0100
0000
0000
0001
0000
0001
0000
0010
0100
0000
0000
,
2000
0000
0000
3001
0000
0100
0001
0000
1000
0000
0000
0100
0000
0000
0010
0000
,
0001
0000
0000
0010
0002
0000
0103
0000
0020
0000
1030
0000
0200
0000
0310
0000
,
0002
0000
0000
1003
0001
0000
0100
0000
0020
0000
0000
0000
1030
0010
0100
0001
,
1000
0000
0000
0100
0020
0000
0031
0000
0200
0000
0310
0000
0002
0000
0013
0000
,
0200
0000
0000
0301
1000
0000
0100
0000
0020
0000
0030
0000
0011
0000
0100
0000
,
1000
0000
0000
0010
0200
0000
1300
0000
0200
0000
0310
0000
2000
0000
3001
0000
,
0020
0000
0000
0130
0001
0000
0100
0000
0020
0000
0000
0000
0031
0100
0010
1000
,
0001
0100
2000
3100
0002
0013
2000
3010
,
0001
0100
0001
1000
0001
1000
0010
1000
0001
0010
0001
0010
0100
0010
0100
1000
,
0002
0000
2003
0000
,
3020
0000
0100
0000
0001
0000
1030
1000
,
0200
0000
0000
0000
0000
0000
0000
0000
0000
0000
0000
0000
0320
0000
0000
0000
0000
0000
0031
1000
0001
1000
0000
0000
,
0020
0000
0000
0000
0000
0000
0000
0000
1030
0000
0000
0001
0000
0000
0010
0000
,
0100
0000
1000
0000
1100
0000
0000
0001
0000
0010
0000
0100
1100
0000
0000
0100
,
1000
0010
0120
0000
2030
0000
0000
3001
,
0010
0000
0100
0000
0110
0000
0000
0000
1000
0000
0000
0001
0000
0000
0010
0100
,
0020
0000
0000
0000
0000
0000
0130
1000
0200
0000
0000
0000
0300
0000
1000
0000
,
1100
0000
0000
0100
1000
0000
0100
0000
1001
0000
0000
0001
1000
0000
0001
0000
,
1010
0000
0000
0010
1000
0000
0010
0000
1001
0000
0000
0001
1000
0000
0001
0000
,
1100
0000
0000
1000
0100
0000
1000
0000
0110
0000
0000
0010
0100
0000
0010
0000
,
1001
0000
0000
1000
0010
0000
1000
0000
0101
0000
0000
0100
0001
0000
0100
0000
,
0002
0013
0200
1300
0020
0130
0002
1003
,
0200
0310
2000
3001
0200
0310
0002
0103
,
0010
1000
0010
1000
0001
0100
0001
0100
0010
1000
0001
0100
0001
1000
0100
0010
,
0002
0000
0023
0000
0200
0330
2002
3003
,
1000
0000
0001
0100
0000
0001
0010
0100
1000
0000
1000
0010
0000
0010
0100
0000
,
0100
0000
0001
1000
0000
0100
0010
0000
0001
0000
0001
0010
0000
0010
0100
0000
,
1000
0000
0001
0100
0000
0010
1000
0000
0010
0000
0010
0100
0000
0100
0001
0000
,
1000
0000
0001
0010
0000
0100
1000
0000
0100
0000
0000
0010
0000
0000
0001
0000
,
1000
0000
0001
1000
0000
0010
0100
0000
0001
0000
0001
0010
0000
0010
0100
0000
,
1000
0000
0001
0010
0000
0100
0010
0000
0002
0000
0000
0000
0013
0000
0010
0000
,
0001
0000
0100
0010
0000
0010
1000
0000
0001
0000
0001
0010
0000
0100
0010
0001
,
0200
0000
0320
0000
2000
3030
2002
3003
,
1000
0000
0000
0102
0000
0000
0013
0000
0100
0000
0000
0102
0000
0000
1003
0000
,
0010
0000
0000
0012
0000
0000
0103
0000
1000
0000
0000
1200
0000
0000
0310
0000
,
1000
0000
0000
2001
0000
0000
3100
0000
0001
0000
0000
0120
0000
0000
0031
0000
,
1000
0000
0000
0201
0000
0000
1300
0000
0002
0000
0000
0023
0000
0000
2030
0000
,
3001
0000
0000
0021
0000
0000
0130
0000
0001
0000
0000
0201
0000
0000
1300
0010
,
0001
0000
0000
0120
0000
0000
0130
0001
0010
0000
0000
0120
0000
0000
0130
0000
,
1000
0000
0000
0102
0000
0000
0013
0000
0100
0000
0000
2100
0000
3010
0100
0010
,
2000
0000
0000
0000
0000
0000
3200
0000
0000
0000
0000
0000
0020
0000
0000
0300
0000
0000
0031
0010
0001
0010
0001
0010
,
0100
0000
1000
0002
0000
1003
0002
0000
0103
0000
0010
0200
0000
0310
0200
0000
,
1300
0000
0100
0002
0000
0103
0002
0000
0013
0000
0100
0002
0000
0103
0002
0000
,
0103
0000
0100
2000
3010
0000
0010
0200
0301
0000
0001
2000
3100
0000
0100
2000
,
3001
0000
1001
0000
1100
0000
1001
0000
1000
0100
0010
0001
0100
0010
1000
0001
,
0101
0000
0000
0000
;

//---------------dance-single - Original Challenge----------------
#NOTES:
     dance-single:
     Original Challenge:
     Edit:
     9:
     :
0000
0000
0000
0000
,
0000
0000
0000
0000
,
0000
0000
0000
0000
,
0000
0000
0000
0000
0000
0000
0000
0000
1100
0000
0000
0110
0000
0000
0011
0000
,
1000
0000
0000
0001
0000
0000
1000
0000
0001
0000
0000
0010
0000
0000
0010
0000
,
0100
0000
0000
0010
0000
0000
0001
0000
0100
0000
0000
0010
0000
0000
0010
0000
,
1000
0001
1000
0001
0010
0100
0010
0100
,
1000
0100
1000
0100
0010
0001
0010
0001
0200
0000
0000
0000
0302
0000
0000
0000
,
1003
0000
0000
0001
0020
0000
0130
0000
0010
0000
0001
0000
0200
0000
0310
0000
,
1000
0000
0000
0001
0020
0000
0130
0000
0010
0000
0001
0000
0200
0000
0310
0000
,
1000
0000
0000
0001
0020
0000
0130
0000
0010
0000
0001
0000
0200
0000
0310
0000
,
1000
0000
0000
0000
0000
0000
0000
0000
0000
0001
0000
0000
0020
0000
0000
0000
0000
0000
0130
0000
0000
0000
0000
0000
0010
0000
0000
0000
0000
0000
0001
0000
0100
0000
0001
0000
0100
0000
0000
0010
0000
0000
0100
0000
0000
0010
0000
0000
,
1000
0100
1200
1300
1001
1000
1020
1030
,
1001
0001
0021
0031
1001
0001
0102
0103
,
0010
1000
0010
1000
0001
0100
0001
0100
0010
1000
0001
0100
0001
1000
0100
0010
,
0001
0000
1000
0001
0000
0010
0000
0100
1000
0000
0001
1000
0000
0010
0100
0010
,
0100
0000
0100
0000
0001
1000
0000
0000
0100
0000
0100
0000
1000
0001
0000
0000
,
0010
0000
0010
0000
0001
0100
0000
0000
0010
0000
0010
1000
0000
0001
0000
0000
,
0001
0000
0001
0000
0010
0100
0000
0000
1000
0000
1000
0000
0010
0100
0000
0000
,
0001
0000
0001
0000
1000
0100
0000
0000
0010
0001
0010
0001
0100
0010
0100
0010
,
1000
0000
1000
0000
0001
0010
0000
0000
0100
0000
0100
0000
1000
0010
0000
0000
,
0100
0000
0100
0000
0001
1000
0000
0000
0100
0000
0100
0010
0000
0001
0000
0000
,
1000
0000
1000
0000
0001
0100
0000
0000
0001
0000
0001
0000
0010
0100
0000
0000
,
2000
0000
0000
3001
0000
0100
0001
0000
1000
0000
0000
0100
0000
0000
0010
0000
,
0001
0000
0000
0010
0002
0000
0103
0000
0020
0000
1030
0000
0200
0000
0310
0000
,
0002
0000
0000
1003
0001
0000
0100
0000
0020
0000
0000
0000
1030
0010
1000
0010
,
0200
0000
0000
0301
2000
0000
3001
0000
0020
0000
0130
0000
0002
0000
0103
0000
,
0020
0000
0030
0001
0100
0000
0010
0000
2000
0000
0000
0000
3001
0000
0000
0000
,
0011
0000
0000
0100
2000
0000
3010
0000
0200
0000
0301
0000
0020
0000
0130
0000
,
0002
0000
0000
0103
0010
0000
0001
0000
0200
0000
0000
0000
0310
1000
0010
1000
,
0001
1000
2000
3010
0020
0130
0200
0301
,
0001
0100
0001
1000
0100
1000
0010
0100
0001
0010
0001
1000
0100
1000
0001
0010
,
0200
0000
2000
0000
,
0000
3300
0001
0000
0010
0000
0001
0100
,
0020
0000
0000
0000
0000
0000
0000
0000
0000
0000
0000
0000
0000
0000
0000
0000
0000
0000
1030
0001
1000
0001
0000
0000
,
0020
0000
0000
0000
0000
0000
0000
0000
1030
0000
0000
0001
0000
0000
0100
0000
,
1000
1100
0010
0011
,
1000
0000
2010
0000
3002
0000
0000
0103
,
0020
0000
0000
0000
1030
0000
0000
0000
2000
0000
0000
3002
0000
0000
0013
0100
,
0020
0000
0000
0000
0030
0000
0001
1000
0002
0000
0000
0000
0003
0000
0001
0000
,
1000
0000
0000
1000
0000
0000
1000
0000
0010
0000
0000
0010
0000
0000
0010
0000
,
0001
0000
0000
0001
0000
0000
0001
0000
0100
0000
0000
0100
0000
0000
0100
0000
,
1000
0000
0000
1000
0000
0000
1000
0000
0100
0000
0000
0100
0000
0000
0100
0000
,
0001
0000
0000
0001
0000
0000
0001
0000
0010
0000
0000
0010
0000
0000
0010
0000
,
2000
3010
0200
0301
0020
0130
2000
3001
,
0200
0310
0002
1003
0200
0310
2000
3001
,
1000
0100
1000
0100
0010
0001
0010
0001
1000
0001
0100
0010
1000
0100
0010
0001
,
2000
0000
3020
0000
0200
0330
2002
3003
,
1000
0000
0001
0100
0000
0001
0010
0100
1000
0000
1000
0010
0000
1000
0010
0000
,
0100
0000
0001
1000
0000
0100
0010
0000
0001
0000
0001
0010
0000
0010
0100
0000
,
1000
0000
0001
0100
0000
0010
1000
0000
0010
0000
0010
0100
0000
0100
0001
0000
,
1000
0000
0001
0010
0000
0100
1000
0000
0100
0000
0000
0010
0000
0000
0001
0000
,
1000
0000
0001
1000
0000
0010
0100
0000
0001
0000
0001
0010
0000
0010
0100
0000
,
1000
0000
0001
0010
0000
0100
0010
0000
0001
0000
0001
0100
0000
0010
1000
0000
,
0001
0000
0100
0010
0000
0010
1000
0000
0001
0000
0001
0010
0000
0100
0010
0001
,
0200
0000
0320
0000
2000
3030
2002
3003
,
0001
0000
0000
0002
0000
0000
1003
0000
0010
0000
0000
0020
0000
0000
0031
0000
,
0010
0000
0000
0020
0000
0000
1030
0000
0001
0000
0000
0002
0000
0000
0013
0000
,
0100
0000
0000
0200
0000
0000
1300
0000
0010
0000
0000
0020
0000
0000
0031
0000
,
0100
0000
0000
0200
0000
0000
1300
0000
0020
0000
0000
0230
0000
0000
0301
0000
,
1000
0000
0000
2000
0000
0000
3010
0000
1000
0000
0000
2000
0000
0000
3100
0010
,
0001
0000
0000
0002
0000
0000
1003
0001
0100
0000
0000
0200
0000
0000
1300
0000
,
0001
0000
0000
0020
0000
0000
0130
0000
0001
0000
0000
0200
0000
0310
0001
0010
,
0200
0000
0000
0000
0000
0000
0020
0000
0000
0330
0000
0000
2002
0000
0000
3003
0000
0000
0001
0100
0001
0100
0001
0100
,
0010
0000
1000
0002
0000
1003
0002
0000
0013
0000
0100
0020
0000
0130
0020
0000
,
0130
0000
1000
0020
0000
1030
0020
0000
0130
0000
0001
2000
0000
3001
2000
0000
,
3001
0000
0010
0200
1300
0000
0010
0200
0301
0000
0010
0200
1300
0000
0010
0200
,
0301
0000
0001
0000
0010
0000
0010
0000
0001
0100
0001
1000
0100
1000
0001
1000
,
1001
0000
0000
0000
;
