#TITLE:Ain't All Bad;
#SUBTITLE:;
#ARTIST:Fantasia;
#TITLETRANSLIT:;
#SUBTITLETRANSLIT:;
#ARTISTTRANSLIT:;
#GENRE:Reggae;
#CREDIT:;
#BANNER:ain't all bad-bn.png;
#BACKGROUND:ain't all bad-bg.png;
#LYRICSPATH:;
#CDTITLE:cdtitle.png;
#MUSIC:[Round C] - Ain't All Bad.ogg;
#OFFSET:-0.614000;
#SAMPLESTART:37.907001;
#SAMPLELENGTH:27.924999;
#SELECTABLE:YES;
#BPMS:0.000000=70.000000
;
#STOPS:
;
#BGCHANGES:;
#KEYSOUNDS:;
#ATTACKS:;

//---------------dance-single - ----------------
#NOTES:
     dance-single:
     :
     Challenge:
     8:
     0.505209,0.446931,0.056262,0.128599,0.739443,440.000000,433.000000,7.000000,16.000000,0.000000,0.000000,0.505209,0.446931,0.056262,0.128599,0.739443,440.000000,433.000000,7.000000,16.000000,0.000000,0.000000:
// measure 0
0000
0000
0000
0000
,  // measure 1
0011
0000
0000
0000
0000
0000
0001
0000
0000
0000
0000
0000
0010
0000
0000
0000
0000
0000
0001
0000
0000
1000
0000
0000
0100
0000
0000
0000
1000
0000
0000
0000
0100
0000
0000
0000
1000
0000
0000
0000
0000
0000
0001
0000
0000
0100
0000
0000
,  // measure 2
0010
0000
0000
0000
1000
0000
0000
0000
0001
0000
0000
0000
0001
0000
0100
0000
0010
0000
0000
0000
0100
0000
0000
0000
1000
0000
0000
0000
0100
0000
0010
0100
,  // measure 3
0010
0000
0000
0000
1000
0000
0000
0000
0001
0000
0000
0000
0100
0000
0000
0000
0000
0000
0001
0000
0000
0010
0000
0000
0001
0000
0000
0000
0000
0000
1000
0000
0000
0000
0000
0000
0010
0000
0000
0000
0000
0000
0100
0000
0000
0010
0000
0000
,  // measure 4
0200
0000
0001
0000
0310
0000
0100
0010
1000
0001
0000
0000
1000
0000
0100
1000
,  // measure 5
0010
0000
0000
0000
0000
0000
0000
0000
0000
0000
0000
0000
0000
0000
0000
0000
0010
0000
0000
0000
0000
0000
0000
0000
0100
0000
0000
0000
0000
0000
0000
0000
0000
0000
0000
0000
0000
0000
0000
0000
0000
0000
0000
0000
0000
0000
0000
0000
0010
0000
0000
0000
0000
0000
0000
0000
0000
0000
0000
0000
0000
0000
0000
0000
0100
0000
0000
0000
0000
0000
0000
0000
0001
0000
0000
0000
0000
0000
0000
0000
0000
0000
0000
0000
1000
0000
0000
0000
0000
0000
0000
0000
0000
0000
0000
0000
0001
0000
0000
0000
0000
0000
0000
0000
0000
0000
0000
0000
0000
0000
0000
0000
0000
0000
0000
0000
0000
0000
0000
0000
1000
0000
0000
0000
0000
0000
0000
0000
0000
0000
0000
0000
0010
0000
0000
0000
0000
0000
0100
0000
0000
0000
0000
0000
0010
0000
0000
0000
0000
0000
0000
0000
0000
0000
0000
0000
0000
0000
0000
0000
0000
0000
0000
0000
0000
0000
0000
0000
0100
0000
0000
0000
0000
0000
0000
0000
0000
0000
0000
0000
0100
0000
0000
0000
0000
0000
0000
0000
0000
0000
0000
0000
,  // measure 6
0001
0000
0000
0000
0000
0000
0000
0000
0000
0000
0000
0000
0000
0000
0000
0000
0001
0000
0000
0000
0000
0000
0000
0000
1000
0000
0000
0000
0000
0000
0000
0000
0000
0000
0000
0000
0000
0000
0000
0000
0000
0000
0000
0000
0000
0000
0000
0000
0010
0000
0000
0000
0000
0000
0000
0000
0000
0000
0000
0000
0000
0000
0000
0000
0100
0000
0000
0000
0000
0000
0000
0000
0010
0000
0000
0000
0000
0000
0000
0000
0000
0000
0000
0000
0100
0000
0000
0000
0000
0000
0000
0000
0000
0000
0000
0000
0001
0000
0000
0000
0000
0000
0000
0000
0000
0000
0000
0000
0000
0000
0000
0000
0001
0000
0000
0000
0000
0000
0000
0000
1000
0000
0000
0000
0000
0000
0000
0000
0000
0000
0000
0000
0010
0000
0000
0000
0000
0000
0000
0000
0000
0000
0000
0000
1000
0000
0000
0000
0000
0000
0000
0000
0000
0000
0000
0000
0000
0000
0000
0000
1000
0000
0000
0000
0000
0000
0000
0000
0010
0000
0000
0000
0000
0000
0000
0000
0000
0000
0000
0000
0100
0000
0000
0000
0000
0000
0010
0000
0000
0000
0000
0000
,  // measure 7
0100
0000
0000
0000
0001
0000
0000
0000
1000
0000
0000
0000
0001
0000
0000
0000
0100
0000
0001
0000
0000
0100
0000
0000
0020
0000
0000
0000
0000
0000
2030
0000
0000
0000
0000
0000
3020
0000
0000
0000
0000
0000
0130
0000
0000
0010
0000
0000
,  // measure 8
0100
0000
0000
0000
0010
0000
1000
0000
0000
0000
1000
0000
0010
0000
0000
0000
0100
0000
0001
0000
0000
0000
0001
0000
0100
0000
0000
0000
0010
0000
0000
0000
0000
0010
0000
0000
0100
0000
0000
0000
0000
0000
0010
0000
0000
0000
0000
0000
,  // measure 9
0100
0000
0100
0000
0101
0000
0010
1000
0000
0000
0001
0100
0001
0000
0100
0010
,  // measure 10
0100
0000
0100
0000
0110
0000
0010
1000
0000
0000
0001
0000
0010
0100
1000
0100
,  // measure 11
1100
0000
0000
0000
1000
0000
0010
0100
0010
0000
0000
0000
1000
0000
0000
0000
0001
0000
0100
0000
0001
0000
1000
0100
2000
0000
0000
0000
0000
0000
0010
0000
,  // measure 12
3010
0000
0000
0000
1000
0000
0001
0100
0001
0000
0000
0000
0100
0000
0000
0000
0010
0000
1000
0000
0010
0000
0100
0010
0100
0000
0000
0000
0001
0000
0000
0001
,  // measure 13
1000
0000
0000
0000
0100
0000
1000
0100
1000
0000
0000
0000
0001
0000
0000
0000
0100
0000
0000
0000
0010
0000
0100
0010
0100
0000
0001
0000
1000
0000
0001
0000
,  // measure 14
0100
0000
0100
0000
0000
0000
0010
1000
0010
0000
1000
0000
0001
0000
0100
0000
0001
0000
0001
0000
0000
0000
1000
0010
1000
0000
0010
0000
0001
0000
0010
0000
,  // measure 15
1000
0000
0000
0000
0100
0000
0000
0000
1000
0000
0000
0000
0001
0000
0000
0000
0010
0000
0001
0000
0010
0000
0000
0010
0100
0000
0010
0000
0001
0000
1000
0000
,  // measure 16
0100
0000
0000
0000
1000
0000
0000
1000
0001
0000
1000
0000
0010
0000
0100
0000
0002
0000
0000
0000
2003
0000
0000
0000
3001
0000
1000
0000
0001
0000
0000
0001
,  // measure 17
0200
0000
0010
0000
0010
0300
0020
0000
0000
1000
1000
0000
0130
0000
0010
1000
,  // measure 18
0001
0000
0000
0000
0000
0000
0100
0000
0000
0001
0000
0000
0000
0000
0000
0001
0000
0000
1000
0000
0000
0000
0000
0000
0010
0000
0000
0000
0100
0000
0000
0000
0010
0000
0000
0000
0100
0000
0000
0100
0000
0000
0000
0000
0000
0001
0000
0000
,  // measure 19
0101
0000
0000
0000
0001
0000
1000
0000
0000
0000
0010
0000
1000
0000
0000
0000
0100
0000
0000
0000
0000
1000
0000
0000
0010
0000
0000
0000
0100
0000
0010
0000
0000
0000
1000
0000
0001
0000
0000
0100
0000
0000
0001
0000
0000
0100
0000
0000
,  // measure 20
0010
0000
0010
0100
0010
0001
0010
1000
0100
0000
1000
0001
0010
0100
0010
0001
,  // measure 21
0100
0000
0000
0000
0100
0000
0001
0000
0000
0000
0001
0000
1000
0000
0000
0000
0010
0000
0000
0000
0000
0100
0000
0000
0010
0000
0000
0000
0010
0000
1000
0000
0000
0000
1000
0000
0001
0000
0000
0100
0000
0000
0001
0000
0000
0100
0000
0000
,  // measure 22
0010
0000
0010
0001
0010
0100
0010
0000
1000
0000
0001
1000
0010
1000
0001
0000
,  // measure 23
0011
0000
0000
0000
0000
0000
0001
0000
0000
0000
0100
0000
0010
0000
0000
0000
0000
0000
0100
0000
0000
0001
0000
0000
0100
0000
0000
0000
0010
0000
1000
0000
0000
0000
1000
0000
0001
0000
0000
0000
0001
0000
0100
0000
0000
0000
0100
0000
,  // measure 24
0010
0000
1000
0100
0001
0100
1000
0100
0010
0000
0001
0100
0001
0010
0001
0000
,  // measure 25
1000
0000
0010
0100
0000
0100
0010
0000
0010
1000
0000
1000
0001
0000
0001
0100
0000
0001
0100
0000
0010
0100
0000
0010
,  // measure 26
1000
0000
0000
0000
0010
0000
2000
0000
0000
0000
0000
0000
0010
0000
0000
0000
0000
0000
0001
0000
0000
0010
0000
0000
3001
0000
0000
0000
0000
0000
0001
0000
0000
0000
0000
0000
0100
0000
0000
0010
0000
0000
0100
0000
0000
0010
0000
0000
,  // measure 27
0110
0000
0000
0000
0100
0000
0000
0000
0001
0000
0000
0000
1000
0000
0000
0000
0010
0000
0100
0000
0010
0000
0000
0100
0001
0000
0000
0000
1000
0000
0010
1000
,  // measure 28
0010
0000
0000
0000
0100
0000
0000
0000
0001
0000
0000
0000
1000
0000
0000
0000
0100
0000
0010
0000
0100
0000
0000
0010
0100
0000
1000
0000
0100
0000
0010
0000
,  // measure 29
0100
0000
0000
0000
0010
0000
0000
0000
0001
0000
0000
0000
1000
0000
0000
0000
0001
0000
0100
0000
0001
0000
0000
0100
0010
0000
0000
0000
1000
0000
0100
0000
,  // measure 30
1000
0000
1000
0000
0000
0000
0001
0100
0001
0000
0000
0000
0010
0000
0100
0000
0010
0000
0010
0000
0000
0000
0001
1000
0100
0000
1000
0000
0010
0000
1000
0000
,  // measure 31
0100
0000
0100
0000
1000
0100
0010
0100
1000
0000
0001
0000
0100
0001
0010
0001
,  // measure 32
0100
0000
0000
0000
0010
0000
0000
0000
1000
0000
0001
0000
1000
0000
0100
0000
0010
0000
0100
0000
0010
0000
0000
0000
0001
0000
1000
0000
0100
0000
1000
0100
,  // measure 33
2000
0000
0001
0100
0001
3000
0020
0000
0000
0100
0100
0000
1030
0000
0000
0010
,  // measure 34
1000
0000
0000
0000
0000
0000
1000
0000
0000
0001
0000
0000
0000
0000
0000
0001
0000
0000
0100
0000
0000
0000
0000
0000
0010
0000
0000
0000
1000
0000
0000
0000
0001
0000
0000
0000
1000
0000
0000
0010
0000
0000
0000
0000
0000
2000
0000
0000
,  // measure 35
0000
0001
3000
0002
0000
1000
0003
2000
0000
0001
3000
0002
0000
0000
0003
0000
;

//---------------dance-single - ----------------
#NOTES:
     dance-single:
     :
     Hard:
     7:
     0.415650,0.403680,0.048225,0.120561,0.446077,362.000000,356.000000,6.000000,15.000000,0.000000,0.000000,0.415650,0.403680,0.048225,0.120561,0.446077,362.000000,356.000000,6.000000,15.000000,0.000000,0.000000:
// measure 0
0000
0000
0000
0000
,  // measure 1
1100
0000
1000
0000
0010
0000
1000
1000
0100
0000
0010
0000
0100
0000
1000
0001
,  // measure 2
1000
0000
0000
0000
0010
0000
0000
0000
0100
0000
0000
0000
0001
0000
0010
0000
0001
0000
0000
0000
0100
0000
0000
0000
0010
0000
0000
0000
1000
0000
0010
0100
,  // measure 3
0010
0000
0100
0000
0001
0000
0100
0100
0010
0000
1000
0000
0010
0000
0100
0010
,  // measure 4
1000
0000
0001
0000
1000
0000
0100
1000
0001
0000
0100
0000
0010
0000
1000
0100
,  // measure 5
1000
0000
0100
0000
1000
0000
0001
0001
0100
0000
0010
0000
1000
0000
0100
0100
,  // measure 6
0010
0000
0000
0000
0100
0000
0000
0000
1000
0000
0000
0000
0001
0000
0100
0000
0001
0000
0000
0000
1000
0000
0000
0000
0010
0000
0000
0000
0100
0000
0100
0010
,  // measure 7
0100
0000
0001
0000
1000
0000
0100
1000
0001
0000
0100
0000
0010
0000
0100
0100
,  // measure 8
0001
0000
0000
0000
1000
0000
0000
0000
0000
1000
0000
0000
0010
0000
0000
0000
1000
0000
0000
0000
0000
0001
0000
0000
0200
0000
0000
0000
0000
0000
0000
0000
0000
0000
0000
0000
0301
0000
0000
0000
0000
0000
0001
0000
0000
0000
0000
0000
,  // measure 9
1001
0000
1000
0000
1010
0000
0010
1000
0000
0000
0001
0010
0001
0000
0001
0000
,  // measure 10
0011
0000
0010
0000
0110
0000
0010
0001
0000
0000
0001
0000
0200
0000
0000
0000
,  // measure 11
0310
0000
0100
0001
1000
0000
1000
0000
0001
0100
0001
0000
0020
0000
0000
0000
,  // measure 12
0130
0000
1000
1000
0010
0000
0100
0000
0010
0001
0010
0100
0010
0000
1000
0100
,  // measure 13
1000
0000
0001
0000
0100
0000
0010
0000
0100
0010
1000
0000
0100
1000
0100
0001
,  // measure 14
0100
1000
0000
0010
0000
1000
0001
0100
0001
0001
0000
1000
0000
0010
0100
0010
,  // measure 15
0100
0000
0010
0000
1000
0000
0001
0000
0010
0001
0010
0000
0100
0010
0100
1000
,  // measure 16
0100
0000
1000
0000
0001
1000
0010
0100
0001
0000
0100
0000
0001
1000
0001
2000
,  // measure 17
0001
0000
0010
0000
0100
3000
0020
0000
0000
1000
1000
0000
0130
0000
0010
1000
,  // measure 18
0001
0000
0000
0000
0000
0000
0100
0000
0000
0001
0000
0000
0000
0000
0000
0001
0000
0000
1000
0000
0000
0000
0000
0000
0001
0000
0000
0000
1000
0000
0000
0000
0001
0000
0000
0000
0200
0000
0000
0000
0000
0000
0000
0000
0000
0000
0000
0000
,  // measure 19
0310
0000
0000
0000
0000
0000
0100
0000
0000
0000
0000
0000
0001
0000
0000
0000
0100
0000
0000
0000
0000
0000
0000
0000
0001
0000
0000
0000
0000
0000
1000
0000
0000
0000
0000
0000
0010
0000
0000
0100
0000
0000
0010
0000
0000
0100
0000
0000
,  // measure 20
0010
0000
0010
1000
0010
1000
0010
0000
1000
0000
1000
0001
1000
0001
1000
0000
,  // measure 21
0100
0000
0000
0000
0000
0000
0001
0000
0000
0000
0000
0000
0100
0000
0000
0000
1000
0000
0000
0000
0000
0000
0000
0000
0001
0000
0000
0000
0000
0000
0010
0000
0000
0000
0000
0000
0100
0000
0000
1000
0000
0000
0100
0000
0000
1000
0000
0000
,  // measure 22
0001
0000
0001
0010
0001
0010
0001
0000
0100
0000
0100
0001
0100
0001
0100
0000
,  // measure 23
0101
0000
0000
0000
0000
0000
0001
0000
0000
0000
0000
0000
1000
0000
0000
0000
0000
0000
0010
0000
0000
0010
0000
0000
1000
0000
0000
0000
0010
0000
1000
0000
0000
0000
1000
0000
0001
0000
0000
0000
0000
0000
0100
0000
0000
0100
0000
0000
,  // measure 24
0010
0000
0010
0100
0001
0100
0010
0000
0010
0000
1000
0001
0100
0001
1000
0000
,  // measure 25
0001
0000
0000
0000
0010
0000
0001
0000
0000
0000
0010
0000
0001
0000
0000
0000
1000
0000
0100
0000
0000
0000
0100
0000
0010
0000
0000
0000
0000
0000
0100
0000
0000
0001
0000
0000
0100
0000
0000
0000
0000
0000
0100
0000
0000
0010
0000
0000
,  // measure 26
0001
0002
1000
0010
1003
0002
0203
0000
,  // measure 27
0301
0000
0100
0000
0001
0000
1000
0000
0010
0000
0010
0100
0001
0000
1000
0000
,  // measure 28
0001
0000
0010
0000
0100
0000
1000
0000
0100
0000
1000
0000
0001
0100
0001
0100
,  // measure 29
0001
0000
0010
0000
0001
0000
1000
0000
0001
0000
1000
0000
0010
0000
1000
0100
,  // measure 30
1000
1000
0000
0001
0000
0010
0100
0010
0100
0010
0000
0001
0000
0001
1000
0010
,  // measure 31
0100
0000
0100
0000
0001
1000
0100
0010
0001
0000
0001
0000
0001
0010
0100
0010
,  // measure 32
0001
0000
1000
0000
1000
0001
0010
0100
1000
0000
0100
0000
1000
0001
0100
0020
,  // measure 33
0000
0000
0001
0000
0100
0030
0200
0000
1000
0000
0001
0000
0310
0000
0000
0100
,  // measure 34
0100
0000
0000
0000
0000
0000
0001
0000
0000
0100
0000
0000
0000
0000
0000
0001
0000
0000
1000
0000
0000
0000
0000
0000
0100
0000
0000
0000
0010
0000
0000
0000
0100
0000
0000
0000
0010
0000
0000
0001
0000
0000
0000
0000
0000
0002
0000
0000
,  // measure 35
0000
0000
0003
0020
0000
0000
0030
0002
0000
0000
0003
0200
0000
0000
0300
0000
;

//---------------dance-single - ----------------
#NOTES:
     dance-single:
     :
     Medium:
     4:
     0.334127,0.302760,0.040187,0.064299,0.160748,291.000000,286.000000,5.000000,8.000000,0.000000,0.000000,0.334127,0.302760,0.040187,0.064299,0.160748,291.000000,286.000000,5.000000,8.000000,0.000000,0.000000:
// measure 0
0000
0000
0000
0000
,  // measure 1
1001
1000
0001
1000
0100
0010
0100
1000
,  // measure 2
0001
0000
0100
0000
0010
0000
0100
0010
1000
0000
0001
0000
0010
0000
0001
0000
,  // measure 3
0100
0000
0010
0000
0001
0000
0001
0100
0001
0000
0010
0000
0001
0000
1000
0000
,  // measure 4
0001
0000
0100
0000
0001
0000
0100
0010
0100
0000
0001
0000
1000
0000
0010
0100
,  // measure 5
0001
0000
0010
0000
0100
0000
0001
0100
1000
0000
0010
0000
1000
0000
0100
1000
,  // measure 6
0010
0000
0100
0000
0001
0000
0100
0010
1000
0000
0001
0000
0100
0000
0010
0100
,  // measure 7
0010
0000
1000
0000
0001
0000
1000
0001
1000
0000
0100
0000
0010
0000
0100
0000
,  // measure 8
1000
0000
0001
0000
1000
0000
0010
1000
2000
0000
0000
0000
3100
0000
1000
0000
,  // measure 9
1100
0000
1000
0000
0001
0000
0000
1000
0000
0000
0010
0000
0100
0000
0010
0000
,  // measure 10
0110
0000
0100
0000
0001
0000
0000
1000
0000
0000
0001
0000
0200
0000
0000
0000
,  // measure 11
0301
0000
0100
0000
0001
0000
1000
0000
0001
0100
0001
0000
0010
0000
0000
0000
,  // measure 12
0010
0000
1000
0000
0010
0000
0001
0000
0100
0001
0010
0000
0010
0000
0100
0000
,  // measure 13
0010
0000
0001
0000
1000
0000
0010
0000
0100
0001
0010
0000
0100
0000
1000
0000
,  // measure 14
0100
1000
0000
1000
0000
1000
0001
0100
0001
0010
0000
0010
0000
0000
0100
0000
,  // measure 15
0010
0001
1000
0100
0001
0010
0100
0010
,  // measure 16
1000
0001
0100
0010
0001
0010
0100
0001
,  // measure 17
1000
0010
0100
0002
0000
0010
1003
0001
,  // measure 18
0001
0000
0000
0000
0000
0000
0100
0000
0000
0001
0000
0000
0000
0000
0000
0001
0000
0000
1000
0000
0000
0000
0000
0000
0001
0000
0000
0000
1000
0000
0000
0000
0001
0000
0000
0000
1000
0000
0000
0000
0000
0000
0000
0000
0000
0000
0000
0000
,  // measure 19
1001
0000
1000
0000
0001
0000
1000
0000
0001
0000
1000
0000
0010
0000
0100
0001
,  // measure 20
0100
0010
0100
0010
1000
0001
1000
0001
,  // measure 21
0010
0000
0001
0000
0100
0000
0010
0000
0001
0000
0010
0000
0100
0000
0100
0001
,  // measure 22
1000
0001
1000
0001
0010
1000
0010
0001
,  // measure 23
0011
0001
1000
0010
0100
0001
0010
0100
,  // measure 24
0010
0000
0001
0000
1000
0000
0010
0000
1000
0000
2000
0000
0000
3000
1000
0000
,  // measure 25
0001
0100
0001
0010
0100
1000
0100
0010
,  // measure 26
0001
0002
1000
0010
1003
0000
0020
0000
,  // measure 27
0130
0000
0010
0000
1000
0000
0001
0000
0010
0100
0010
0000
0001
0000
1000
0000
,  // measure 28
0001
0000
0010
0000
0100
0000
1000
0000
0010
0100
0001
0000
1000
0000
0001
0000
,  // measure 29
1000
0000
0010
0000
0001
0000
0100
0000
1000
0100
1000
0000
0010
0000
1000
0000
,  // measure 30
0001
0100
0000
0100
0000
0000
0001
1000
0001
0010
0000
0010
0000
0000
0001
0000
,  // measure 31
0100
0001
1000
0100
0001
0010
1000
0100
,  // measure 32
0010
0100
1000
0001
0010
0100
0010
0001
,  // measure 33
1000
0010
0100
0200
0000
0010
0310
0100
,  // measure 34
0001
0000
0000
0000
0000
0000
0001
0000
0000
1000
0000
0000
0000
0000
0000
0010
0000
0000
1000
0000
0000
0000
0000
0000
0100
0000
0000
0000
0010
0000
0000
0000
0100
0000
0000
0000
0010
0000
0000
0000
0000
0000
0000
0000
0000
0020
0000
0000
,  // measure 35
0000
0000
0000
0000
0000
0000
0000
0030
;

//---------------dance-single - ----------------
#NOTES:
     dance-single:
     :
     Easy:
     2:
     0.207825,0.216257,0.032150,0.104486,0.020094,181.000000,177.000000,4.000000,13.000000,0.000000,0.000000,0.207825,0.216257,0.032150,0.104486,0.020094,181.000000,177.000000,4.000000,13.000000,0.000000,0.000000:
// measure 0
0000
0000
0000
0000
,  // measure 1
0110
1000
0001
0100
,  // measure 2
0001
0100
0010
0100
0001
0000
0010
0000
,  // measure 3
0100
0010
1000
0010
0100
0000
1000
0000
,  // measure 4
0010
1000
0001
0100
0001
0000
1000
0000
,  // measure 5
0001
0010
0100
0010
0001
0000
1000
0000
,  // measure 6
0010
0100
0001
1000
0010
0000
1000
0000
,  // measure 7
0001
0010
0001
1000
0002
0000
0023
0000
,  // measure 8
0032
0000
1000
0000
0000
0000
0013
0001
,  // measure 9
0011
0000
0010
0000
0010
0000
0000
0001
0000
0000
1000
0000
0001
0000
0000
0000
,  // measure 10
0100
0000
0100
0000
0001
0000
0000
1000
0000
0000
0001
0000
0002
0000
0000
0000
,  // measure 11
0013
0000
0001
1000
0001
0000
0100
0000
,  // measure 12
0010
0000
1000
0001
0100
0000
0001
0000
,  // measure 13
0010
0000
1000
0100
0010
0000
0100
0000
,  // measure 14
0002
0000
0000
0203
0000
0000
0320
0000
,  // measure 15
0130
0010
0000
0100
0000
0010
0000
0100
,  // measure 16
0001
1000
0000
0001
0000
1000
0000
0001
,  // measure 17
1000
0010
0000
0100
0000
0010
0000
1000
,  // measure 18
0001
0000
0000
0100
0000
0000
0001
0000
0100
0000
0000
0000
0010
0000
0000
0000
,  // measure 19
0110
0001
0100
0010
,  // measure 20
1000
0010
1000
0010
1000
0001
1000
0001
,  // measure 21
1000
0001
0100
0010
,  // measure 22
1000
0001
1000
0001
1000
0100
1000
0100
,  // measure 23
1100
1000
0001
0010
,  // measure 24
0001
0100
0001
0100
0001
1000
0001
1000
,  // measure 25
0001
1000
0100
1000
,  // measure 26
0001
0002
0000
0010
0003
0000
0020
0000
,  // measure 27
0031
0000
1000
0010
0100
0000
0001
0000
,  // measure 28
1000
0000
0100
1000
0001
0000
1000
0000
,  // measure 29
0001
0000
0100
0010
1000
0000
0010
0000
,  // measure 30
0200
0000
0000
0302
0000
0000
0023
0000
,  // measure 31
0031
0001
0000
1000
0000
0010
0000
0100
,  // measure 32
0010
0100
0000
0001
0000
0100
0000
0001
,  // measure 33
0001
1000
0000
0001
0000
0010
0000
0100
,  // measure 34
0010
0000
0000
0100
0000
0000
1000
0000
0100
0000
0000
0000
0100
0000
0000
0200
,  // measure 35
0000
0000
0000
0000
0000
0000
0000
0300
;

//---------------dance-single - ----------------
#NOTES:
     dance-single:
     :
     Beginner:
     1:
     0.114820,0.125685,0.024112,0.048225,0.000000,100.000000,97.000000,3.000000,6.000000,0.000000,0.000000,0.114820,0.125685,0.024112,0.048225,0.000000,100.000000,97.000000,3.000000,6.000000,0.000000,0.000000:
// measure 0
0000
0000
0000
0000
,  // measure 1
0001
0000
0001
0010
,  // measure 2
0100
0000
0100
0010
,  // measure 3
0001
0000
0100
0000
,  // measure 4
0010
0000
1000
0001
,  // measure 5
0100
0000
0001
1000
,  // measure 6
0010
0000
1000
0100
,  // measure 7
1000
0000
2000
0000
,  // measure 8
3200
1000
0000
0300
,  // measure 9
1100
1000
0000
0001
,  // measure 10
0100
0001
2000
0020
,  // measure 11
3030
1000
0000
0100
,  // measure 12
0000
1000
0000
0001
,  // measure 13
0000
1000
0000
0010
,  // measure 14
0000
0100
0000
0001
,  // measure 15
0000
0001
0000
0001
0000
0001
0000
0001
,  // measure 16
0000
1000
0000
1000
0000
1000
0000
1000
,  // measure 17
0000
0010
0000
0100
0000
0010
0000
0100
,  // measure 18
0001
0000
0100
0000
,  // measure 19
0101
0000
0001
0000
,  // measure 20
1000
0100
1000
0010
,  // measure 21
1000
0000
0001
0000
,  // measure 22
0001
0100
0001
0000
,  // measure 23
0010
0000
1000
0000
,  // measure 24
0001
1000
0001
0100
,  // measure 25
0001
0000
1000
0010
,  // measure 26
0100
0020
0000
0000
0030
0000
0200
0000
,  // measure 27
0310
0100
0000
0001
,  // measure 28
0000
1000
0000
0010
,  // measure 29
0000
0100
0000
0001
,  // measure 30
0000
0100
0000
0001
,  // measure 31
0000
0100
0000
0100
0000
0100
0000
0100
,  // measure 32
0000
0010
0000
0010
0000
0010
0000
0010
,  // measure 33
0000
1000
0000
0001
0000
1000
0000
0100
,  // measure 34
1000
0000
0001
1001
;
