#TITLE:123456 Pokémon;
#SUBTITLE:;
#ARTIST:Lemon Demon;
#TITLETRANSLIT:;
#SUBTITLETRANSLIT:;
#ARTISTTRANSLIT:;
#GENRE:Neil Hop;
#CREDIT:;
#BANNER:pokemonbg..png;
#BACKGROUND:pokemonjacket.png;
#LYRICSPATH:;
#CDTITLE:;
#MUSIC:[Round C] - 123456 Pokémon.ogg;
#OFFSET:0.000000;
#SAMPLESTART:9.580000;
#SAMPLELENGTH:12.000000;
#SELECTABLE:YES;
#DISPLAYBPM:0.000000;
#BPMS:0.000000=100.000000
;
#STOPS:
;
#BGCHANGES:0.000=Produce_0.avi=1.000=0=0=0=StretchNoLoop====,
99999=-nosongbg-=1.000=0=0=0 // don't automatically add -songbackground-
;
#KEYSOUNDS:;
#ATTACKS:;

//---------------dance-single - ----------------
#NOTES:
     dance-single:
     :
     Challenge:
     11:
     0.185146,1.000000,0.083079,0.000000,0.008308,146.000000,10.000000,0.000000,5.000000,0.000000,0.000000,0.185146,1.000000,0.083079,0.000000,0.008308,146.000000,10.000000,0.000000,5.000000,0.000000,0.000000:
// measure 0
0000
0000
0000
0000
,  // measure 1
0000
0000
0000
0000
,  // measure 2
0000
0000
0000
0000
,  // measure 3
0000
0000
0000
0000
,  // measure 4
0000
0000
0000
0000
,  // measure 5
0000
0000
0000
0000
,  // measure 6
0000
0000
0000
0000
,  // measure 7
0000
0000
0000
0000
,  // measure 8
0000
0000
0000
0000
,  // measure 9
0000
0000
0000
0000
,  // measure 10
0000
0000
0000
0000
,  // measure 11
0000
0000
0000
0000
,  // measure 12
0000
0000
0000
0000
,  // measure 13
0000
0000
0000
0000
,  // measure 14
0000
0000
0000
0000
,  // measure 15
0000
0000
0000
0000
,  // measure 16
0000
0000
0000
0000
,  // measure 17
0000
0000
0000
0000
,  // measure 18
0000
0000
0000
0000
,  // measure 19
0000
0000
0000
0000
,  // measure 20
0000
0000
0000
0000
,  // measure 21
0000
0000
0000
0000
,  // measure 22
0000
0000
0000
0000
,  // measure 23
0000
0000
0000
0000
,  // measure 24
0000
0000
0000
0000
,  // measure 25
0000
0000
0000
0000
,  // measure 26
0000
0000
0000
0000
,  // measure 27
0000
0000
0000
0000
,  // measure 28
0000
0000
0000
0000
,  // measure 29
0000
0000
0000
0000
,  // measure 30
0000
0000
0000
0000
,  // measure 31
0000
0000
0000
0000
,  // measure 32
0000
0000
0000
0000
,  // measure 33
0000
0000
0000
0000
,  // measure 34
0000
0000
0000
0000
,  // measure 35
0000
0000
0000
0000
,  // measure 36
0000
0000
0000
0000
,  // measure 37
0000
0000
0000
0000
,  // measure 38
0000
0000
0000
0000
,  // measure 39
0000
0000
0000
0000
,  // measure 40
0000
0000
0000
0000
,  // measure 41
0000
0000
0000
0000
,  // measure 42
0000
0000
0000
0000
,  // measure 43
0000
0000
0000
0000
,  // measure 44
0000
0000
0000
0000
,  // measure 45
0000
0000
0000
0000
,  // measure 46
0000
0000
0000
0000
,  // measure 47
0000
0000
0000
0000
,  // measure 48
0000
0000
0000
0000
,  // measure 49
0000
0000
0000
0000
,  // measure 50
0000
0000
0000
0000
,  // measure 51
0000
0000
0000
0000
,  // measure 52
0000
0000
0000
0000
,  // measure 53
0000
0000
0000
0000
,  // measure 54
0000
0000
0000
0000
,  // measure 55
0000
0000
0000
0000
,  // measure 56
0000
0000
0000
0000
,  // measure 57
0000
0000
0000
0000
,  // measure 58
0000
0000
0000
0000
,  // measure 59
0000
0000
0000
0000
,  // measure 60
0000
0000
0000
0000
,  // measure 61
0000
0000
0000
0000
,  // measure 62
0000
0000
0000
0000
,  // measure 63
0000
0000
0000
0000
,  // measure 64
0000
0000
0000
0000
,  // measure 65
0000
0000
0000
0000
,  // measure 66
0000
0000
0000
0000
,  // measure 67
0000
0000
0000
0000
,  // measure 68
0000
0000
0000
0000
,  // measure 69
0000
0000
0000
0000
,  // measure 70
0000
0000
0000
0000
,  // measure 71
0000
0000
0000
0000
,  // measure 72
0000
0000
0000
0000
,  // measure 73
0000
0000
0000
0000
,  // measure 74
0000
0000
0000
0000
,  // measure 75
0000
0000
0000
0000
,  // measure 76
0000
0000
0000
0000
,  // measure 77
0000
0000
0000
0000
,  // measure 78
0000
0000
0000
0000
,  // measure 79
0000
0000
0000
0000
,  // measure 80
0001
0000
0000
0000
,  // measure 81
0000
0000
0000
0000
,  // measure 82
0001
0000
0000
0000
,  // measure 83
0000
0000
0000
0000
,  // measure 84
0100
0000
0000
0000
,  // measure 85
0000
0000
0000
0000
,  // measure 86
0100
0000
0000
0000
,  // measure 87
0000
0000
0000
0000
,  // measure 88
0010
0000
0000
0000
,  // measure 89
0000
0000
0000
0000
,  // measure 90
0010
0000
0000
0000
,  // measure 91
0000
0000
0000
0000
,  // measure 92
1000
0000
0000
0000
,  // measure 93
0000
0000
0000
0000
,  // measure 94
0000
0000
0000
0000
,  // measure 95
0000
0000
0000
0000
,  // measure 96
0000
0000
0000
0000
,  // measure 97
0000
0000
0000
0000
,  // measure 98
0000
0000
0000
0000
,  // measure 99
0000
0000
0000
0000
,  // measure 100
0000
0000
0000
0000
,  // measure 101
0000
0000
0000
0000
,  // measure 102
0000
0000
0000
0000
,  // measure 103
0000
0000
0000
0000
,  // measure 104
0000
0000
0000
0000
,  // measure 105
0000
0000
0000
0000
,  // measure 106
0000
0000
0000
0000
,  // measure 107
0000
0000
0000
0000
,  // measure 108
0000
0000
0000
0000
,  // measure 109
0000
0000
0000
0000
,  // measure 110
0000
0000
0000
0000
,  // measure 111
0000
0000
0000
0000
,  // measure 112
1000
0000
0000
0000
,  // measure 113
0000
0000
0000
0000
,  // measure 114
0100
0000
0000
0000
,  // measure 115
0000
0000
0000
0000
,  // measure 116
0010
0000
0000
0000
,  // measure 117
0000
0000
0000
0000
,  // measure 118
0001
0000
0000
0000
,  // measure 119
0000
0000
0000
0000
,  // measure 120
0100
0000
0000
0000
,  // measure 121
0000
0000
0000
0000
,  // measure 122
0010
0000
0000
0000
,  // measure 123
0000
0000
0000
0000
,  // measure 124
0100
0000
0000
0000
,  // measure 125
0000
0000
0000
0000
,  // measure 126
0000
0000
0000
0000
,  // measure 127
0000
0000
0000
0000
,  // measure 128
0000
0000
0000
11FF
,  // measure 129
0000
0000
0000
F1F1
,  // measure 130
0000
0000
0000
0000
,  // measure 131
0000
0000
0000
0000
,  // measure 132
0000
0000
0000
0000
,  // measure 133
0000
0000
0000
0000
,  // measure 134
0000
0000
0000
0000
,  // measure 135
0000
0000
0000
0000
,  // measure 136
0000
0000
0000
0000
,  // measure 137
0000
0000
0000
0000
,  // measure 138
0000
0000
0000
0000
,  // measure 139
0000
0000
0000
0000
,  // measure 140
0000
0000
0000
0000
,  // measure 141
0000
0000
0000
0000
,  // measure 142
0000
0000
0000
0000
,  // measure 143
0000
0000
0000
0000
,  // measure 144
0000
0000
0000
0000
,  // measure 145
0000
0000
0000
0000
,  // measure 146
1000
0000
0000
0000
,  // measure 147
0000
0000
0000
0000
,  // measure 148
0100
0000
0000
0000
,  // measure 149
0000
0000
0000
0000
,  // measure 150
0001
0000
0000
0000
,  // measure 151
0000
0000
0000
0000
,  // measure 152
0100
0000
0000
0000
,  // measure 153
0000
0000
0000
0000
,  // measure 154
0010
0000
0000
0000
,  // measure 155
0000
0000
0000
0000
,  // measure 156
0001
0000
0000
0000
,  // measure 157
0000
0000
0000
0000
,  // measure 158
1000
0000
0000
0000
,  // measure 159
0000
0000
0000
0000
,  // measure 160
0000
0000
0000
0000
,  // measure 161
0000
0000
0000
0000
,  // measure 162
0000
0000
0000
FF1F
,  // measure 163
0000
0000
0000
1FFF
,  // measure 164
0000
0000
0000
0000
,  // measure 165
0000
0000
0000
F1FF
,  // measure 166
0000
0000
0000
0000
,  // measure 167
0000
0000
0000
0000
,  // measure 168
0000
0000
0000
0000
,  // measure 169
0000
0000
0000
0000
,  // measure 170
0000
0000
0000
0000
,  // measure 171
0000
0000
0000
0000
,  // measure 172
0000
0000
0000
0000
,  // measure 173
0000
0000
0000
0000
,  // measure 174
0000
0000
0000
0000
,  // measure 175
0000
0000
0000
0000
,  // measure 176
0000
0000
0000
0000
,  // measure 177
0000
0000
0000
0000
,  // measure 178
0000
0000
0000
0000
,  // measure 179
0000
0000
0000
0000
,  // measure 180
0000
0000
0000
0000
,  // measure 181
0000
0000
0000
0000
,  // measure 182
1000
0000
0000
0000
,  // measure 183
0000
0000
0000
0000
,  // measure 184
1000
0000
0000
0000
,  // measure 185
0000
0000
0000
0000
,  // measure 186
0100
0000
0000
0000
,  // measure 187
0000
0000
0000
0000
,  // measure 188
0100
0000
0000
0000
,  // measure 189
0000
0000
0000
0000
,  // measure 190
0010
0000
0000
0000
,  // measure 191
0000
0000
0000
0000
,  // measure 192
0001
0000
0000
0000
,  // measure 193
0000
0000
0000
0000
,  // measure 194
0001
0000
0000
0000
,  // measure 195
0000
0000
0000
0000
,  // measure 196
0000
0000
0000
0000
,  // measure 197
0000
0000
0000
0000
,  // measure 198
0000
0000
0000
0000
,  // measure 199
0000
0000
0000
0000
,  // measure 200
0000
0000
0000
0000
,  // measure 201
0000
0000
0000
0000
,  // measure 202
0000
0000
0000
0000
,  // measure 203
0000
0000
0000
0000
,  // measure 204
0000
0000
0000
0000
,  // measure 205
0000
0000
0000
0000
,  // measure 206
0000
0000
0000
0000
,  // measure 207
0000
0000
0000
0000
,  // measure 208
0000
0000
0000
0000
,  // measure 209
0000
0000
0000
0000
,  // measure 210
0000
0000
0000
0000
,  // measure 211
0000
0000
0000
0000
,  // measure 212
0000
0000
0000
0000
,  // measure 213
0000
0000
0000
0000
,  // measure 214
0001
0000
0000
0000
,  // measure 215
0000
0000
0000
0000
,  // measure 216
0100
0000
0000
0000
,  // measure 217
0000
0000
0000
0000
,  // measure 218
1000
0000
0000
0000
,  // measure 219
0000
0000
0000
0000
,  // measure 220
0100
0000
0000
0000
,  // measure 221
0000
0000
0000
0000
,  // measure 222
0001
0000
0000
0000
,  // measure 223
0000
0000
0000
0000
,  // measure 224
0010
0000
0000
0000
,  // measure 225
0000
0000
0000
0000
,  // measure 226
0100
0000
0000
0000
,  // measure 227
0000
0000
0000
0000
,  // measure 228
0000
0000
0000
0000
,  // measure 229
0000
0000
0000
0000
,  // measure 230
0000
0000
0000
1F1F
,  // measure 231
0000
0000
0000
1F1F
,  // measure 232
0000
0000
0000
0000
,  // measure 233
0000
0000
0000
0000
,  // measure 234
0000
0000
0000
0000
,  // measure 235
0000
0000
0000
0000
,  // measure 236
0000
0000
0000
0000
,  // measure 237
0000
0000
0000
0000
,  // measure 238
0000
0000
0000
0000
,  // measure 239
0000
0000
0000
0000
,  // measure 240
0000
0000
0000
0000
,  // measure 241
0000
0000
0000
0000
,  // measure 242
0000
0000
0000
0000
,  // measure 243
0000
0000
0000
0000
,  // measure 244
0000
0000
0000
0000
,  // measure 245
0000
0000
0000
0000
,  // measure 246
0000
0000
0000
0000
,  // measure 247
0000
0000
0000
0000
,  // measure 248
0001
0000
0000
0000
,  // measure 249
0000
0000
0000
0000
,  // measure 250
1000
0000
0000
0000
,  // measure 251
0000
0000
0000
0000
,  // measure 252
0001
0000
0000
0000
,  // measure 253
0000
0000
0000
0000
,  // measure 254
1000
0000
0000
0000
,  // measure 255
0000
0000
0000
0000
,  // measure 256
0010
0000
0000
0000
,  // measure 257
0000
0000
0000
0000
,  // measure 258
0100
0000
0000
0000
,  // measure 259
0000
0000
0000
0000
,  // measure 260
0001
0000
0000
0000
,  // measure 261
0000
0000
0000
0000
,  // measure 262
0000
0000
0000
0000
,  // measure 263
0000
0000
0000
0000
,  // measure 264
0000
0000
0000
0000
,  // measure 265
0000
0000
0000
0000
,  // measure 266
0000
0000
0000
0000
,  // measure 267
0000
0000
0000
0000
,  // measure 268
0000
0000
0000
0000
,  // measure 269
0000
0000
0000
0000
,  // measure 270
0000
0000
0000
0000
,  // measure 271
0000
0000
0000
0000
,  // measure 272
0000
0000
0000
0000
,  // measure 273
0000
0000
0000
0000
,  // measure 274
0000
0000
0000
0000
,  // measure 275
0000
0000
0000
0000
,  // measure 276
0000
0000
0000
0000
,  // measure 277
0000
0000
0000
0000
,  // measure 278
0000
0000
0000
0000
,  // measure 279
0000
0000
0000
0000
,  // measure 280
0001
0000
0000
0000
,  // measure 281
0000
0000
0000
0000
,  // measure 282
0100
0000
0000
0000
,  // measure 283
0000
0000
0000
0000
,  // measure 284
0001
0000
0000
0000
,  // measure 285
0000
0000
0000
0000
,  // measure 286
0001
0000
0000
0000
,  // measure 287
0000
0000
0000
0000
,  // measure 288
0010
0000
0000
0000
,  // measure 289
0000
0000
0000
0000
,  // measure 290
0001
0000
0000
0000
,  // measure 291
0000
0000
0000
0000
,  // measure 292
0001
0000
0000
0000
,  // measure 293
0000
0000
0000
0000
,  // measure 294
0100
0000
0000
0000
,  // measure 295
0000
0000
0000
0000
,  // measure 296
0000
0000
0000
0000
,  // measure 297
0000
0000
0000
0000
,  // measure 298
0000
0000
0000
0000
,  // measure 299
0000
0000
0000
0000
,  // measure 300
0000
0000
0000
0000
,  // measure 301
0000
0000
0000
0000
,  // measure 302
0000
0000
0000
0000
,  // measure 303
0000
0000
0000
0000
,  // measure 304
0000
0000
0000
0000
,  // measure 305
0000
0000
0000
0000
,  // measure 306
0000
0000
0000
0000
,  // measure 307
0000
0000
0000
0000
,  // measure 308
0000
0000
0000
0000
,  // measure 309
0000
0000
0000
0000
,  // measure 310
0000
0000
0000
0000
,  // measure 311
0000
0000
0000
0000
,  // measure 312
1000
0000
0000
0000
,  // measure 313
0000
0000
0000
0000
,  // measure 314
0100
0000
0000
0000
,  // measure 315
0000
0000
0000
0000
,  // measure 316
0001
0000
0000
0000
,  // measure 317
0000
0000
0000
0000
,  // measure 318
0001
0000
0000
0000
,  // measure 319
0000
0000
0000
0000
,  // measure 320
0010
0000
0000
0000
,  // measure 321
0000
0000
0000
0000
,  // measure 322
0001
0000
0000
0000
,  // measure 323
0000
0000
0000
0000
,  // measure 324
0100
0000
0000
0000
,  // measure 325
0000
0000
0000
0000
,  // measure 326
0000
0000
0000
0000
,  // measure 327
0000
0000
0000
0000
,  // measure 328
0000
0000
0000
0000
,  // measure 329
0000
0000
0000
0000
,  // measure 330
0000
0000
0000
0000
,  // measure 331
0000
0000
0000
0000
,  // measure 332
0000
0000
0000
0000
,  // measure 333
0000
0000
0000
0000
,  // measure 334
0000
0000
0000
0000
,  // measure 335
0000
0000
0000
0000
,  // measure 336
0000
0000
0000
0000
,  // measure 337
0000
0000
0000
0000
,  // measure 338
0000
0000
0000
0000
,  // measure 339
0000
0000
0000
0000
,  // measure 340
0000
0000
0000
0000
,  // measure 341
0000
0000
0000
0000
,  // measure 342
0000
0000
0000
0000
,  // measure 343
0000
0000
0000
0000
,  // measure 344
0010
0000
0000
0000
,  // measure 345
0000
0000
0000
0000
,  // measure 346
0100
0000
0000
0000
,  // measure 347
0000
0000
0000
0000
,  // measure 348
0010
0000
0000
0000
,  // measure 349
0000
0000
0000
0000
,  // measure 350
0100
0000
0000
0000
,  // measure 351
0000
0000
0000
0000
,  // measure 352
0100
0000
0000
0000
,  // measure 353
0000
0000
0000
0000
,  // measure 354
0010
0000
0000
0000
,  // measure 355
0000
0000
0000
0000
,  // measure 356
0010
0000
0000
0000
,  // measure 357
0000
0000
0000
0000
,  // measure 358
0000
0000
0000
0000
,  // measure 359
0000
0000
0000
0000
,  // measure 360
0000
0000
0000
0000
,  // measure 361
0000
0000
0000
0000
,  // measure 362
0000
0000
0000
0000
,  // measure 363
0000
0000
0000
0000
,  // measure 364
0000
0000
0000
0000
,  // measure 365
0000
0000
0000
0000
,  // measure 366
0000
0000
0000
0000
,  // measure 367
0000
0000
0000
0000
,  // measure 368
0000
0000
0000
0000
,  // measure 369
0000
0000
0000
0000
,  // measure 370
0000
0000
0000
0000
,  // measure 371
0000
0000
0000
0000
,  // measure 372
0000
0000
0000
0000
,  // measure 373
0000
0000
0000
0000
,  // measure 374
0000
0000
0000
0000
,  // measure 375
0000
0000
0000
0000
,  // measure 376
1000
0000
0000
0000
,  // measure 377
0000
0000
0000
0000
,  // measure 378
0001
0000
0000
0000
,  // measure 379
0000
0000
0000
0000
,  // measure 380
1000
0000
0000
0000
,  // measure 381
0000
0000
0000
0000
,  // measure 382
0001
0000
0000
0000
,  // measure 383
0000
0000
0000
0000
,  // measure 384
0001
0000
0000
0000
,  // measure 385
0000
0000
0000
0000
,  // measure 386
0001
0000
0000
0000
,  // measure 387
0000
0000
0000
0000
,  // measure 388
0001
0000
0000
0000
,  // measure 389
0000
0000
0000
0000
,  // measure 390
0000
0000
0000
0000
,  // measure 391
0000
0000
0000
0000
,  // measure 392
1000
0000
0000
0000
,  // measure 393
0000
0000
0000
0000
,  // measure 394
0100
0000
0000
0000
,  // measure 395
0000
0000
0000
0000
,  // measure 396
1000
0000
0000
0000
,  // measure 397
0000
0000
0000
0000
,  // measure 398
0100
0000
0000
0000
,  // measure 399
0000
0000
0000
0000
,  // measure 400
0010
0000
0000
0000
,  // measure 401
0000
0000
0000
0000
,  // measure 402
0100
0000
0000
0000
,  // measure 403
0000
0000
0000
0000
,  // measure 404
1000
0000
0000
0000
,  // measure 405
0000
0000
0000
0000
,  // measure 406
0000
0000
0000
0000
,  // measure 407
0000
0000
0000
0000
,  // measure 408
0001
0000
0000
0000
,  // measure 409
0000
0000
0000
0000
,  // measure 410
0100
0000
0000
0000
,  // measure 411
0000
0000
0000
0000
,  // measure 412
0010
0000
0000
0000
,  // measure 413
0000
0000
0000
0000
,  // measure 414
1000
0000
0000
0000
,  // measure 415
0000
0000
0000
0000
,  // measure 416
0001
0000
0000
0000
,  // measure 417
0000
0000
0000
0000
0100
0000
0000
0000
0000
0000
0000
0000
,  // measure 418
0001
0000
0000
0000
,  // measure 419
0000
0000
0000
0000
0100
0000
0000
0000
0000
0000
0000
0000
,  // measure 420
0001
0000
0000
0000
,  // measure 421
0000
0000
0000
0000
,  // measure 422
0000
0000
0000
0000
,  // measure 423
0000
0000
0000
0000
,  // measure 424
1000
0000
0000
0000
,  // measure 425
0000
0000
0000
0000
,  // measure 426
0100
0000
0000
0000
,  // measure 427
0000
0000
0000
0000
,  // measure 428
1000
0000
0000
0000
,  // measure 429
0000
0000
0000
0000
,  // measure 430
0000
0000
0000
0000
,  // measure 431
0000
0000
0000
0000
,  // measure 432
0010
0000
0000
0000
,  // measure 433
0000
0000
0000
0000
,  // measure 434
0001
0000
0000
0000
,  // measure 435
0000
0000
0000
0000
,  // measure 436
0100
0000
0000
0000
,  // measure 437
0000
0000
0000
0000
,  // measure 438
0000
0000
0000
0000
,  // measure 439
0000
0000
0000
0000
,  // measure 440
0010
0000
0000
0000
,  // measure 441
0000
0000
0000
0000
,  // measure 442
0000
0000
0000
0000
,  // measure 443
0000
0000
0000
0000
,  // measure 444
1000
0000
0000
0000
,  // measure 445
0000
0000
0000
0000
,  // measure 446
0010
0000
0000
0000
,  // measure 447
0000
0000
0000
0000
,  // measure 448
0001
0000
0000
0000
,  // measure 449
0000
0000
0000
0000
,  // measure 450
0010
0000
0000
0000
,  // measure 451
0000
0000
0000
0000
,  // measure 452
0100
0000
0000
0000
,  // measure 453
0000
0000
0000
0000
,  // measure 454
0000
0000
0000
0000
,  // measure 455
0000
0000
0000
0000
,  // measure 456
0000
0000
0000
0000
,  // measure 457
0000
0000
0000
0000
,  // measure 458
0000
0000
0000
0000
,  // measure 459
0000
0000
0000
0000
,  // measure 460
0000
0000
0000
0000
,  // measure 461
0000
0000
0000
0000
,  // measure 462
0000
0000
0000
0000
,  // measure 463
0000
0000
0000
0000
,  // measure 464
0000
0000
0000
0000
,  // measure 465
0000
0000
0000
0000
,  // measure 466
0000
0000
0000
0000
,  // measure 467
0000
0000
0000
0000
,  // measure 468
0000
0000
0000
0000
,  // measure 469
0000
0000
0000
0000
,  // measure 470
0000
0000
0000
0000
,  // measure 471
0000
0000
0000
0000
,  // measure 472
0001
0000
0000
0000
,  // measure 473
0000
0000
0000
0000
,  // measure 474
0100
0000
0000
0000
,  // measure 475
0000
0000
0000
0000
,  // measure 476
0010
0000
0000
0000
,  // measure 477
0000
0000
0000
0000
,  // measure 478
0100
0000
0000
0000
,  // measure 479
0000
0000
0000
0000
,  // measure 480
1000
0000
0000
0000
,  // measure 481
0000
0000
0000
0000
,  // measure 482
0100
0000
0000
0000
,  // measure 483
0000
0000
0000
0000
,  // measure 484
0001
0000
0000
0000
,  // measure 485
0000
0000
0000
0000
,  // measure 486
0000
0000
0000
0000
,  // measure 487
0000
0000
0000
0000
,  // measure 488
0000
0000
0000
0000
,  // measure 489
0000
0000
0000
0000
,  // measure 490
0000
0000
0000
0000
,  // measure 491
0000
0000
0000
0000
,  // measure 492
0000
0000
0000
0000
,  // measure 493
0000
0000
0000
0000
,  // measure 494
0000
0000
0000
0000
,  // measure 495
0000
0000
0000
0000
,  // measure 496
0000
0000
0000
0000
,  // measure 497
0000
0000
0000
0000
,  // measure 498
0000
0000
0000
0000
,  // measure 499
0000
0000
0000
0000
,  // measure 500
0000
0000
0000
0000
,  // measure 501
0000
0000
0000
0000
,  // measure 502
0000
0000
0000
0000
,  // measure 503
0000
0000
0000
0000
,  // measure 504
1000
0000
0000
0000
,  // measure 505
0000
0000
0000
0000
,  // measure 506
0100
0000
0000
0000
,  // measure 507
0000
0000
0000
0000
,  // measure 508
0010
0000
0000
0000
,  // measure 509
0000
0000
0000
0000
,  // measure 510
1000
0000
0000
0000
,  // measure 511
0000
0000
0000
0000
,  // measure 512
0010
0000
0000
0000
,  // measure 513
0000
0000
0000
0000
,  // measure 514
0001
0000
0000
0000
,  // measure 515
0000
0000
0000
0000
,  // measure 516
1000
0000
0000
0000
,  // measure 517
0000
0000
0000
0000
,  // measure 518
0000
0000
0000
0000
,  // measure 519
0000
0000
0000
0000
,  // measure 520
0000
0000
0000
0000
1100
0110
0011
0000
,  // measure 521
0000
0000
0000
0000
1100
0110
1010
0000
,  // measure 522
0000
0000
0000
0000
,  // measure 523
0000
0000
0000
0000
,  // measure 524
0000
0000
0000
0000
,  // measure 525
0000
0000
0000
0000
,  // measure 526
0000
0000
0000
0000
,  // measure 527
0000
0000
0000
0000
,  // measure 528
0000
0000
0000
0000
,  // measure 529
0000
0000
0000
0000
,  // measure 530
0000
0000
0000
0000
,  // measure 531
0000
0000
0000
0000
,  // measure 532
0000
0000
0000
0000
,  // measure 533
0000
0000
0000
0000
,  // measure 534
0000
0000
0000
0000
,  // measure 535
0000
0000
0000
0000
,  // measure 536
0000
0000
0000
0000
,  // measure 537
0000
0000
0000
0000
,  // measure 538
1000
0000
0000
0000
,  // measure 539
0000
0000
0000
0000
,  // measure 540
0100
0000
0000
0000
,  // measure 541
0000
0000
0000
0000
,  // measure 542
0010
0000
0000
0000
,  // measure 543
0000
0000
0000
0000
,  // measure 544
0100
0000
0000
0000
,  // measure 545
0000
0000
0000
0000
,  // measure 546
1000
0000
0000
0000
,  // measure 547
0000
0000
0000
0000
,  // measure 548
0001
0000
0000
0000
,  // measure 549
0000
0000
0000
0000
,  // measure 550
0010
0000
0000
0000
,  // measure 551
0000
0000
0000
0000
,  // measure 552
0000
0000
0000
0000
,  // measure 553
0000
0000
0000
0000
,  // measure 554
0000
0000
0000
0000
,  // measure 555
0000
0000
0000
0000
,  // measure 556
0000
0000
0000
0000
,  // measure 557
0000
0000
0000
0000
,  // measure 558
0000
0000
0000
0000
,  // measure 559
0000
0000
0000
0000
,  // measure 560
0000
0000
0000
0000
,  // measure 561
0000
0000
0000
0000
,  // measure 562
0000
0000
0000
0000
,  // measure 563
0000
0000
0000
0000
,  // measure 564
0000
0000
0000
0000
,  // measure 565
0000
0000
0000
0000
,  // measure 566
0000
0000
0000
0000
,  // measure 567
0000
0000
0000
0000
,  // measure 568
0000
0000
0000
0000
,  // measure 569
0000
0000
0000
0000
,  // measure 570
1000
0000
0000
0000
,  // measure 571
0000
0000
0000
0000
,  // measure 572
0100
0000
0000
0000
,  // measure 573
0000
0000
0000
0000
,  // measure 574
1000
0000
0000
0000
,  // measure 575
0000
0000
0000
0000
,  // measure 576
0001
0000
0000
0000
,  // measure 577
0000
0000
0000
0000
,  // measure 578
0100
0000
0000
0000
,  // measure 579
0000
0000
0000
0000
,  // measure 580
0001
0000
0000
0000
,  // measure 581
0000
0000
0000
0000
,  // measure 582
0010
0000
0000
0000
,  // measure 583
0000
0000
0000
0000
,  // measure 584
0000
0000
0000
0000
,  // measure 585
0000
0000
0000
0000
,  // measure 586
0000
0000
0000
0000
,  // measure 587
0000
0000
0000
0000
,  // measure 588
0000
0000
0000
0000
,  // measure 589
0000
0000
0000
0000
,  // measure 590
0000
0000
0000
0000
,  // measure 591
0000
0000
0000
0000
,  // measure 592
0000
0000
0000
0000
,  // measure 593
0000
0000
0000
0000
,  // measure 594
0000
0000
0000
0000
,  // measure 595
0000
0000
0000
0000
,  // measure 596
0000
0000
0000
0000
,  // measure 597
0000
0000
0000
0000
,  // measure 598
0000
0000
0000
0000
,  // measure 599
0000
0000
0000
0000
,  // measure 600
0000
0000
0000
0000
,  // measure 601
0000
0000
0000
0000
,  // measure 602
0010
0000
0000
0000
,  // measure 603
0000
0000
0000
0000
,  // measure 604
0001
0000
0000
0000
,  // measure 605
0000
0000
0000
0000
,  // measure 606
0001
0000
0000
0000
,  // measure 607
0000
0000
0000
0000
,  // measure 608
1000
0000
0000
0000
,  // measure 609
0000
0000
0000
0000
,  // measure 610
0001
0000
0000
0000
,  // measure 611
0000
0000
0000
0000
,  // measure 612
0010
0000
0000
0000
,  // measure 613
0000
0000
0000
0000
,  // measure 614
MMMM
0000
0000
0000
,  // measure 615
0000
0000
0000
0000
,  // measure 616
0000
0000
0000
0000
,  // measure 617
0000
0000
0000
0000
,  // measure 618
0000
0000
0000
0000
,  // measure 619
0000
0000
0000
0000
,  // measure 620
00M0
0000
0000
0000
;

//---------------dance-single - ----------------
#NOTES:
     dance-single:
     :
     Hard:
     9:
     0.516274,0.601818,0.299083,0.058155,0.265851,390.000000,36.000000,7.000000,0.000000,6.000000,0.000000,0.516274,0.601818,0.299083,0.058155,0.265851,390.000000,36.000000,7.000000,0.000000,6.000000,0.000000:
0000
0000
0000
0000
,
0000
0000
0000
0000
,
0000
0000
0000
0000
,
0000
0000
0000
0000
,
1000
0000
0000
0001
0000
0000
1000
0000
0000
0001
0000
0000
1000
0000
0000
0001
0000
0000
1000
0000
0001
1000
0000
0000
,
0010
0000
0000
0100
0000
0000
0001
0000
0000
0010
0000
0000
0100
0000
0000
0000
0000
0000
1000
0000
0001
1000
0000
0000
,
0010
0000
0000
0010
0000
0000
0100
0000
0000
0100
0000
0000
0010
0000
0000
0010
0000
0000
1000
0000
0001
1000
0000
0000
,
0100
0000
0000
0010
0000
0000
0100
0000
0000
1000
0000
0000
0001
0000
0000
0000
0000
0000
0100
0000
0010
0100
0000
0000
,
0010
0000
1000
0010
0000
1000
0010
0000
0000
1000
0000
0000
1100
0000
0000
0110
0000
0000
0011
0000
0000
0000
0000
0000
,
1000
0000
0100
1000
0000
0100
1000
0000
0000
0001
0000
0000
0101
0000
0000
0110
0000
0000
1010
0000
0000
0000
0000
0000
,
0001
0000
0000
0001
0000
0000
0001
0000
0000
0001
0000
0000
0001
0000
0000
0001
0000
0000
1000
0000
0100
1000
0000
0000
,
0001
0100
0010
1000
0100
0110
0110
0000
,
1000
0000
0010
0000
0001
0100
1000
0000
,
0001
0000
0010
0000
1000
0100
0001
0000
,
1000
0000
0001
0000
1000
0010
0100
0001
,
1000
0100
1111
0000
,
0001
0000
0000
0010
0000
0000
1000
0000
0000
0010
0000
0000
1000
0000
0000
0010
0000
0000
0001
0000
1000
0001
0000
0000
,
1000
0000
0000
0010
0000
0000
0100
0000
0000
0001
0000
0000
1000
0000
0000
1000
0000
0000
0100
0000
0010
0100
0000
0000
,
1000
0000
0000
1000
0000
0000
0010
0000
0000
0010
0000
0000
0100
0000
0000
0100
0000
0000
0001
0000
0100
0001
0000
0000
,
1000
0000
0000
0100
0000
0000
0010
0000
0000
0100
0000
0000
0010
0000
0000
0001
0000
0000
1000
0000
0001
1000
0000
0000
,
0010
0000
0010
0100
0000
0100
0010
0000
0000
0010
0000
0000
1010
0000
0000
0110
0000
0000
0101
0000
0000
0000
0000
0000
,
0010
0000
0010
0100
0000
0100
0010
0000
0000
0010
0000
0000
0011
0000
0000
0110
0000
0000
1100
0000
0000
0000
0000
0000
,
1000
0000
0000
0001
0000
0000
1000
0000
0000
0001
0000
0000
0100
0000
0000
0100
0000
0000
0010
0000
0100
0010
0000
0000
,
1000
0100
0010
0001
0100
0110
0110
0000
,
0000
2000
0200
0000
0000
0001
0010
0000
,
3300
0000
0100
0000
1000
0001
0100
0010
,
0000
0200
0002
0000
0000
1000
0010
0303
,
0001
0100
0010
2000
0200
0000
3311
0000
,
1000
0000
0000
0100
0000
0000
0001
0000
0000
0100
0000
0000
0001
0000
0000
0100
0000
0000
1000
0000
0001
1000
0000
0000
,
0001
0000
0000
0100
0000
0000
0010
0000
0000
0100
0000
0000
0001
0000
0000
0100
0000
0000
0010
0000
1000
0010
0000
0000
,
1000
0000
0000
1000
0000
0000
1000
0000
0000
0010
0000
0000
0100
0000
0000
0100
0000
0000
0001
0000
0100
0001
0000
0000
,
0100
0010
0100
0001
1000
0001
0001
0000
,
1000
0100
1000
0100
1000
0100
0010
0000
,
0010
0000
0000
0001
0000
0000
0100
0000
0000
0010
0000
0000
0001
0000
0010
0001
0000
0010
0001
0000
0000
0000
0000
0000
,
0001
0010
1000
0000
1000
0100
0001
0000
,
0001
0000
1000
0001
0000
0000
0001
0000
0000
0100
0000
0000
1000
0000
0000
0010
0000
0000
0100
0000
0000
0100
0000
0000
,
0001
0000
0000
0001
0000
0000
0100
0000
0000
0010
0000
0000
0100
0000
0000
0001
0000
0000
0010
0000
0001
0010
0000
0000
,
0100
0000
0000
1000
0000
0100
1000
0000
0000
0001
0000
0000
0100
0000
0000
0010
0000
0000
1000
0000
0010
1000
0000
0000
,
0001
0000
0000
0001
0000
0000
0010
0000
0000
0010
0000
0000
0100
0000
0000
1000
0000
0000
0001
0000
1000
0001
0000
0000
,
1000
0000
0010
1000
0000
0010
1000
0000
0000
0001
0000
0000
0100
0000
0000
0010
0000
0000
1000
0000
0010
1000
0000
0000
,
0001
0000
0010
0001
0000
1000
0001
0000
0000
1000
0000
0000
0101
0000
0000
0110
0000
0000
1010
0000
0000
0000
0000
0000
,
1000
0000
0010
1000
0000
0001
1000
0000
0000
1000
0000
0000
1100
0000
0000
0110
0000
0000
0011
0000
0000
0000
0000
0000
,
1000
0000
0000
0100
0000
0000
0010
0000
0000
0001
0000
0000
1000
0000
0000
0010
0000
0000
0100
0000
0001
0100
0000
0000
,
0001
0000
0000
0000
0010
0000
0001
0000
0000
0000
0010
0000
0001
0000
0000
0000
0000
0000
0100
0000
0000
0000
0001
0000
0100
0000
0000
0000
0000
0000
0010
0000
0000
0000
0000
0000
1000
0000
0000
0100
0000
0000
1000
0000
0000
0000
0000
0000
,
1001
0000
0000
1001
0000
0000
1001
0000
0000
0110
0000
0000
1001
0000
0000
0110
0000
0000
0001
0000
1000
0001
0000
0000
,
0001
0000
1000
0001
0000
1000
0001
0000
0100
0001
0000
0100
0001
0000
0000
0100
0000
0000
0010
0000
0100
0010
0000
0000
,
1010
0000
0000
0110
0000
0000
0101
0000
0000
0110
0000
0000
1010
0000
0000
0110
0000
0000
0001
0000
0100
0001
0000
0000
,
1000
0000
0100
1000
0000
0100
0010
0000
0001
0010
0000
0100
1000
0000
0000
1000
0000
0000
0002
0000
0000
0000
0000
0000
,
0103
0000
0000
0100
0000
0000
0100
0000
0000
0010
0100
0010
0100
0000
0001
0100
0000
0001
0100
0000
0001
0010
0000
0100
,
1000
0000
0000
1000
0000
0000
1000
0000
0000
0100
0010
0100
0010
0000
0001
0010
0000
0100
1000
0000
0001
0100
0010
0100
;
