#TITLE:#ヤッチャイナ featuring MaryJane;
#SUBTITLE:;
#ARTIST:MINMI;
#TITLETRANSLIT:yacchaina featuring MaryJane;
#SUBTITLETRANSLIT:;
#ARTISTTRANSLIT:;
#GENRE:Booty bounce;
#CREDIT:TiKAL+;
#BANNER:[Round B] - yacchaina featuring MaryJane.png;
#BACKGROUND:[Round B] - yacchaina featuring MaryJane-bg.png;
#LYRICSPATH:;
#CDTITLE:cdtitle.png;
#MUSIC:[Round B] - yacchaina featuring MaryJane.ogg;
#OFFSET:0.003;
#SAMPLESTART:41.140;
#SAMPLELENGTH:27.429;
#SELECTABLE:YES;
#BPMS:0.000=140.000;
#STOPS:;
#BGCHANGES:;
#KEYSOUNDS:;

//---------------dance-single - TiKAL----------------
#NOTES:
     dance-single:
     TiKAL:
     Beginner:
     1:
     0.053,0.056,0.098,0.000,0.000:
0000
0000
0000
0000
,
0000
0000
0000
0000
,
0000
0000
0000
0000
,
0000
0000
0000
0000
,
0000
0000
0000
0000
,
0000
0000
0000
0000
,
0000
0000
0000
0000
,
0000
0000
0000
0000
,
1001
0000
0000
0000
,
0000
0000
0000
0000
,
1001
0000
0000
0000
,
0000
0000
0000
0000
,
1001
0000
0000
0000
,
0000
0000
0000
0000
,
1001
0000
0000
0000
,
0000
0000
0000
0000
,
0110
0000
0000
0000
,
0000
0000
0000
0000
,
0110
0000
0000
0000
,
0000
0000
0000
0000
,
0110
0000
0000
0000
,
0000
0000
0000
0000
,
0110
0000
0000
0000
,
0000
0000
0000
0000
,
1000
0000
0000
0000
,
0000
0000
0000
0000
,
1000
0000
0000
0000
,
0000
0000
0000
0000
,
0001
0000
0000
0000
,
0000
0000
0000
0000
,
0001
0000
0000
0000
,
0000
0000
0000
0000
,
0100
0000
0000
0000
,
0000
0000
0000
0000
,
0100
0000
0000
0000
,
0000
0000
0000
0000
,
0010
0000
0000
0000
,
0000
0000
0000
0000
,
0010
0000
0000
0000
,
0000
0000
0000
0000
,
1000
0000
0000
0000
,
0000
0000
0000
0000
,
0001
0000
0000
0000
,
0000
0000
0000
0000
,
0100
0000
0000
0000
,
0000
0000
0000
0000
,
0010
0000
0000
0000
,
0000
0000
0000
0000
,
1000
0000
0000
0000
,
1000
0000
0000
0000
,
0000
0000
0000
0000
,
0001
0000
0000
0000
,
0100
0000
0000
0000
,
0100
0000
0000
0000
,
0010
0000
0000
0000
,
0010
0000
0000
0000
,
0000
0000
0000
0000
,
0000
0000
0000
0000
,
1001
0000
0000
0000
,
0000
0000
0000
0000
,
1001
0000
0000
0000
,
0000
0000
0000
0000
,
0110
0000
0000
0000
,
0000
0000
0000
0000
,
0110
0000
0000
0000
,
0000
0000
0000
0000
,
1000
0000
0000
0000
,
0000
0000
0000
0000
,
0001
0000
0000
0000
,
0000
0000
0000
0000
,
0100
0000
0000
0000
,
0000
0000
0000
0000
,
0010
0000
0000
0000
,
0000
0000
0000
0000
,
1001
0000
0000
0000
;

//---------------dance-single - TiKAL----------------
#NOTES:
     dance-single:
     TiKAL:
     Easy:
     3:
     0.173,0.168,0.197,0.061,0.000:
0000
0000
0000
0000
,
0000
0000
0000
0000
,
0000
0000
0000
0000
,
0000
0000
0000
0000
,
0000
0000
0000
0000
,
0000
0000
0000
0000
,
0000
0000
0000
0000
,
0000
0000
0000
0000
,
1001
0000
0000
0000
,
0001
0000
0001
0000
,
1001
0000
0000
0000
,
1000
0000
1000
0000
,
0110
0000
0000
0000
,
0010
0000
0010
0000
,
0110
0000
0000
0000
,
0100
0000
0100
0000
,
1001
0000
0001
0000
,
2000
0000
3000
0000
,
1001
0000
1000
0000
,
0002
0000
0003
0000
,
0110
0000
0010
0000
,
0200
0000
0300
0000
,
0110
0000
0100
0000
,
0020
0000
0030
0000
,
1001
0000
1000
0000
,
0001
0001
0001
0000
,
1001
0000
0001
0000
,
1000
1000
1000
0000
,
0110
0000
0010
0000
,
0100
0100
0100
0000
,
0110
0000
0100
0000
,
0010
0010
0010
0000
,
1001
0000
1000
0000
,
0100
0100
0100
0000
,
1001
0000
0001
0000
,
0100
0100
0100
0000
,
0110
0000
0010
0000
,
1000
1000
1000
0000
,
0110
0000
0100
0000
,
0001
0001
0001
0000
,
1000
0000
0000
0000
,
1000
0000
0000
0000
,
0001
0000
0000
0000
,
0001
0000
0000
0000
,
1000
0000
0000
0000
,
0100
0000
0000
0000
,
0010
0000
0001
0000
,
1000
1000
1000
0000
,
0001
0000
0100
0100
,
0010
0000
0010
0000
,
1000
0000
0100
0100
,
0010
0000
0010
0000
,
0001
0000
1000
1000
,
0010
0000
0100
0000
,
0001
0000
1000
0000
,
1001
0000
0000
0000
,
0000
0000
0000
0000
,
0000
0000
0000
0000
,
1001
0000
0001
0000
,
2000
0000
3000
0000
,
1001
0000
1000
0000
,
0002
0000
0003
0000
,
0110
0000
0010
0000
,
0200
0000
0300
0000
,
0110
0000
0100
0000
,
0020
0000
0030
0000
,
1001
0000
1000
0000
,
0100
0100
0100
0000
,
1001
0000
0001
0000
,
0100
0100
0100
0000
,
0110
0000
0010
0000
,
1000
1000
1000
0000
,
0110
0000
0100
0000
,
0001
0001
0001
0000
,
1001
0000
0000
0000
;

//---------------dance-single - TiKAL----------------
#NOTES:
     dance-single:
     TiKAL:
     Medium:
     5:
     0.264,0.280,0.235,0.136,0.000:
0000
0000
0000
0000
,
0000
0000
0000
0000
,
0000
0000
0000
0000
,
0000
0000
0000
0000
,
0000
0000
0000
0000
,
0000
0000
0000
0000
,
0000
0000
0000
0000
,
0000
0000
0000
0000
,
1001
0000
0110
0000
,
1000
0100
0010
0001
,
1001
0000
0110
0000
,
0001
0010
0100
1000
,
0110
0000
1001
0000
,
1000
0010
0100
0001
,
0110
0000
1001
0000
,
0001
0100
0010
1000
,
1001
0001
0100
1000
,
0020
0030
0200
0300
,
1001
1000
0100
0001
,
0020
0030
0200
0300
,
1001
0001
0010
1000
,
0200
0300
0020
0030
,
1001
1000
0010
0001
,
0200
0300
0020
0030
,
1001
0000
1000
0000
,
0001
0001
1000
1000
,
1001
0000
0001
0000
,
1000
1000
0001
0001
,
0110
0000
0100
0000
,
0010
0010
0100
0100
,
0110
0000
0010
0000
,
0100
0100
0010
0010
,
1001
0000
0001
0000
,
0010
0010
0100
0100
,
1001
0000
1000
0000
,
0100
0100
0010
0010
,
0110
0000
0001
0000
,
1000
1000
0010
0010
,
0110
0000
1000
0000
,
0001
0001
0100
0100
,
0000
0010
0000
0010
,
0000
1000
0000
1000
,
0000
0001
0000
0001
,
0000
0100
0000
0100
,
0000
0001
0000
0010
,
0000
0100
0000
1000
,
0001
0100
0001
1000
,
0100
1000
1001
0000
,
1000
0100
0010
0001
,
1000
0100
0010
0001
,
1000
0010
0100
0001
,
1000
0010
0100
0001
,
0001
0010
0100
1000
,
0001
0010
0100
1000
,
0001
0100
0010
1000
,
1001
0000
0020
0200
,
0000
0000
0000
0000
,
0000
0000
0000
0330
,
1001
0001
0100
1000
,
0020
0030
0200
0300
,
1001
1000
0100
0001
,
0020
0030
0200
0300
,
1001
0001
0010
1000
,
0200
0300
0020
0030
,
1001
1000
0010
0001
,
0200
0300
0020
0030
,
1001
0000
1000
0000
,
0010
0010
0100
0100
,
1001
0000
0001
0000
,
0100
0100
0010
0010
,
0110
0000
1000
0000
,
0010
0010
0100
0100
,
0110
0000
0001
0000
,
0100
0100
0010
0010
,
1001
0000
0000
0000
;

//---------------dance-single - TiKAL----------------
#NOTES:
     dance-single:
     TiKAL:
     Hard:
     8:
     0.483,0.505,0.379,0.197,0.008:
0000
0000
0000
0000
,
0000
0000
0000
0000
,
0000
0000
0000
0000
,
0000
0000
0000
0000
,
0000
0000
0000
0000
,
0000
0000
0000
0000
,
0000
0000
0000
0000
,
0000
0000
0000
0000
,
1002
0000
0100
0103
,
0001
0010
0100
0010
0100
1000
0001
0000
,
2001
0000
0100
3100
,
1000
0010
0100
0010
0100
0001
1000
0000
,
0210
0000
0001
0301
,
0100
0001
1000
0010
0100
0001
0010
0000
,
0100
0120
1000
1030
,
0010
1000
0100
0010
0001
0100
0010
0000
,
1001
0000
0001
0010
0100
1000
0010
0000
,
0202
0000
0303
1010
0000
1000
0100
0010
,
1001
0000
1000
0100
0010
0001
0100
0000
,
2020
0000
3030
0101
0000
0001
0010
0100
,
1001
0000
0010
0100
0001
0010
0100
1000
,
0022
0000
0033
1100
0000
0001
0100
0010
,
1000
0000
1001
0010
0100
0001
1000
0100
,
0022
0000
0033
2200
0000
3300
0110
0000
,
1001
0000
1000
0100
0001
0100
0010
0000
,
0001
0100
1000
0100
0001
0100
0010
0000
,
0110
0000
0001
0010
1000
0010
0100
0000
,
1000
0010
0001
0010
1000
0010
0100
0000
,
1001
0000
1000
0010
0001
0010
0100
0000
,
0001
0010
1000
0010
0001
0010
0100
0000
,
0010
0000
0110
0100
1000
0100
0010
0000
,
0001
0010
0001
1000
0100
1000
0001
0000
,
1001
0000
0001
0010
1000
0010
0100
0000
,
1000
0010
0001
0010
1000
0010
0100
0000
,
0110
0000
1000
0100
0001
0100
0010
0000
,
0001
0100
1000
0100
0001
0100
0010
0000
,
1001
0000
0001
0100
1000
0100
0010
0000
,
1000
0100
0001
0100
1000
0100
0010
0000
,
0100
0000
0110
0010
0001
0010
0100
0000
,
1000
0100
1000
0001
0010
0001
1000
0000
,
0000
0000
0000
0000
0001
0000
0000
0000
0000
0100
0000
0000
0001
0000
0000
0000
,
0000
0000
0000
0000
1000
0000
0000
0000
0000
0100
0000
0000
1000
0000
0000
0000
,
0000
0010
0000
0100
,
0001
1000
1001
0000
,
0001
0010
0011
0000
,
1000
0100
1100
0000
,
1000
0100
0010
0000
0001
0010
0100
0000
,
1000
0010
0100
0001
1000
0000
0000
0000
,
1001
0000
0001
0010
0100
1000
0010
0000
,
1000
0100
0010
0001
1000
0010
0100
0000
,
0101
0000
1010
0000
0001
1000
0001
0000
,
1000
0010
0100
0001
1000
0100
0010
0000
,
1001
0000
0001
0100
1000
0100
0001
0000
,
1000
0100
0010
0001
1000
0001
0100
0000
,
0010
1000
0001
0100
0001
0010
0100
1000
,
0010
0100
0001
1000
0001
0200
0020
0000
,
0000
0000
0000
0000
,
0000
0000
0000
0000
0330
1000
0100
0010
,
1001
0000
0001
0100
0010
1000
0100
0000
,
0022
0000
0033
1100
0000
1000
0010
0100
,
1001
0000
1000
0010
0100
0001
0010
0000
,
2200
0000
3300
0011
0000
0001
0100
0010
,
1001
0000
0100
0010
0001
0100
0010
1000
,
0202
0000
0303
1010
0000
0001
0010
0100
,
1000
0000
1001
0100
0010
0001
1000
0010
,
0202
0000
0303
2020
0000
3030
0110
0000
,
1001
0000
1000
0010
0001
0010
0100
0000
,
0001
0010
1000
0010
0001
0010
0100
0000
,
0110
0000
0001
0100
1000
0100
0010
0000
,
1000
0100
0001
0100
1000
0100
0010
0000
,
1001
0000
1000
0100
0001
0100
0010
0000
,
0001
0100
1000
0100
0001
0100
0010
0000
,
0100
0000
0110
0010
1000
0010
0100
0000
,
0001
0100
0001
1000
0010
1000
0001
0000
,
1001
0000
0000
0000
;

//---------------dance-single - TiKAL----------------
#NOTES:
     dance-single:
     TiKAL:
     Challenge:
     11:
     0.808,0.846,0.333,0.409,0.883:
0000
0000
0000
0000
,
0000
0000
0000
0000
,
0000
0000
0000
0000
,
0000
0000
0000
0000
,
0000
0000
0000
0000
,
0000
0000
0000
0000
,
0000
0000
0000
0000
,
1000
0100
0010
0001
1000
0010
0100
0001
,
2002
0000
0000
0000
3003
0000
0001
0100
0000
0001
0000
1000
0010
0000
0100
0000
,
0001
0000
0000
0000
0010
0000
0001
0000
1000
0000
0000
0000
0010
0000
1000
0000
0000
0000
0001
0000
0000
0000
0010
0000
0100
0000
0000
0000
4000
3000
0000
0000
,
2002
0000
0000
0000
3003
0000
1000
0100
0000
1000
0000
0001
0010
0000
0001
0000
,
1000
0000
0010
0100
0010
0000
0100
0001
0000
0010
0100
0000
1000
0000
0001
1000
,
2002
0000
0000
0000
0000
0000
0000
0000
0000
0000
0000
0000
3003
0000
0000
0000
0000
0000
0001
0000
0000
1000
0000
0000
0010
0000
0000
1000
0000
0000
0000
0000
0000
0001
0000
0000
0010
0000
0100
0000
0010
0000
0100
0000
0000
1000
0000
0000
,
0001
0000
0000
0000
0100
0000
0001
0000
1000
0000
0100
0000
1000
0000
0001
0000
0000
0000
0010
0000
0100
0000
0010
0000
0001
0000
0000
0000
4000
3000
0000
0000
,
0002
0000
0000
0000
0000
0000
0000
0000
0000
0003
0000
0000
0110
0000
0000
0000
0000
0000
1000
0000
0000
0100
0000
0000
1000
0000
0000
0010
0000
0000
0100
0000
0000
0001
0000
0000
0010
0000
0100
0000
0010
0000
0100
0000
0000
1000
0000
0000
,
0001
0000
0100
0001
1000
0100
0010
0001
1000
0001
1000
0000
1010
0000
0000
0000
,
0202
0000
0000
0303
1000
0000
0100
0010
0001
1000
0000
0010
1000
0000
0001
0000
,
0100
0000
0010
0000
0100
0000
0000
0000
0001
0000
0000
0000
1000
0000
0100
0000
0000
0000
0010
0000
0100
0000
1000
0000
0001
0000
0000
0000
0400
0300
0000
0000
,
0202
0000
0000
0303
0001
0000
1000
0100
0000
0010
0100
1000
0001
0000
0100
0000
,
0010
0000
0100
0010
1000
0000
0001
0010
0100
0010
0001
0000
1000
0000
0010
0100
,
0220
0000
0000
0000
0000
0000
0000
0000
0000
0330
0000
0000
0001
0000
0000
0000
0000
0000
0010
0000
0000
0100
0000
0000
0000
0000
0000
1000
0000
0000
0100
0000
0000
0010
0000
0000
0001
0000
1000
0000
0001
0000
1000
0000
0000
0100
0000
0000
,
0010
0000
0000
0000
0001
0000
0100
0000
0001
0000
0000
0000
1000
0000
0100
0000
0010
0000
0001
0000
0100
0000
0010
0000
1000
0000
0000
0000
0400
0300
0000
0000
,
0020
0000
0000
0000
0000
0000
0000
0000
0000
0030
0000
0000
1001
0000
0000
0000
0000
0000
1000
0000
0000
0100
0000
0000
0010
0000
0000
0001
0000
0000
1000
0000
0000
0010
0000
0000
0100
0000
0001
0000
0100
0000
0001
0000
0000
0010
0000
0000
,
0100
1000
0001
0100
0010
1000
0100
0010
0001
1000
0010
0100
0002
0000
0000
0003
,
1001
0000
0000
0000
1000
0000
0100
0000
0001
0100
1000
0000
0001
0000
0000
0000
,
1000
0000
0000
0000
0010
0000
1000
0000
0001
0000
0000
0000
0010
0000
0001
0000
0000
0000
1000
0000
0010
0000
1000
0000
0001
0000
0000
0000
0040
0030
0000
0000
,
0220
0000
0000
0330
0100
0000
1000
0000
0010
1000
0100
0000
0010
0000
0000
0000
,
0001
0000
0010
0000
0010
0000
0100
0000
1000
0000
0000
0000
0100
1000
0100
0000
0010
0000
0001
0000
1000
0000
0010
0000
0100
0000
0000
0000
0001
0000
1000
0000
,
2002
0000
0000
3003
0001
0000
0100
0000
1000
0100
0001
0000
1000
0000
0000
0000
,
0001
0000
0000
0000
0010
0000
0001
0000
0100
0000
0000
0000
0010
0000
1000
0000
0000
0000
0001
0000
0010
0000
0001
0000
1000
0000
0000
0000
0040
0030
0000
0000
,
0200
0000
0000
0000
0000
0000
0300
0000
0101
0000
0000
0000
0001
0000
0100
0000
0010
0000
1000
0000
0010
1000
0010
0000
1000
0000
0001
0000
0000
0000
0000
0000
,
1000
0000
0100
0000
0000
0000
1000
0000
0100
0000
0000
0000
0010
0000
0001
0000
0000
0000
1000
0000
0001
0000
0000
0000
1000
0000
0000
0000
0040
0030
0000
0000
,
0200
0000
0000
0300
0110
0000
0010
1000
0000
0001
0000
0010
0001
0000
0000
0000
,
1000
0000
0000
0000
0010
0000
1000
0000
0001
0000
0000
0000
0010
0000
0100
0000
0000
0000
0010
0000
0100
0000
1000
0000
0001
0000
0000
0000
0400
0300
0000
0000
,
2020
0000
0000
3030
1000
0000
0001
0010
0000
0100
0000
0010
0001
0000
0000
0000
,
1000
0000
0100
0000
0100
0000
0010
0000
0001
0000
0000
0000
1000
0100
1000
0000
0100
0000
0010
0000
0001
0000
0100
0000
0010
0000
0000
0000
1000
0000
0001
0000
,
2002
0000
0000
3003
1000
0000
0010
0100
0000
0001
0000
0100
0010
0000
0000
0000
,
1000
0000
0000
0000
0100
0000
1000
0000
0001
0000
0000
0000
0100
0000
0010
0000
0000
0000
1000
0000
0100
0000
0010
0000
0001
0000
0000
0000
4000
3000
0000
0000
,
0020
0000
0000
0000
0000
0000
0030
0000
0110
0000
0000
0000
0001
0000
0100
0000
0001
0000
1000
0000
0100
1000
0100
0000
0010
0000
0001
0000
0100
0000
0000
0000
,
0001
0010
0001
1000
0010
0100
0001
1000
0100
0010
0100
1000
0020
0000
0000
0030
,
0110
0000
0000
0000
0101
0000
0000
1000
0001
1000
0000
0000
0110
0000
0000
0000
,
1000
0000
0000
0000
1010
0000
0000
0001
0010
0001
0000
0000
1001
0000
0000
0000
,
1000
0000
0010
0000
0110
0000
0000
0000
0100
0001
0010
0000
0100
0000
1000
0000
,
0001
0000
0001
0000
0010
0000
0100
0000
1000
0100
0010
0000
1001
0000
0000
0000
,
0110
0000
0001
0000
1000
0000
0000
0000
0001
0100
0001
0000
1001
0000
0000
0000
,
1000
0000
0000
0000
1100
0000
0100
0010
0100
1000
0001
0000
1001
0000
0000
0000
,
0101
0000
0000
0100
0000
0000
0010
0000
0000
1000
0000
0100
0010
0000
0001
1000
0000
0000
1001
0000
0000
0001
0000
0000
,
0100
0000
0010
0000
1000
0010
1000
0000
0002
0000
0000
0000
0100
0000
0000
0003
,
2002
0000
0000
3003
0110
0000
1000
0100
0010
0001
0010
0100
1000
0000
0000
0000
,
0001
0100
0000
0010
1000
0000
0001
0000
0011
0000
0010
0100
2000
0000
3000
0000
,
0001
0100
0010
1000
0002
0000
0000
0000
1003
0100
0010
0000
0200
0000
0300
0000
,
1000
0000
0001
0000
0100
0010
0100
0000
0001
0010
0100
1000
0002
0000
0003
0000
,
2200
0000
0000
0000
0000
0000
0300
0000
0000
3001
0000
0000
0100
0000
0100
0010
0000
0000
1000
0000
0000
0000
0000
0000
,
0001
0010
0001
0000
1000
0010
0000
0100
0001
1000
0100
0000
0020
0000
0031
0000
,
1001
0000
0000
0000
0000
0000
1000
0000
0000
0000
0000
0000
0100
0000
0000
0010
0000
0000
0001
0000
0000
0010
0000
0000
0100
0000
0000
1000
0000
0000
0001
0000
0000
0000
0001
0000
0010
0000
0000
0000
0010
0000
0100
0000
0000
0000
0100
0000
,
1000
0100
0010
0001
1000
0010
0100
0001
1000
0000
0020
0000
0200
0000
0000
0000
,
0000
0000
0000
0000
,
0000
0000
0000
0000
0330
0001
0010
0100
,
2200
0000
0000
3300
0001
0000
0100
0010
0000
1000
0000
0100
0010
0000
0001
0000
,
0100
0000
0000
0000
0010
0000
0100
0000
0001
0000
0000
0000
1000
0000
0010
0000
0000
0000
0100
0000
0001
0000
1000
0000
0001
0000
0000
0000
0400
0300
0000
0000
,
0220
0000
0000
0330
1000
0000
0100
0010
0000
0001
0000
1000
0010
0000
0100
0000
,
0001
0000
0100
0001
1000
0000
0010
0100
0000
0001
0010
0100
1000
0000
0001
0100
,
0202
0000
0000
0000
0000
0000
0000
0000
0000
0303
0000
0000
1000
0000
0000
0000
0000
0000
0100
0000
0000
0010
0000
0000
0000
0000
0000
0001
0000
0000
0010
0000
0000
0100
0000
0000
1000
0000
0100
0000
0010
0000
0100
0000
0000
1000
0000
0000
,
0001
0000
0000
0000
0100
0000
0001
0000
0010
0000
0100
0000
1000
0000
0010
0000
0000
0000
0100
0000
0001
0000
1000
0000
0100
0000
0000
0000
0040
0030
0000
0000
,
0002
0000
0000
0000
0000
0000
0000
0000
0000
0003
0000
0000
1001
0000
0000
0000
0000
0000
1000
0000
0000
0010
0000
0000
0000
0000
0000
0100
0000
0000
0001
0000
0000
0010
0000
0000
0100
0000
1000
0000
0100
0000
0010
0000
0000
0001
0000
0000
,
1000
0000
0010
0000
0100
0000
0001
0000
1000
0000
0100
0000
0010
0000
0100
0000
0010
0000
0001
0000
1000
0000
0001
0000
0100
0000
0000
0000
0040
0030
0000
0000
,
0200
0000
0000
0300
0110
0000
0010
0000
1000
0100
0001
0000
0100
0000
0000
0000
,
0010
0000
0000
0000
0001
0000
1000
0000
0001
0000
0000
0000
0100
0000
0010
0000
0000
0000
1000
0000
0100
0000
0010
0000
0001
0000
0000
0000
4000
3000
0000
0000
,
2002
0000
0000
3003
0001
0000
0100
0000
1000
0100
0001
0000
1000
0000
0000
0000
,
0100
0000
0010
0100
0010
0000
0001
0010
0100
1000
0001
0000
0100
0000
0010
1000
,
2020
0000
0000
3030
1000
0000
0100
0001
0000
0100
0000
1000
0001
0000
0000
0000
,
0100
0000
0000
0000
0010
0000
0100
0000
0001
0000
0000
0000
1000
0000
0100
0000
0010
0000
0100
0000
1000
0000
0001
0000
0100
0000
0000
0000
0040
0030
0000
0000
,
0200
0000
0000
0300
0110
0000
0001
0100
0000
1000
0000
0100
0001
0000
0000
0000
,
1000
0000
0000
0000
0100
0000
1000
0000
0001
0000
0000
0000
0100
0000
0010
0000
0100
0000
0001
0000
0010
0000
0000
0000
0100
0000
0000
0000
4000
3000
0000
0000
,
2002
3003
0000
0000
,
0000
0000
0000
0000
,
0000
0000
0000
0000
,
0M00
0000
0000
0000
;
