#TITLE:Soul Surfer;
#SUBTITLE:;
#ARTIST:Daiki Kasho;
#TITLETRANSLIT:;
#SUBTITLETRANSLIT:;
#ARTISTTRANSLIT:;
#GENRE:;
#CREDIT:;
#BANNER:Soul Surfer.png;
#BACKGROUND:Soul Surfer-bg.png;
#LYRICSPATH:;
#CDTITLE:;
#MUSIC:Soul Surfer.ogg;
#OFFSET:-0.040000;
#SAMPLESTART:55.365002;
#SAMPLELENGTH:25.714001;
#SELECTABLE:YES;
#DISPLAYBPM:77.000000:154.000000;
#BPMS:0.000000=154.000000
,127.000000=77.000000
,134.000000=308.000000
,136.000000=154.000000
,200.000000=77.000000
,216.000000=154.000000
;
#STOPS:15.000000=0.390000,
134.000000=0.049000,
134.250000=0.049000,
134.500000=0.049000,
134.750000=0.049000,
135.000000=0.049000,
135.250000=0.049000,
135.500000=0.049000,
135.750000=0.049000
;
#BGCHANGES:;
#KEYSOUNDS:;
#ATTACKS:;

//---------------dance-single - ----------------
#NOTES:
     dance-single:
     :
     Hard:
     7:
     0.323652,0.375607,0.144792,0.153309,0.000000,266.000000,249.000000,17.000000,18.000000,0.000000,0.000000,0.323652,0.375607,0.144792,0.153309,0.000000,266.000000,249.000000,17.000000,18.000000,0.000000,0.000000:
0000
0000
0000
0000
,
0000
0000
0000
0000
,
0000
0000
0000
0000
,
0000
0000
0000
0000
,
1001
0000
0010
1000
0100
0000
1000
0000
,
0001
0000
0001
0010
0100
0000
0000
0000
,
1000
0000
1000
0001
0010
0000
0001
0000
,
0100
0000
0010
0001
0010
0100
0000
0000
,
1010
0000
1000
0010
1000
0000
0100
0000
,
0100
0000
0001
0100
0010
0000
0000
0000
,
1000
0000
0100
0010
0001
0000
0100
0000
,
0100
0000
0001
1000
0001
0000
2000
0000
,
0010
0000
3010
0200
,
0001
0000
0301
0020
,
1000
0000
1030
0002
,
0100
0000
0103
0110
,
0000
0000
0001
0000
0000
1000
0000
0000
,
0010
0100
0100
0000
,
1000
0000
0001
0000
0001
0010
0000
0100
,
0000
0010
0000
0001
0010
0000
0000
0000
,
1000
0100
1000
0001
,
0010
0100
0000
0001
0000
0000
0010
1000
,
0010
0000
1000
0000
0100
2000
0000
0000
,
0001
0001
3000
0010
,
0010
0100
0100
0010
,
0001
0000
1000
0100
1000
0000
0001
0000
,
1000
0000
0010
0000
1000
0001
0000
0100
,
0000
0010
0000
1000
0010
0000
0100
0000
,
0001
0000
0100
0000
0010
0001
0000
0000
,
1000
0000
1000
0010
0100
0000
0001
0000
,
1000
0000
1000
0000
0001
0000
0010
0100
,
0010
0100
0100
1002
,
2000
0003
0010
0000
0020
3000
0100
0000
,
0200
0030
0001
0300
0010
0010
0010
0010
,
0000
0000
1100
0000
0100
1000
0010
0000
,
0001
0000
1000
0001
0000
0010
0000
2000
,
0000
0100
0010
0010
,
3001
0000
0100
0000
0010
1000
0001
0000
,
0110
0000
0100
0000
0010
0001
1000
0000
,
0100
0000
0010
1000
0000
0100
0000
0002
,
0000
0010
1000
1000
,
0103
0010
0100
0000
0011
0000
1010
0000
,
0010
0100
0010
0001
,
1000
0000
1000
0000
0100
0001
0100
0000
,
0001
1000
0100
0010
,
1000
0100
1000
0000
0001
0100
0001
0000
,
0010
0010
0100
0001
,
0010
0000
1000
0000
0100
0010
0100
0000
,
1000
0001
1000
0010
,
0100
0000
0100
0001
0100
0010
1000
0000
,
0110
0010
1001
1000
,
0011
0001
1100
0100
,
0202
0000
0000
0303
2200
0000
3300
0010
,
0022
0000
0033
0000
,
1001
0100
0001
0100
,
0010
0000
1000
0000
0100
0001
0100
0000
,
0001
0010
0100
1000
,
0100
0000
0010
0000
1000
0010
1000
0000
,
0001
0000
0100
0000
1000
0000
0010
1000
,
0010
0000
0100
0000
0001
0000
0100
0001
,
0100
0000
1000
0000
0010
0000
0100
0010
,
1000
0010
0100
0000
0001
0000
0110
0000
,
0020
0000
0000
0000
,
0030
0000
0000
0000
;

//---------------dance-single - ----------------
#NOTES:
     dance-single:
     :
     Challenge:
     9:
     0.439242,0.563410,0.238481,0.298101,0.097947,361.000000,333.000000,28.000000,35.000000,0.000000,0.000000,0.439242,0.563410,0.238481,0.298101,0.097947,361.000000,333.000000,28.000000,35.000000,0.000000,0.000000:
0000
0000
0000
0000
,
0000
0000
0000
0000
,
0000
0000
0000
0000
,
0000
0000
0000
0000
0000
0000
0000
1000
,
1010
0010
0001
0010
0000
0100
0010
0100
,
0000
1000
0100
1000
0010
0020
0000
0001
,
0130
1000
0100
1000
0000
0010
1000
0010
,
0000
0100
1000
0100
0001
0002
0000
0010
,
1003
0010
0100
1000
0000
0001
1000
0100
,
0000
0010
0001
0010
1000
2000
0000
0100
,
3001
0100
0010
0001
0000
0100
0010
0100
,
0000
1000
0100
1000
1001
0000
1000
0010
,
0001
0000
0001
0010
1000
0000
0001
0010
,
0100
0000
0100
0010
0001
0000
1000
0010
,
0100
0000
0100
0001
1000
0000
0001
1000
,
0010
0000
0010
0100
0001
0000
2020
0000
,
0030
0000
0001
0000
3001
0010
0000
0100
,
0000
1000
0000
0010
0020
0000
0030
0000
,
0101
0000
0010
0000
0100
0020
0000
2030
,
0000
3200
0000
0010
0010
0000
0300
0000
,
1000
0000
0011
0000
1000
0100
0000
1000
,
0000
0001
0000
0010
0000
0200
0000
0010
,
1300
0000
1001
0000
1000
0020
0000
0000
,
0001
0000
0031
0000
0000
0200
0000
0000
,
1000
0000
0001
0000
0301
1000
0000
0010
,
0000
0110
0000
0100
2000
0000
3000
0000
,
1001
0000
0011
0000
0010
0200
0000
0302
,
0000
2003
0000
0010
0010
0000
3000
0000
,
1010
0000
0010
0000
0100
0001
0000
1000
,
0000
1100
0000
0100
0000
0002
0000
0100
,
1003
0100
0010
0000
0100
0200
0000
0000
,
0001
0000
0000
0000
0301
0000
0010
0000
0001
0000
0000
0000
0110
0000
0000
0010
,
1000
0000
0000
1000
0001
0000
0000
0001
0100
0000
0000
0100
0010
0000
0000
0000
,
1010
0000
0000
0000
1100
0000
0000
0000
0001
0010
0001
0010
0001
0010
0001
0010
,
0000
0100
0110
0010
0001
0200
0000
1000
,
0301
2000
0000
0010
3010
0001
0010
0100
,
0000
1000
1010
0010
0100
0002
0000
0010
,
0103
0020
0000
1000
1030
0100
0010
0100
,
0000
0001
0101
0100
1000
0020
0000
1000
,
0130
2000
0000
0001
3001
0010
0100
0001
,
0000
0010
1010
1000
0001
0200
0000
0010
,
1300
0020
0000
0100
0031
1000
1000
1000
,
0001
0000
1001
0000
1000
0100
0001
0000
,
0100
0010
0100
0001
0000
0110
0000
2010
,
0000
0100
0001
0001
,
3010
0100
0100
0000
1000
0010
0010
0000
,
0100
0000
0101
0000
0001
0010
1000
0000
,
1000
0100
0001
0100
0000
0011
0000
1002
,
0000
0000
0100
0000
0100
0000
1003
2000
,
0000
0000
0100
0000
3001
0010
0001
0010
,
0000
0100
1000
0000
0100
1000
0000
0001
0000
0010
0100
0000
0010
0100
0000
1000
,
0000
0001
1000
0000
0001
1000
0000
0010
0000
0100
0001
0000
0100
0001
0000
0010
,
0200
0010
0010
0010
2300
0001
0001
3002
,
0023
0100
0130
1001
,
0110
0000
1000
0000
0100
1000
0001
0000
,
1000
0000
0000
0000
0010
0000
0000
0010
0100
0000
0001
0000
0010
0000
0000
0000
,
1000
0000
0001
0000
0010
0100
1000
0000
,
0100
0000
0000
0000
0100
0000
0000
1000
0010
0000
1000
0000
1000
0000
0000
0000
,
1010
0000
0001
0000
0100
1000
0100
0001
,
0010
0000
0100
0000
0001
0100
0010
0100
,
1000
0000
0001
0000
0010
1000
0100
1000
,
0001
0000
0000
0000
0010
0000
0001
0000
0001
0000
0010
0000
1000
0100
1000
0000
,
0220
0000
0000
0000
,
0330
0000
0000
0000
;

//---------------dance-single - ----------------
#NOTES:
     dance-single:
     :
     Medium:
     4:
     0.254298,0.321949,0.110723,0.221446,0.000000,209.000000,196.000000,13.000000,26.000000,0.000000,0.000000,0.254298,0.321949,0.110723,0.221446,0.000000,209.000000,196.000000,13.000000,26.000000,0.000000,0.000000:
0000
0000
0000
0000
,
0000
0000
0000
0000
,
0000
0000
0000
0000
,
0000
0000
0000
0000
,
0100
1000
0100
0010
,
0010
0100
0101
0000
,
1000
0001
1000
0100
,
0100
0010
1010
0000
,
0100
0001
0100
1000
,
1000
0001
0011
0000
,
0100
0010
0100
0001
,
0001
0010
0110
0200
,
0000
1000
0000
2300
,
0000
0010
0000
3020
,
0000
0001
0000
0032
,
0000
0100
0003
0010
,
0000
1000
0000
0001
,
0001
0100
0000
0010
,
0100
0001
0010
0100
,
1000
1000
0000
0001
,
0000
0100
0000
0010
,
1000
0010
0000
0100
,
1000
0010
1000
0100
,
0000
1001
0000
0010
,
0000
0001
0000
0100
,
0001
1000
0000
0001
,
0100
0001
1000
0100
,
0100
1000
0001
0000
,
0010
0100
0010
1000
,
1000
0010
1000
0100
,
0000
1001
0000
0010
,
0010
0110
0000
0002
,
0000
0023
0000
2030
,
0000
3001
0110
0110
,
0000
0001
0100
1000
,
0100
0000
0100
0000
1000
0001
1000
0000
,
0000
0001
0010
1000
,
0001
0000
0001
0000
0010
1000
0010
0000
,
0000
0100
1000
0100
,
0010
0000
0010
0000
0100
0001
0100
0000
,
0000
0001
1000
0001
,
0100
0000
0100
0000
1000
0100
1000
0000
,
0002
0010
0000
0010
,
0103
0000
1000
0000
0010
0100
0010
0000
,
2000
0001
0000
0001
,
3100
0000
0100
0000
0010
1000
0010
0000
,
0200
0001
0000
0001
,
1300
0000
0100
0000
0100
1000
0100
0000
,
0020
1000
0000
1000
,
0031
0000
0010
0000
0001
1000
0001
0000
,
0020
0000
0100
0030
2000
0000
0100
3000
,
0020
0000
1000
0030
0002
0000
0010
0003
,
0100
1100
1000
1010
,
0220
0000
0330
0000
,
0100
2000
0000
3100
,
0010
0200
0000
0301
,
0010
0002
0000
1003
,
0010
2000
0000
3001
,
1000
0200
0010
0301
,
0010
2000
0100
3010
,
0001
0020
1000
0130
,
1000
1000
1001
0002
,
0200
0000
0000
0000
,
0303
0000
0000
0000
;

//---------------dance-single - ----------------
#NOTES:
     dance-single:
     :
     Easy:
     2:
     0.182511,0.211226,0.034069,0.119240,0.000000,150.000000,146.000000,4.000000,14.000000,0.000000,0.000000,0.182511,0.211226,0.034069,0.119240,0.000000,150.000000,146.000000,4.000000,14.000000,0.000000,0.000000:
0000
0000
0000
0000
,
0000
0000
0000
0000
,
0000
0000
0000
0000
,
0000
0000
0000
0000
,
1000
0001
0000
0100
,
0000
0010
0010
0000
,
0100
0001
0000
0010
,
0000
1000
1000
0000
,
0001
1000
0000
0010
,
0000
0100
0100
0000
,
1000
0010
0000
1000
,
0000
0001
0001
0020
,
0000
0000
0030
0200
,
0000
0000
0300
0002
,
0000
0000
0003
0020
,
0000
0000
0030
0100
,
0000
0100
0000
0001
,
0100
0001
0000
0000
,
1000
1000
0000
0010
,
0100
0100
0000
0000
,
0010
0001
0000
0010
,
1000
0100
0000
1000
,
1000
0001
0100
2000
,
0000
3000
0000
0010
,
0000
0001
0000
0010
,
0010
1000
0000
0000
,
0010
0100
0000
0001
,
0100
0100
0001
0000
,
0001
1000
0000
0010
,
0000
1000
0000
0100
,
0100
0001
0100
1000
,
0000
0110
0000
0020
,
0000
0032
0000
2000
,
0000
3003
0200
0000
,
0300
0001
0010
0000
,
0100
0100
1000
0100
,
0000
0010
0100
0000
,
1000
1000
0001
0010
,
0000
1000
0001
0000
,
0010
0010
0100
0010
,
0000
0001
1000
0000
,
0010
0000
1001
0000
,
0100
1000
0100
0000
,
0010
0010
0001
0000
,
1000
0001
1000
0000
,
0001
0001
0100
0000
,
0010
1000
0010
0000
,
1000
1000
0100
0000
,
0001
0010
0001
0000
,
1000
0000
0110
0000
,
0200
0300
2000
3000
,
0002
0003
0020
0030
,
0200
0000
1000
0000
,
0001
0000
0300
0000
,
0010
0100
0010
0000
,
1000
0010
1000
0000
,
0001
0001
0100
0000
,
1000
1000
0100
0000
,
0010
0001
0010
0000
,
1000
0010
1000
0000
,
0100
0001
0100
1000
,
0010
0000
1001
0000
,
0100
0000
0000
0000
;

//---------------dance-single - ----------------
#NOTES:
     dance-single:
     :
     Beginner:
     1:
     0.110723,0.158419,0.034069,0.093689,0.000000,91.000000,87.000000,4.000000,11.000000,0.000000,0.000000,0.110723,0.158419,0.034069,0.093689,0.000000,91.000000,87.000000,4.000000,11.000000,0.000000,0.000000:
// measure 0
0000
0000
0000
0000
,  // measure 1
0000
0000
0000
0000
,  // measure 2
0000
0000
0000
0000
,  // measure 3
0000
0000
0000
0000
,  // measure 4
0000
1000
0000
0001
,  // measure 5
0000
1000
0000
0000
,  // measure 6
0000
0010
0000
0100
,  // measure 7
0000
0010
0000
0000
,  // measure 8
0000
1000
0000
0010
,  // measure 9
0000
1000
0000
0000
,  // measure 10
0000
0100
0000
0001
,  // measure 11
0000
0100
0000
2000
,  // measure 12
0000
0000
0000
3000
,  // measure 13
0000
0000
0000
0020
,  // measure 14
0000
0000
0000
0030
,  // measure 15
0000
0000
0000
0110
,  // measure 16
0000
0000
0000
1000
,  // measure 17
0000
1000
0000
0000
,  // measure 18
0000
0010
0000
0001
,  // measure 19
0000
0010
0000
0000
,  // measure 20
0000
1000
0000
0001
,  // measure 21
0000
0001
0000
1000
,  // measure 22
0000
0100
0000
0200
,  // measure 23
0000
0300
0000
0010
,  // measure 24
0000
0000
0000
1000
,  // measure 25
0000
0001
0000
0000
,  // measure 26
0000
0100
0000
0010
,  // measure 27
0000
0010
0000
0000
,  // measure 28
0000
1000
0000
0100
,  // measure 29
0000
0001
0000
1000
,  // measure 30
0000
1000
0000
0001
,  // measure 31
0000
0000
0000
0020
,  // measure 32
0000
0000
0030
0002
,  // measure 33
0000
0000
0003
0000
,  // measure 34
0000
0000
0100
0000
,  // measure 35
1000
0000
0100
0000
,  // measure 36
0000
0000
0001
0000
,  // measure 37
0010
0000
0001
0000
,  // measure 38
0000
0000
1000
0000
,  // measure 39
0001
0000
1000
0000
,  // measure 40
0000
0000
0010
0000
,  // measure 41
0100
0000
0010
0000
,  // measure 42
0200
0000
0300
0000
,  // measure 43
1000
0000
0010
0000
,  // measure 44
2000
0000
3000
0000
,  // measure 45
0010
0000
0001
0000
,  // measure 46
0020
0000
0030
0000
,  // measure 47
0001
0000
0100
0000
,  // measure 48
0002
0000
0003
0000
,  // measure 49
2002
0000
3003
0000
,  // measure 50
0010
0000
0010
0000
,  // measure 51
0100
0000
0100
0000
,  // measure 52
1000
0000
0001
0000
,  // measure 53
1001
0000
0000
0000
,  // measure 54
0100
0000
0100
0000
,  // measure 55
0001
0000
0100
0000
,  // measure 56
1000
0000
1000
0000
,  // measure 57
0001
0000
1000
0000
,  // measure 58
0010
0000
0010
0000
,  // measure 59
1000
0000
0010
0000
,  // measure 60
0001
0000
0001
0000
,  // measure 61
0100
0000
0001
0000
,  // measure 62
1001
0000
0000
0000
;
