#TITLE:Slowly But Surely;
#SUBTITLE:;
#ARTIST:dj VERTICAI;
#TITLETRANSLIT:;
#SUBTITLETRANSLIT:;
#ARTISTTRANSLIT:;
#CREDIT:;
#BANNER:Slowly But Surely.png;
#BACKGROUND:Slowly But Surely-bg.png;
#LYRICSPATH:;
#CDTITLE:;
#MUSIC:Slowly But Surely.ogg;
#OFFSET:0.000;
#SAMPLESTART:35.635;
#SAMPLELENGTH:15.000;
#SELECTABLE:YES;
#BPMS:0.000=128.000;
#STOPS:;
#BGCHANGES:;

//---------------dance-single - Copied from----------------
#NOTES:
     dance-single:
     Copied from:
     Challenge:
     8:
     0.487,0.551,0.077,0.039,0.518:
0000
0000
0000
0000
,
0000
0000
0000
0000
,
0000
0000
0000
0000
,
0000
0000
0000
0000
,
1000
0000
0000
1000
0000
0000
0000
0000
0000
0000
0001
0000
0000
0100
0000
0000
,
0001
0000
0000
0001
0000
0000
0000
0000
0000
0000
1000
0000
0000
0100
0000
0000
,
1000
0000
0000
1000
0000
0000
0000
0000
0000
0000
1000
0000
0000
0001
0000
0000
,
0100
0000
0000
0100
0000
0000
0000
0000
0001
0000
0000
0001
0000
0000
0000
0000
,
1000
0000
0100
1000
0000
0000
0000
0000
0000
0000
0001
0000
0000
0100
0000
0000
,
0001
0000
0100
0001
0000
0000
0000
0000
0000
0000
1000
0000
0000
0100
0000
0000
,
1000
0000
0100
1000
0000
0000
0000
0000
0000
0000
1000
0000
0000
0001
0000
0000
,
0100
0000
0000
0100
0000
0000
0000
0000
0010
0000
1000
0000
0000
1001
0000
0000
,
1100
0000
0000
1000
0100
0000
0000
0000
0010
0000
0001
0000
0000
0100
0000
0000
,
0001
0000
0000
0001
0010
0000
0000
0000
0100
0000
1000
0000
0000
0010
0000
0000
,
1000
0000
0000
1000
0100
0000
0000
0000
0010
0000
0001
0000
0000
0100
0000
0000
,
1000
0000
0100
0000
0000
0000
0000
0000
0020
0000
0000
1000
0000
1030
0000
0000
,
1001
0000
0000
1000
0001
0000
0000
0000
0001
0000
0100
0000
0000
0010
0000
0000
,
1010
0000
0000
1000
0100
0000
0000
0000
0010
0000
0001
0000
0000
0100
0000
0000
,
0010
0000
0000
0010
1000
0000
0000
0000
0100
0000
0010
0000
0000
0001
0000
0000
,
0100
0001
1000
0001
0100
0010
1000
1000
,
0001
0000
0100
0000
0001
0000
0000
0000
1000
0000
0100
0000
0000
0010
0000
0000
,
0001
0000
0100
0000
0001
0000
0000
0000
0010
0000
0100
0000
0000
1000
0000
0000
,
0010
0000
1000
0000
0010
0000
0000
0000
1000
0000
0010
0000
0000
0100
0000
0000
,
0001
0000
0000
0101
0000
0000
0000
0000
2000
0000
0000
0100
0000
3100
0000
0000
,
1000
0000
0000
1000
0100
0000
0010
0000
0001
0000
1000
0000
0000
0100
0000
0000
,
1000
0000
0000
1000
0010
0000
0100
0000
0001
0000
1000
0000
0000
0100
0000
0000
,
1000
0000
0000
1000
0001
0000
0100
0000
0010
0000
0001
0000
0000
0010
0000
0000
,
0100
0000
0000
0101
0000
0000
0000
0000
1000
0000
0100
0000
0000
1100
0000
0000
,
1001
0000
0000
0001
0100
0000
0010
0000
1000
0000
0001
0000
1000
0100
0000
0000
,
0010
0000
0000
0010
0001
0000
0100
0000
0010
0000
1000
0000
0001
1000
0000
0000
,
0010
0000
0000
0010
0100
0000
0001
0000
0010
0000
0100
0000
1000
0001
0000
0000
,
0100
0000
0000
0101
0000
0000
0000
0000
1000
0000
0100
0000
0000
1100
0000
0000
,
1000
0000
0001
1000
0002
0000
0000
0000
0003
0000
0001
0000
0000
0100
0000
0000
,
0001
0000
1000
0001
2000
0000
0000
0000
3000
0000
1000
0000
0000
0100
0000
0000
,
1000
0000
0001
1000
0002
0000
0000
0000
0003
0000
1000
0000
0000
0001
0000
0000
,
0100
0000
0000
0100
0000
0000
0000
0000
0010
0000
1000
0100
0000
0010
0001
0000
,
0100
0100
0010
0010
,
1000
1000
0001
0001
,
0010
0010
0100
0100
,
1000
0000
1000
0000
0010
0100
0001
0000
,
1000
0100
0001
0100
,
1000
0010
0001
0010
,
1000
0100
0010
0001
,
0100
0000
0000
0100
0000
0000
0000
0000
0010
0000
0100
0010
0000
0100
0010
0100
,
0001
0000
0000
0001
1000
0000
0100
0000
0010
0000
0001
0000
0100
0001
0000
0100
,
0010
0000
0000
0010
1000
0000
0100
0000
0001
0000
0100
0000
0010
0100
0000
0010
,
0001
0000
0000
0001
1000
0000
0010
0000
0100
0000
0001
0000
0100
0010
0000
0100
,
0001
0000
0000
0001
1000
0000
0000
1000
0100
0000
0000
0100
0010
0000
0000
0000
,
0001
0000
0000
0001
1000
0000
0010
0000
0100
0000
0001
0000
1000
0100
0000
0100
,
0010
0000
0000
0010
0001
0000
0100
0000
0010
0000
1000
0000
0001
0100
0000
0100
,
0010
0000
0000
0010
1000
0000
0100
0000
0001
0000
0100
0000
0010
0001
0000
0001
,
1000
0000
0000
1000
0100
0000
0000
0100
0010
0000
0000
0010
0001
0000
0000
0000
,
0001
0000
0001
0000
0001
0000
0010
0000
0001
0000
0100
0000
0010
1000
0000
1000
,
0100
0000
0001
0000
0100
0000
0010
0000
0001
0000
0100
0000
0010
1000
0000
1000
,
0001
0000
0010
0000
1000
0000
0010
0000
0100
0000
1000
0000
0010
0100
0000
0100
,
0001
0000
0000
0001
1000
0000
0000
1000
0100
0000
0000
0100
0010
0000
0000
0000
,
0001
0000
1000
0001
0100
0000
0010
0000
1000
0000
0100
0000
0001
0100
0000
0100
,
0010
0000
0001
0100
1000
0000
0100
0000
0010
0000
1000
0000
0100
0001
0000
0001
,
0100
0000
0010
0001
1000
0000
0001
0000
0100
0000
1000
0000
0100
0001
0000
0001
,
1000
0000
0000
1000
0100
0000
0000
0100
0010
0000
0010
0001
0000
0001
0100
0010
,
1000
0000
0100
0010
0001
0000
0000
0000
0100
0000
0000
0000
0010
0000
0000
0000
,
0001
0000
0010
0100
0001
0000
0000
0000
0010
0000
0000
0000
0100
0000
0000
0000
,
1000
0000
0100
0010
0001
0000
0000
0000
0100
0000
0000
0000
0010
0000
0000
0000
,
1000
0000
0000
1000
0000
0000
0000
0000
0001
0000
0000
0001
0000
0000
0000
0000
,
0001
0000
1000
0001
1000
0001
0000
0000
0100
0000
0010
0000
0000
1000
0000
0000
,
0100
0000
0010
0100
0010
0100
0000
0000
1000
0000
0001
0000
0000
0100
0000
0000
,
0001
0000
0100
0010
0100
0010
0000
0000
1000
0000
0001
0000
0000
1000
0000
0000
,
0100
0010
0001
1000
0001
0100
0000
0010
1000
0001
0000
0001
0000
1000
0001
0010
;

//---------------dance-single - ----------------
#NOTES:
     dance-single:
     :
     Easy:
     3:
     0.219,0.289,0.031,0.201,0.008:
0000
0000
0000
0000
,
0000
0000
0000
0000
,
0000
0000
0000
0000
,
0000
0000
0000
0000
,
1000
0000
0000
0000
,
0001
0000
0000
0000
,
1000
0000
0000
0000
,
0100
0000
0010
0000
,
0001
0000
0000
0000
,
1000
0000
0000
0000
,
0001
0000
0000
0000
,
0100
0000
0010
0000
,
1000
0000
0000
1000
,
0001
0000
0000
0001
,
1000
0000
0000
1000
,
0200
0000
0000
0300
0000
0000
0000
0000
0020
0000
0000
0030
0000
0000
0000
0000
,
0001
0000
0000
0100
,
1000
0000
0000
0100
,
0001
0000
0000
1000
,
0200
0000
0020
0330
,
0001
0000
0001
0100
,
0001
0000
1000
0100
,
1000
0000
0001
1000
,
0200
0000
0000
0300
0000
0000
0000
0000
0020
0000
0000
0030
0000
0000
0000
0000
,
0001
0000
1000
0100
,
1000
0000
0001
0100
,
0001
0000
1000
0001
,
0200
0000
0000
0300
0000
0000
0000
0000
0020
0000
0000
0000
1030
0000
0000
0000
,
0001
0000
0001
0010
,
0001
0000
1000
0010
,
1000
0000
0001
1000
,
0200
0000
0000
0300
0000
0000
0000
0000
0020
0000
0000
0030
0000
0000
0000
0000
,
0001
1000
0002
0100
,
1003
0001
2000
0100
,
3001
1000
0002
0100
,
2003
0000
0000
3000
0000
0000
0000
0000
0002
0000
0000
0003
0000
0000
0000
0000
,
1000
0000
0000
0000
,
0100
0000
0000
0000
,
0001
0000
0000
0000
,
0010
0000
0000
0000
,
1000
0000
0000
0000
,
0010
0000
0000
0000
,
0001
0000
0000
0000
,
0200
0000
0000
0300
0000
0000
0000
0000
2000
0000
0000
3000
0000
0000
0000
0000
,
0001
0100
0001
0100
,
0010
1000
0010
1000
,
0100
0010
0100
0010
,
0002
0000
0000
0003
0000
0000
0000
0000
2000
0000
0000
3000
0000
0000
0000
0000
,
0001
0100
0001
1000
,
0010
1000
0001
1000
,
0010
0100
0001
0100
,
0020
0000
0000
0030
0000
0000
0000
0000
2000
0000
0000
3000
0000
0000
0000
0000
,
0001
0010
1000
0010
,
0001
0100
0010
1000
,
0001
0100
1000
0100
,
0001
0101
1000
1100
,
1000
0100
0001
0100
,
1000
0010
0100
0001
,
1000
0010
0001
0010
,
1000
1010
0001
0011
,
0001
0001
0100
0010
,
1000
1000
0100
0010
,
0001
0001
0100
0010
,
2000
0000
0000
3000
0000
0000
0000
0000
0002
0000
0000
0003
0000
0000
0000
0000
,
2000
0000
0000
3000
0000
0000
0000
0000
0000
0000
0000
0000
0100
0000
0000
0000
,
0020
0000
0000
0030
0000
0000
0000
0000
0000
0000
0000
0000
0001
0000
0000
0000
,
0200
0000
0000
0300
0000
0000
0000
0000
0000
0000
0000
0000
0010
0000
0000
0000
,
1000
0000
0000
1000
0000
0000
0000
0000
0001
0000
0000
0001
0000
0000
0010
0000
;
