#VERSION:0.83;
#TITLE:Revenge;
#SUBTITLE:;
#ARTIST:Photographer;
#TITLETRANSLIT:;
#SUBTITLETRANSLIT:;
#ARTISTTRANSLIT:;
#GENRE:Trance;
#ORIGIN:;
#CREDIT:;
#BANNER:Revenge-bn.png;
#BACKGROUND:Revenge-bg.png;
#PREVIEWVID:;
#JACKET:Revenge-jacket.png;
#CDIMAGE:;
#DISCIMAGE:;
#LYRICSPATH:;
#CDTITLE:cdtitle.png;
#MUSIC:[Round B] - Revenge.ogg;
#OFFSET:-0.957000;
#SAMPLESTART:89.648651;
#SAMPLELENGTH:13.913040;
#SELECTABLE:YES;
#BPMS:0.000=138.000;
#STOPS:;
#DELAYS:;
#WARPS:;
#TIMESIGNATURES:0.000=4=4;
#TICKCOUNTS:0.000=4;
#COMBOS:0.000=1;
#SPEEDS:0.000=1.000=0.000=0;
#SCROLLS:0.000=1.000;
#FAKES:;
#LABELS:0.000=Song Start;
#BGCHANGES:;
#KEYSOUNDS:;
#ATTACKS:
;

//---------------dance-single - ----------------
#NOTEDATA:;
#CHARTNAME:;
#STEPSTYPE:dance-single;
#DESCRIPTION:;
#CHARTSTYLE:;
#DIFFICULTY:Hard;
#METER:9;
#RADARVALUES:0.567782,0.711199,0.065966,0.189653,0.358692,482.000000,474.000000,8.000000,23.000000,6.000000,0.000000,1.000000,0.000000,0.000000,0.567782,0.711199,0.065966,0.189653,0.358692,482.000000,474.000000,8.000000,23.000000,6.000000,0.000000,1.000000,0.000000,0.000000;
#CREDIT:;
#NOTES:
// measure 0
0000
0000
0000
0000
,  // measure 1
1001
0000
0001
0000
1000
0000
1000
0010
1000
0000
0001
0000
0100
0000
0100
0010
,  // measure 2
0100
0000
0001
0000
0010
0000
0001
0100
0000
0000
0100
0010
0000
0000
0001
0100
,  // measure 3
0001
0000
1000
0000
0010
0000
1000
0100
1000
0000
0001
0000
0100
0000
0100
0010
,  // measure 4
0100
0000
0001
0000
1000
0000
1000
0010
1000
0000
0010
0100
0000
0100
0001
0100
,  // measure 5
0001
0000
0001
0000
1000
0000
0010
1000
0010
0000
1000
0000
0001
0000
0100
0001
,  // measure 6
0100
0000
0001
0000
0010
0000
0100
0010
0000
0000
0010
0001
0000
0000
0001
1000
,  // measure 7
0001
0000
1000
0000
0100
0000
1000
0010
0100
0000
0010
0000
1000
0000
0001
0100
,  // measure 8
0020
0000
0000
0000
0001
0000
0000
0000
1030
0000
0010
0100
0000
0100
0001
0100
,  // measure 9
0001
0000
0100
0000
0001
0000
1000
0000
0000
0000
1000
0000
0001
0000
0100
0001
,  // measure 10
0010
0000
0100
0000
0010
0000
0001
0000
0010
0000
0100
0000
0000
0000
0100
1000
,  // measure 11
0010
0000
1000
0000
0001
0000
0010
0000
0000
0000
0010
0000
0001
0000
0100
0010
,  // measure 12
0100
0000
0001
0000
1000
0000
0010
0000
1000
0000
0001
0100
0000
0100
0010
0100
,  // measure 13
0010
0000
0100
0000
0001
0000
1000
0010
0000
0000
1000
0000
0001
0000
0010
0001
,  // measure 14
0000
0000
1000
0000
0010
0000
0100
0010
0000
0000
0010
0100
0000
0000
0100
0010
,  // measure 15
1000
0000
0001
0000
1000
0000
0010
1000
0000
0000
0001
0000
0100
0000
0100
0010
,  // measure 16
0000
0000
0010
1000
0000
0000
0010
1000
0000
0000
0010
1000
0020
0000
0000
0000
,  // measure 17
2030
0000
0000
0000
,  // measure 18
0000
0000
0000
0000
0000
0000
3002
0003
,  // measure 19
1001
0000
0001
0000
0000
0000
0000
0000
0100
0000
0100
0000
0000
0000
0010
0100
,  // measure 20
0001
0000
1000
0000
0001
0000
1000
0000
0002
0000
0000
0000
0003
000M
0000
0000
,  // measure 21
1000
0000
1000
0000
0000
0000
0000
0000
0010
0000
0010
0000
0000
0000
0100
0010
,  // measure 22
1000
0000
0010
0000
1000
0000
0010
0000
2000
0000
0000
0000
3000
M000
0010
0001
,  // measure 23
0010
0000
0001
0000
0000
0000
1000
0100
1000
0000
0010
0000
0000
0000
0100
0010
,  // measure 24
1000
0000
0001
0000
0100
0000
0001
0000
0020
0000
0000
0000
0030
00M0
0000
0000
,  // measure 25
0001
0000
0010
0000
0000
0000
0000
0000
0100
0000
1000
0000
0000
0000
1000
0001
,  // measure 26
1000
0010
0001
0010
2000
0000
0000
0000
,  // measure 27
3100
0000
1000
0000
0000
0000
0000
0000
0001
0000
0010
0000
0000
0000
0010
0001
,  // measure 28
0010
0000
0100
0000
0010
0000
0001
0000
2000
0000
0000
0000
3000
M000
0000
0000
,  // measure 29
0001
0000
1000
0000
0000
0000
0000
0000
1000
0000
0010
0000
0000
0000
0010
0100
,  // measure 30
0010
0000
0001
0000
0010
0000
0100
0000
0020
0000
0000
0000
0030
00M0
0100
0001
,  // measure 31
1000
0000
0001
0000
0000
0000
0001
0100
0010
0000
1000
0000
0000
0000
1000
0001
,  // measure 32
1000
0000
0010
0000
0100
0000
0001
0000
2000
0000
0000
0000
3000
M000
0000
0000
,  // measure 33
0001
0000
0001
0000
0000
0000
0000
0000
1000
0000
1000
0000
0000
0000
0010
1000
,  // measure 34
0010
0100
0001
0010
0002
0010
0010
0100
,  // measure 35
0103
0000
0001
0000
1000
0010
1000
0000
,  // measure 36
0001
0000
0100
0000
0010
0100
0010
0000
,  // measure 37
1000
0001
1000
0001
0010
0100
0010
0100
,  // measure 38
0010
0001
0010
0001
1000
0100
1000
1000
,  // measure 39
1100
0000
0000
0100
1000
0000
0001
0000
0000
0100
0001
0000
0100
0000
0000
0000
,  // measure 40
0010
0100
1000
0100
0010
0100
0001
0100
,  // measure 41
0110
0000
0010
1000
0010
0000
1000
0001
,  // measure 42
1000
0000
0001
0010
0100
0000
0010
0010
,  // measure 43
0110
0000
0000
0001
0000
0000
1000
0000
0000
0001
0000
0000
0010
0000
0000
0100
,  // measure 44
0000
0000
0010
0000
0000
0001
0000
0000
1000
0000
0000
0100
0000
0000
1000
0000
,  // measure 45
1000
0000
0000
0010
0000
0000
0100
0000
0000
0010
0000
0000
0001
0000
0000
0010
,  // measure 46
0000
0000
1000
0000
0000
0010
0000
0000
0100
0000
0000
0001
0000
0000
0100
0000
,  // measure 47
0101
0001
0100
0001
1000
0001
0100
0001
,  // measure 48
1000
0001
0100
0001
1000
0100
0010
0001
,  // measure 49
1000
0001
1000
0001
1000
0001
1000
0001
1000
0010
1000
0010
1000
0010
1000
0010
,  // measure 50
4000
0000
0010
0000
0100
0000
3020
0030
,  // measure 51
1010
0000
1000
0000
0001
0000
0000
0000
0001
0000
0100
0000
0001
0000
0001
1000
,  // measure 52
0001
1000
0100
1000
0020
0000
1030
0000
,  // measure 53
1000
0000
0001
0000
0100
0000
0000
0000
0100
0000
0010
0000
1000
0000
0100
0010
,  // measure 54
0100
0000
1000
0000
0001
0000
0100
0000
0020
0000
0000
0000
0031
0000
0010
0100
,  // measure 55
0010
0000
1000
0000
0001
0000
0100
0010
0100
0000
0010
0000
1000
0000
0001
1000
,  // measure 56
0001
1000
0010
0100
0002
0000
1003
0000
,  // measure 57
1000
0000
0001
0000
1000
0000
0000
0000
0010
0000
0100
0000
0010
0000
1000
0100
,  // measure 58
1000
0001
0010
0100
2000
0000
3200
0000
,  // measure 59
1300
0000
0100
0000
0010
0000
0000
0000
0100
0000
0010
0000
0001
0000
0010
0001
,  // measure 60
0010
0100
1000
0001
0020
0000
0031
0000
,  // measure 61
0001
0000
1000
0000
0100
0000
0000
0000
0100
0000
1000
0000
0010
0000
0010
0100
,  // measure 62
0010
0000
1000
0000
0001
0000
1000
0000
0200
0000
0000
0000
1300
0000
0100
0010
,  // measure 63
0100
0000
0010
0000
0001
0000
0010
0001
0010
0000
0100
0000
1000
0000
0010
0100
,  // measure 64
0010
0001
0010
1000
0020
0000
0130
0000
,  // measure 65
0110
0000
0010
0000
0000
0000
0000
0000
1000
0000
0001
0000
0000
0000
1000
0010
,  // measure 66
1000
0001
1000
0001
2000
0000
0000
0000
,  // measure 67
3002
0000
0000
0000
,  // measure 68
0000
0000
0000
0000
,  // measure 69
0003
0000
0000
0000
;

//---------------dance-single - ----------------
#NOTEDATA:;
#CHARTNAME:;
#STEPSTYPE:dance-single;
#DESCRIPTION:;
#CHARTSTYLE:;
#DIFFICULTY:Medium;
#METER:7;
#RADARVALUES:0.457052,0.540512,0.074212,0.057721,0.169039,388.000000,379.000000,9.000000,7.000000,0.000000,0.000000,0.000000,0.000000,0.000000,0.457052,0.540512,0.074212,0.057721,0.169039,388.000000,379.000000,9.000000,7.000000,0.000000,0.000000,0.000000,0.000000,0.000000;
#CREDIT:;
#NOTES:
0000
0000
0000
0000
,
1010
0000
0010
1000
0010
0000
0001
0010
,
0100
0000
0000
0000
0100
0000
0010
0100
0000
0000
0100
0010
0000
0000
0010
0100
,
0001
1000
0001
0000
1000
0001
0100
0000
,
0100
0000
0001
0000
1000
0000
1000
0010
0000
0000
0010
0100
0000
0000
0100
0001
,
0100
0001
0100
0000
0001
1000
0001
0000
,
0100
0000
0010
0000
0100
0000
0001
0010
0000
0000
0010
0100
0000
0000
0100
1000
,
0100
1000
0001
0000
0010
0100
1000
0001
,
1002
0000
0000
0000
0100
0000
0000
0000
1003
0000
0001
0010
0000
0001
0100
0001
,
0100
0000
0001
0000
0000
0000
0010
0000
0000
0000
0100
0000
0000
0000
1000
0100
,
1000
0000
0100
0000
0000
0000
1000
0000
0000
0000
0001
0000
0000
0000
0100
0010
,
0100
0000
0001
0000
0000
0000
0010
0000
0000
0000
0001
0000
0000
0000
0100
0010
,
0100
0000
0001
0000
0000
0000
1000
0000
0000
0000
0001
0100
0000
0010
1000
0010
,
1000
0000
0001
0000
0000
0000
1000
0000
0000
0000
0010
0000
0000
0000
0100
0010
,
0100
0000
0001
0000
0000
0000
0100
0000
0000
0000
0010
0000
0000
0000
1000
0010
,
1000
0000
0010
0000
0000
0000
0100
0000
0000
0000
0001
0000
0000
0000
0100
0001
,
0100
0001
0000
0001
0000
0001
0000
0001
,
0020
0000
0000
0000
,
0000
0000
0000
0000
0000
0000
0032
0003
,
0011
0001
0000
0000
0010
0010
0000
0000
,
0001
0010
0100
0010
0001
0000
0000
0000
,
1000
1000
0000
0000
0010
0010
0000
0000
,
1000
0100
0010
0100
1000
0000
0000
1000
,
1000
0001
0000
0001
0100
0100
0000
0010
,
1000
0010
0001
0010
0100
0000
0000
0000
,
0001
0001
0000
0000
1000
1000
0000
0000
,
0100
0010
0100
0010
0200
0000
0000
0000
,
1300
0100
0000
0000
0100
0010
0000
0000
,
0010
0001
0010
0001
0010
0000
0000
0000
,
0001
1000
0000
0000
1000
0001
0000
0000
,
0100
0001
0010
0100
1000
0000
0000
0001
,
1000
1000
0000
1000
0001
0001
0000
0010
,
0100
0010
0001
0010
0100
0000
0000
0000
,
0100
0010
0000
0000
0001
1000
0000
0000
,
1000
0100
0001
0010
2000
0000
0100
0000
,
3010
1000
0001
0010
,
0001
1000
0100
0010
,
0100
0001
0100
0000
0010
1000
0010
0000
,
0100
0010
0100
0000
0001
0100
0001
0001
,
0101
0000
0000
0100
0000
0000
0010
0000
0000
0100
0000
0000
1000
0000
0000
0100
,
0000
0010
0100
0000
0001
0000
0100
0000
,
0010
1000
0100
1000
,
0010
0000
0100
0000
0001
0000
0010
0010
,
0011
0000
0000
0001
0000
0000
1000
0000
0000
0001
0000
0000
1000
0000
0000
0100
,
0000
0000
0010
0000
0000
0001
0000
0000
0010
0000
0000
0100
0000
0000
1000
0000
,
1000
0000
0000
0010
0000
0000
0100
0000
0000
0010
0000
0000
1000
0000
0000
0010
,
0000
0000
0100
0000
0000
0001
0000
0000
0010
0000
0000
0001
0000
0000
0100
0000
,
0101
0010
0100
1000
,
0100
0010
0100
1000
,
0001
0010
0001
0010
0100
1000
0100
1000
,
0010
1000
0100
0010
,
0110
0100
1000
0000
0001
0100
0001
0000
,
1000
0100
1000
0100
1000
0000
1000
0000
,
0100
0100
0010
0000
0010
0001
0010
0000
,
0001
0000
1000
0000
0001
0000
0100
0000
0001
0000
0000
0000
0001
0000
0010
0001
,
0010
0000
0100
0000
0010
0000
0001
1000
0001
0000
1000
0000
0100
0000
0010
0100
,
0010
0100
1000
0100
0010
0000
0010
0000
,
0001
0001
1000
0000
0010
0100
0010
0000
,
1000
0001
1000
0100
0010
0000
0100
0000
,
0110
0100
0010
0000
0010
0100
1000
0000
,
0001
0100
0001
0100
0001
0000
0001
0000
,
1000
1000
0100
0000
0100
1000
0010
0000
,
0010
0000
0100
0000
0001
0000
1000
0000
0010
0000
0000
0000
1000
0000
0100
1000
,
0100
0000
1000
0000
0001
0000
0010
0001
0010
0000
0001
0000
1000
0000
0010
0100
,
0010
1000
0010
0100
0001
0000
0001
0000
,
0101
0000
0100
0000
0000
0000
0000
0000
0001
0000
0001
0000
0000
0000
0010
0100
,
0010
0100
0010
0100
0020
0000
0000
0000
,
0230
0000
0000
0000
,
0000
0000
0000
0000
,
0300
0000
0000
0000
;

//---------------dance-single - ----------------
#NOTEDATA:;
#CHARTNAME:;
#STEPSTYPE:dance-single;
#DESCRIPTION:;
#CHARTSTYLE:;
#DIFFICULTY:Easy;
#METER:4;
#RADARVALUES:0.262687,0.331481,0.057721,0.041229,0.000000,223.000000,216.000000,7.000000,5.000000,0.000000,0.000000,0.000000,0.000000,0.000000,0.262687,0.331481,0.057721,0.041229,0.000000,223.000000,216.000000,7.000000,5.000000,0.000000,0.000000,0.000000,0.000000,0.000000;
#CREDIT:;
#NOTES:
0000
0000
0000
0000
,
0011
0010
0001
0010
,
0001
0000
1000
0000
0100
0000
1000
0100
,
1000
0010
0100
0001
,
0010
0000
0100
0000
0010
0000
0001
0100
,
0001
0100
0001
0010
,
0100
0000
0010
0000
0001
0000
1000
0100
,
1000
0001
0010
0100
,
0010
0000
0001
0000
0000
0001
0000
0001
,
0100
0100
0000
0010
0000
1000
0000
0001
,
0000
0010
0000
0100
0000
0010
0000
0001
,
0100
0001
0000
0010
0000
0100
0000
1000
,
0000
0100
0000
0010
0000
0001
0000
1000
,
0010
1000
0000
0001
0000
0010
0000
0100
,
0000
0010
0000
0001
0000
0100
0000
0010
,
1000
0010
0000
0100
0000
0001
0000
1000
,
2000
0000
0000
0000
,
3002
0000
0000
0000
,
0000
0000
0000
0000
0000
0000
0000
0003
,
1001
0000
1000
0000
,
0001
0100
0001
0000
,
0100
0000
0100
0000
,
0001
0010
0100
0000
,
0010
0000
0010
0000
,
0001
1000
0100
0000
,
1000
0000
1000
0000
,
0001
0100
0001
0000
,
0101
0000
0001
0000
,
0010
0100
0010
0000
,
0100
0000
0100
0000
,
1000
0010
1000
0000
,
0010
0000
0010
0000
,
0100
0001
0010
0000
,
0100
0000
0100
0000
,
0010
0001
0010
0000
,
0011
0000
0001
0000
,
1000
0000
0100
0000
,
1000
0000
0001
0000
,
0100
0000
0000
0000
0001
0000
0100
0010
,
0100
0000
0010
0000
,
1000
0000
0001
0000
,
0010
0000
0100
0000
,
0010
0000
0000
0000
0001
0000
1000
0100
,
2000
0000
0000
0001
0000
0000
0100
0000
,
0000
0010
0000
0000
0100
0000
0000
0001
,
3001
0000
0000
1000
0000
0000
0010
0000
,
0000
1000
0000
0000
0100
0000
0000
1000
,
1000
0000
1000
0000
,
0001
0000
0001
0000
,
0010
0100
0010
0001
,
2000
0000
0000
3000
,
1100
1000
0001
0010
,
0100
0010
0001
0001
,
1000
0010
0100
0001
,
0010
0100
0010
0001
,
1000
0001
0100
0000
0010
0100
0001
0000
,
1000
0100
0010
0001
,
0001
1000
0010
0000
0100
0010
1000
0000
,
0001
1000
0010
0000
,
1010
0010
0100
0001
,
1000
0001
0010
0010
,
0100
0010
0001
1000
,
0010
0100
0010
0010
,
1000
0100
1000
0000
0001
0010
0001
0000
,
1000
0100
1000
0010
,
1010
0000
1000
0000
,
0010
0100
0002
0000
,
0003
0000
0000
0000
;

//---------------dance-single - ----------------
#NOTEDATA:;
#CHARTNAME:;
#STEPSTYPE:dance-single;
#DESCRIPTION:;
#CHARTSTYLE:;
#DIFFICULTY:Beginner;
#METER:2;
#RADARVALUES:0.156670,0.193364,0.049475,0.057721,0.000000,133.000000,127.000000,6.000000,7.000000,0.000000,0.000000,0.000000,0.000000,0.000000,0.156670,0.193364,0.049475,0.057721,0.000000,133.000000,127.000000,6.000000,7.000000,0.000000,0.000000,0.000000,0.000000,0.000000;
#CREDIT:;
#NOTES:
0000
0000
0000
0000
,
1100
0000
1000
0000
,
0001
0000
0100
0000
,
0010
0000
1000
0000
,
0100
0000
1000
0001
,
0010
0000
0100
0000
,
0010
0000
0001
0000
,
1000
0000
0010
0000
,
0100
0000
0001
0010
,
0001
0000
1000
0000
,
0001
0000
1000
0000
,
0100
0000
0010
0000
,
0100
0000
1000
0001
,
0100
0000
0010
0000
,
0100
0000
0001
0000
,
1000
0000
0010
0000
,
0200
0000
0000
0000
,
0320
0000
0000
0000
,
0000
0000
0000
0030
,
0110
0000
1000
0000
,
0001
0000
1000
0000
,
0001
0000
0100
0000
,
0001
0000
0100
0000
,
0010
0000
1000
0000
,
0100
0000
0010
0000
,
0100
0000
1000
0000
,
0001
0010
0001
0000
,
1000
0000
0001
0000
,
0010
0000
0100
0000
,
0010
0000
0001
0000
,
1000
0000
0100
0000
,
0010
0000
0100
0000
,
1000
0000
0010
0000
,
0100
0000
0001
0000
,
1000
0100
1000
0000
,
1200
0000
0000
0000
,
0010
0000
0000
0000
,
1000
0000
0000
0000
,
0001
0000
0000
0000
,
1300
0000
0100
0000
,
0001
0000
0100
0000
,
1000
0000
0100
0000
,
1000
0000
0010
0000
,
2010
0000
0000
0100
,
0000
0000
0000
0000
0001
0000
0000
0001
,
0001
0000
0000
0100
,
0000
0000
0000
0000
0010
0000
0000
0010
,
3010
0000
0000
0000
,
1000
0000
0000
0000
,
0001
0000
1000
0000
,
0002
0000
0000
0003
,
1001
0000
0001
0000
,
0001
0000
0010
0000
,
0100
0000
0100
0000
,
0100
0000
1000
0000
,
0001
0000
0100
0000
,
0001
0000
0100
0000
,
0010
0000
1000
0000
,
1000
0001
0010
0000
,
0001
0000
0100
0000
,
0010
0000
1000
0000
,
0100
0000
1000
0000
,
0001
0000
0100
0000
,
0010
0000
0100
0000
,
0001
0000
1000
0000
,
1002
0000
0100
0000
,
1000
0000
0020
0000
,
0033
0000
0000
0000
;
