#TITLE:Puddel;
#ARTIST:Fark & Sacio;
#GENRE:Chiptune;
#BANNER:[Round B] - Puddel.png;
#BACKGROUND:[Round B] - Puddel-bg.png;
#JACKET:[Round B] - Puddel-jacket.png;
#MUSIC:[Round B] - Puddel.ogg;
#OFFSET:-0.092;
#SAMPLESTART:5.366;
#SAMPLELENGTH:11.616;
#BPMS:0=165,
141.5=123.75,
143=55,
143.5=165,
174=82.5,
175=165,
207=82.5,
215=165,
245=82.5,
246=165,
273.5=123.75,
274.25=82.5,
276=165,
322.5=115,
323=108.333,
323.5=101.666,
324=95,
324.5=94,
325.5=78.7,
326.5=57.237,
327=57.2;
#STOPS:143.5=0.182;
#SCROLLS:0=1,
273.5=0.667,
274.25=1;

//---------------dance-single - ----------------
#NOTEDATA:;
#STEPSTYPE:dance-single;
#DIFFICULTY:Easy;
#METER:5;
#RADARVALUES:;
#NOTES:
0000
0000
0000
0000
,
0000
0000
0000
0000
,
0000
0000
0000
0000
,
0000
0000
0000
0000
,
2000
3010
0100
0001
,
1000
0000
0001
0001
,
1000
0100
0010
0001
,
0000
1000
0000
0010
,
0000
0100
0001
1000
,
0000
0100
0000
0010
,
0000
0001
1000
0001
,
0020
0000
0030
0000
,
0002
0103
0010
1000
,
0001
0000
1000
1000
,
0001
0010
0100
1000
,
0001
0000
1000
1000
,
0001
0100
0010
1000
,
0001
0000
1000
0001
,
0010
0010
0100
1000
,
0001
1000
0001
0000
,
0100
0100
0010
0000
,
1000
0000
0001
1000
,
0001
0001
0010
0000
,
0100
0000
0010
0100
,
1000
1000
0001
0000
,
1000
0000
0010
1000
,
0001
0001
0100
0000
,
0001
0010
0100
1000
,
0001
0010
0001
0000
,
0010
0100
1000
0000
,
0001
1000
0010
0000
,
0100
0001
1000
0000
,
0001
0020
0000
0230
,
0000
2300
0000
3002
,
0000
0203
0000
0320
,
0000
0130
0000
0000
,
0000
0001
0100
0010
,
1000
0001
0100
0001
,
1000
0000
0000
0000
0000
0000
0000
0001
,
0000
0010
0000
0100
0000
1000
0000
0000
,
0001
0010
0001
1000
,
0100
1000
0010
0100
,
0010
0000
1000
0001
,
0100
0010
0100
0000
,
0010
1000
0001
0100
,
0001
1000
0100
0010
,
0001
0000
0000
1000
,
1000
1000
1000
0001
,
0100
0010
0100
0001
,
1000
0100
1000
0001
,
0010
0001
0000
0100
,
0100
0010
1000
0001
,
0010
0000
0100
0000
1000
0001
1000
0000
,
0010
0000
0100
0001
1000
0000
0001
0000
,
0010
0000
0100
0000
1000
2000
0000
0000
,
3001
0100
0001
0010
,
0100
1000
0001
0000
,
1000
0010
0010
0100
,
0001
0000
1000
0000
0000
0100
0000
0010
,
0000
0001
0002
0000
,
1003
0000
0001
0000
0000
0100
0000
0100
,
0000
0000
0010
1000
,
0010
1000
0002
0000
,
1003
0100
0010
0010
,
0001
0001
0000
1000
,
0000
0001
0000
0100
,
0010
1000
0001
0010
,
0100
2000
0000
3002
,
0000
0203
0000
0000
,
0310
0010
1000
0001
,
0000
1000
0000
0100
,
0010
0010
0001
1000
,
0001
0000
0100
0001
0000
1000
0000
0001
,
0000
1000
0100
1000
,
0000
0000
0001
0000
0010
0000
0001
0100
,
0000
0100
0000
0010
0000
0010
0000
1000
,
0000
0001
0000
1000
0000
0000
1000
0000
,
1000
0100
0010
0001
,
0020
0000
0000
0031
,
0001
0100
0010
1000
,
0020
0000
0030
1000
,
0001
0000
0000
0000
,
0000
0000
0000
0000
0000
0000
0000
0M00
0000
0000
0000
0000
0000
0000
0000
0000
0000
0000
0000
0000
0000
0000
0000
0000
0000
0000
0000
0000
0000
0000
0000
0000
;

//---------------dance-single - ----------------
#NOTEDATA:;
#STEPSTYPE:dance-single;
#DIFFICULTY:Medium;
#METER:7;
#RADARVALUES:;
#NOTES:
0000
0000
0000
0000
,
0000
0000
0000
0000
,
0000
0000
0000
0000
,
0000
0000
0000
0000
,
0001
0000
0101
0000
0010
1000
0001
0020
,
0000
0130
0000
1000
0100
1000
0001
0000
,
0010
0001
0100
0000
0010
1000
0100
0020
,
0000
0130
1000
0200
0000
1300
0001
0100
,
0000
0010
1000
0001
0100
0001
1000
0002
,
0000
0013
0100
1000
0000
0001
0000
0020
,
0000
0031
0100
0001
1000
0001
0010
0100
,
0000
0010
0100
0110
0000
0000
0000
0000
,
1000
0000
1100
0000
0010
0001
1000
0020
,
0000
0130
0000
0001
0100
0001
1000
0010
,
0100
0000
0101
0000
0010
0000
1000
0020
,
0000
1030
0001
0000
1000
0001
0010
0100
,
1000
0000
1100
0000
0001
0000
0101
0200
,
0000
0310
0000
1000
0001
1000
0001
0000
,
0010
0100
0010
0001
1000
0000
0010
0200
,
0000
0301
0000
0101
0000
1001
0000
0000
,
0001
0000
0011
0000
0010
0100
0000
0100
,
1000
0000
1000
0000
1001
0000
0000
0001
,
0100
0000
0110
0000
0010
1000
0000
1000
,
0001
0000
0001
0000
0011
0000
0000
0010
,
0100
0000
1100
0000
0001
1000
0000
0010
,
0100
0000
0100
0000
0110
0000
0000
0001
,
1000
0000
1001
0000
0001
0010
0000
0100
,
0010
0001
0000
1000
0000
0010
0000
0100
,
0001
0100
0001
1000
0010
0100
0010
0000
,
0010
1000
0100
1000
0010
0100
0001
0000
,
0001
0010
0100
1000
0001
0010
0001
0000
,
0010
0100
0010
0001
1000
0100
0010
0000
,
0001
0000
0100
0200
0000
0000
0310
0020
,
0000
1030
0001
2000
0000
0000
3001
0002
,
0000
0000
0013
0020
0000
0000
0130
2000
,
0000
0000
0000
0002
0000
0000
3003
0000
,
1000
0000
0100
1000
0000
1000
0001
0000
,
0010
0000
0001
0100
0000
0100
0010
0000
,
1000
0000
0001
1000
0000
0100
0000
0010
,
0000
0001
0000
1000
0000
0001
0000
0000
,
0110
0000
1000
0001
0000
0001
0010
0000
,
0100
0000
0010
0001
0000
0001
1000
0000
,
0010
0000
0110
0000
0001
0100
0001
0010
,
0000
0100
0000
1000
0002
0000
1003
0000
,
1100
0000
0000
0001
0100
0000
0010
0000
,
0101
0000
0000
0001
0010
0000
0100
0000
,
1100
0000
0000
1000
0010
0100
0001
0100
,
0010
0100
0001
1000
0010
0100
0001
0000
,
0010
0100
0000
1000
0001
0000
0100
0000
,
0010
0100
0000
0001
0100
0000
0010
0000
,
1000
0001
0000
1000
0100
0000
0010
0001
,
0010
0100
1000
0000
0001
0000
0100
0100
,
0010
1000
0000
0001
0000
0000
1000
0000
0001
1000
0001
0000
0010
0000
0100
0000
,
1000
0001
0000
0100
0000
0010
1000
0010
0100
0001
0000
0000
0101
0000
0000
0000
,
0110
0000
1001
0000
1000
0200
0000
1300
,
0001
0000
0010
0001
0100
0000
0210
0000
,
0302
0000
2003
0000
3100
0020
0000
0031
,
1000
0000
0001
0100
0010
1000
0001
0000
,
0011
0000
0010
0100
0010
0100
0000
1000
,
0000
0001
1000
0000
0010
0000
0100
0001
,
0100
0000
0010
1000
0000
0001
0000
1001
,
0000
0000
2000
3200
0310
0000
0011
0000
,
2000
0000
3001
0100
0001
0000
0100
0000
,
0010
1000
0100
0010
0100
0000
1000
0100
,
1000
0000
0001
0010
0000
0100
0010
0001
,
0000
1000
0001
1000
0000
0001
0100
0001
,
0100
0010
1000
0001
2000
0000
3200
0000
,
0320
0000
0031
1000
0000
0001
0100
0020
,
0000
0030
1000
0002
0000
0000
0000
0000
,
0013
0000
0110
0000
1000
0000
0001
0020
,
0000
0031
0100
0002
0000
1003
0010
0100
,
0001
0100
0001
0100
0010
1000
0001
2000
,
0000
0000
3100
0010
0000
1001
0000
0110
,
0000
1000
0001
1000
0100
0010
0001
2000
,
0000
3001
0100
0001
1000
0001
0000
0020
,
0000
0130
0000
0020
0000
0031
0100
0020
,
0000
1030
0001
2000
0000
3000
0000
0000
,
0001
0000
0101
0000
0010
1000
0000
2001
,
0000
0100
3100
0010
0000
0001
0100
0000
,
0010
0000
0110
0000
1000
0001
0000
0021
,
0000
0100
0130
1000
0000
0001
1000
0000
,
0020
0000
0000
0130
0000
0002
0000
0000
,
0003
0000
0000
0000
0000
0000
0000
M000
0000
0000
0000
0000
0000
0000
0000
0000
0000
0000
0000
0000
0000
0000
0000
0000
0000
0000
0000
0000
0000
0000
0000
0000
;

//---------------dance-single - ----------------
#NOTEDATA:;
#STEPSTYPE:dance-single;
#DIFFICULTY:Hard;
#METER:9;
#RADARVALUES:;
#NOTES:
0000
0000
0000
0000
,
0000
0000
0000
0000
,
0000
0000
0000
0000
,
0000
0000
0000
0000
0000
0000
0000
0000
0000
0000
1000
0100
1000
0000
0001
0000
,
0020
0000
0031
0000
0100
0001
1000
0010
,
0000
0000
0010
0000
0100
0000
0001
0100
0001
0000
1000
0000
0100
0000
1000
0000
,
0001
0010
0010
0100
0100
1000
1000
0002
,
0000
0000
0000
0000
0013
0001
2000
0000
0000
0000
3010
0100
0010
0000
1000
0000
,
0000
0001
0010
0100
1000
0010
0100
0002
,
0000
0000
0103
0000
0010
0000
1000
0000
0000
0000
0101
0000
0000
0000
1000
0200
,
0000
0000
0310
0100
1000
0010
1000
0002
,
0000
0000
0010
0000
0000
0000
0103
0000
0000
0000
1000
0010
0100
0000
0001
0000
,
2000
0000
3010
0000
1000
0100
0001
0200
,
0000
1300
0100
0010
0010
0100
1000
0001
,
1000
0000
0000
0000
0101
0000
0000
0000
0010
1000
0000
0000
1100
0000
0010
0002
,
0000
0000
0000
0000
1003
0000
0001
0000
0100
0001
0100
0000
0010
0000
1000
0000
,
0001
0010
0000
0000
1100
0000
0000
0000
0010
0000
0000
0000
0101
0000
0010
2000
,
0000
0000
3001
1000
0100
1000
0010
0100
,
0001
0100
0010
0000
0010
0000
1000
0000
0002
0000
0000
0000
1003
0000
0200
0000
,
0000
0000
0010
0000
0000
0000
1300
0000
0000
0000
0001
0000
0100
0010
0100
0010
,
1000
0000
1100
0000
0101
0000
0001
0100
,
0000
0000
0110
0000
0000
0000
1010
0000
0000
0000
0011
0000
0010
0000
0100
0010
,
0100
0000
1100
0000
0011
0000
1000
0010
,
0000
0101
0000
0011
0000
1100
1000
0000
,
0100
0000
0011
0000
1010
0000
0100
0001
,
0000
0000
0101
0000
0000
0000
0110
0000
0000
0000
1010
0000
0001
0000
1000
0100
,
1000
0000
1100
0000
0110
0000
0001
0100
,
0010
1000
0010
0000
0100
0001
0100
0000
0001
0010
0001
0000
0010
0100
0010
0000
,
0100
1000
0010
1000
0001
0100
0001
0010
,
0100
0010
0001
0100
0010
1000
0001
0000
,
1000
0010
0100
0010
1000
0100
0010
0001
,
0100
0010
0100
1000
0100
0001
1000
0000
,
0001
0000
0000
0000
0010
0100
0020
0000
0000
0000
0000
0000
0130
0000
2000
0000
,
0000
3001
1000
0020
0000
0000
0130
0002
,
0000
0000
1003
0200
0000
0000
1300
0020
,
0000
0000
0000
0100
0000
0000
0000
0000
0000
0200
0000
0000
0000
0000
0000
0000
0000
0000
0000
0330
0000
0000
0000
0000
,
0001
0100
0002
0000
0023
0000
0130
2000
,
0000
3002
0000
0003
0020
0000
0031
0200
,
0000
0310
0000
1000
0000
0100
0000
0011
,
0000
0000
1010
0000
0000
0000
0110
0000
0000
0000
1002
0000
0000
0000
1003
0100
,
1000
0000
0000
0000
0020
0000
0000
0000
0230
0000
0300
0100
0001
0000
2000
0000
,
0000
3200
0000
0300
0020
0000
0031
2000
,
0000
0000
0010
0000
0000
0000
3001
0000
0010
0001
0100
0000
0010
0000
0100
0000
,
0000
0000
1010
0000
0000
0000
0101
0000
1000
0001
1000
0000
0011
0000
0100
0000
,
2000
0000
3020
0000
0130
0002
0000
2003
,
0000
3000
0020
0000
0130
0002
0000
1003
,
0000
0000
0100
0000
0000
0000
0010
0000
0000
0000
0010
0001
0010
0000
0010
0000
,
0100
0000
0100
0000
1000
0000
1000
0000
0010
0000
0010
1000
0001
0000
1000
0100
,
1000
0001
0010
0100
0010
0002
0003
0100
,
0001
0100
0010
1000
0001
0020
0000
0130
,
0000
0100
1000
0000
0001
0010
0010
0001
,
1000
0000
0001
0000
0100
0000
0010
0000
1000
0000
0100
0000
0010
0001
0001
1000
,
0001
0000
0100
0000
0000
0000
0002
0000
0000
0000
0013
0000
0100
0000
0010
0000
0001
0000
0100
0000
0020
0000
0000
0000
1030
0000
0100
0000
0010
0001
1000
0000
,
0010
0000
0200
0000
0000
0300
0001
0100
0001
0000
1000
0100
1000
0100
1000
0000
0001
0000
0010
0000
000M
0000
00M0
0000
1100
0000
0000
0000
0000
0000
0000
0000
,
0011
0000
1001
0000
0101
0120
0000
1030
,
0001
0000
1000
0100
0010
0000
0001
0000
0100
0000
0001
0000
0001
2000
0000
0000
,
3020
0000
0000
0000
0130
0000
0100
0001
2000
0000
0002
0000
0000
0000
3000
0000
,
0000
0000
1003
0000
0001
0010
0100
0000
0010
0000
0001
0000
2000
0000
0000
0000
,
3020
0000
0130
0200
0000
0302
0003
2000
,
3000
0001
0020
0030
0220
0030
0000
1300
,
0002
0000
0103
0200
0300
0220
0330
2002
,
3003
0000
0000
0000
0000
0000
0000
0000
0001
0010
0001
0010
0100
1000
0100
0010
0001
0000
0000
0000
0000
0000
0000
0000
0001
0000
0020
0000
0000
0000
0000
0000
,
0230
0000
0000
0000
1300
0001
0200
0000
0000
0000
0000
0000
0310
0000
1000
0000
,
0100
0000
1000
0000
0001
0010
0100
0010
0002
1000
0000
0000
0203
0000
0310
0100
,
0002
0000
0000
0000
1003
0100
2000
0000
0000
0000
3100
0000
0010
0000
0002
0000
,
0000
0000
0000
0000
1003
0001
1000
0000
0000
0000
1000
0000
0100
0000
0010
0000
,
0001
0100
0010
1000
0001
0100
0010
0100
,
1000
0100
0010
0200
0000
0301
0010
0002
,
0000
0000
0013
0000
0100
0000
2000
0000
0000
3001
0100
0001
1000
0100
0010
0001
,
1000
0010
2000
0000
0001
0000
0000
0000
3100
0000
0010
0001
1000
0001
0200
0000
,
0000
0000
0310
0000
0100
0000
0020
0000
0000
0000
1030
0001
1000
0100
0010
0001
,
1000
0100
0010
0001
0100
0001
1000
0020
,
0000
0130
0001
0010
0000
1100
0000
0110
,
0000
0000
1000
0000
0001
0010
0100
0010
0001
0000
0100
0000
0010
0000
2000
0000
,
0000
0000
3001
0000
0100
0000
1000
0000
0100
0000
0001
0000
1000
0000
0010
1000
,
0100
0000
0010
0000
0000
0000
0001
2000
0000
0000
3010
0000
0100
0000
0001
0020
,
0000
0000
0130
0010
0100
0000
2000
0000
0000
0000
3010
0000
1000
0000
0100
0000
,
0010
0001
0000
0120
0000
0031
0100
2000
,
0000
3100
0001
0011
0000
0001
0100
0010
,
1000
0100
0000
0020
0000
0031
0010
2000
,
0000
3010
0001
0101
0000
0010
1000
0100
,
0010
0001
0000
0120
0000
0032
0203
0000
,
0300
0000
0000
0000
0000
0000
0000
00M0
0000
0000
0000
0000
0000
0000
0000
0000
0000
0000
0000
0000
0000
0000
0000
0000
0000
0000
0000
0000
0000
0000
0000
0000
;
