#TITLE:Plastic Love;
#SUBTITLE:;
#ARTIST:Mariya Takeuchi;
#TITLETRANSLIT:;
#SUBTITLETRANSLIT:;
#ARTISTTRANSLIT:;
#GENRE:;
#CREDIT:;
#BANNER:;
#BACKGROUND:;
#LYRICSPATH:;
#CDTITLE:cdtitle.png;
#MUSIC:Plastic Love (Club Mix).ogg;
#OFFSET:-1.172000;
#SAMPLESTART:46.575005;
#SAMPLELENGTH:12.000000;
#SELECTABLE:YES;
#BPMS:0.000000=52.000000
,7.500000=52.209999
,9.000000=102.000000
,12.000000=102.629997
,14.000000=103.500000
,18.000000=103.550003
,26.000000=102.500000
,30.000000=103.400002
,34.000000=102.900002
,38.000000=102.699997
,42.000000=102.400002
,46.000000=103.000000
,50.000000=102.500000
,58.000000=102.870003
,66.000000=102.669998
,70.000000=100.400002
,74.000000=102.400002
,78.000000=102.739998
,82.000000=103.400002
,90.000000=103.900002
,98.000000=102.900002
,106.000000=102.599998
,110.000000=103.800003
,114.000000=103.050003
,118.000000=102.470001
,122.000000=100.050003
,124.000000=99.449997
,126.000000=101.500000
,130.000000=102.849998
,133.000000=101.000000
,134.000000=103.000000
,138.000000=103.900002
,142.000000=103.449997
,146.000000=102.900002
,150.000000=103.830002
,154.000000=103.000000
,158.000000=103.550003
,166.000000=35.133335
,167.000000=101.800003
,168.000000=102.699997
,172.000000=103.389999
,180.000000=103.500000
,184.000000=103.080002
,188.000000=103.599998
,192.000000=103.199997
,196.000000=51.599998
;
#STOPS:
;
#BGCHANGES:;
#KEYSOUNDS:;
#ATTACKS:;

//---------------dance-single - Hi.----------------
#NOTES:
     dance-single:
     ITG 01 X 01:
     Beginner:
     1:
     0.075616,0.132134,0.054488,0.000000,0.000000,68.000000,61.000000,7.000000,0.000000,0.000000,0.000000,0.075616,0.132134,0.054488,0.000000,0.000000,68.000000,61.000000,7.000000,0.000000,0.000000,0.000000:
// measure 0
0000
0000
0000
0000
,  // measure 1
0000
0000
0000
0000
,  // measure 2
0000
0000
1000
0000
,  // measure 3
0000
0000
0000
0000
,  // measure 4
0000
0000
0001
0000
,  // measure 5
0000
0000
0000
0000
,  // measure 6
0000
0000
1000
0000
,  // measure 7
0000
0000
0000
0000
,  // measure 8
0000
0000
0001
0000
,  // measure 9
0000
0000
0000
0000
,  // measure 10
0000
0000
0010
0000
,  // measure 11
0000
0000
0010
0000
,  // measure 12
0000
0000
0010
0000
,  // measure 13
0000
0000
1001
0000
,  // measure 14
0100
0000
0010
0000
,  // measure 15
0000
0000
0010
0000
,  // measure 16
0000
0000
0010
0000
,  // measure 17
0000
0000
1001
0000
,  // measure 18
0110
0000
1001
0000
,  // measure 19
0000
0000
1000
0000
,  // measure 20
0000
0000
0001
0000
,  // measure 21
0000
0000
0001
0000
,  // measure 22
0000
0000
0010
0000
,  // measure 23
1000
0000
0100
0000
,  // measure 24
0000
0000
0001
0000
,  // measure 25
0100
0000
1000
0000
,  // measure 26
0010
0000
1001
0000
,  // measure 27
0000
0000
0001
0000
,  // measure 28
0000
0000
1000
0000
,  // measure 29
0000
0000
1000
0000
,  // measure 30
0000
0000
0010
0000
,  // measure 31
0010
0000
0010
0000
,  // measure 32
0000
0000
1001
0000
,  // measure 33
0000
0000
1000
0000
,  // measure 34
1000
0000
0100
0000
,  // measure 35
0001
0000
0010
0000
,  // measure 36
0010
0000
1000
0000
,  // measure 37
0010
0000
0001
0000
,  // measure 38
0001
0000
0100
0000
,  // measure 39
1000
0000
0100
0000
,  // measure 40
0100
0000
0010
0000
,  // measure 41
0000
1001
0000
0000
,  // measure 42
1000
0000
0010
0000
,  // measure 43
0010
0000
0000
0000
,  // measure 44
0001
0000
0100
0000
,  // measure 45
1000
0000
0001
0000
,  // measure 46
1000
0000
0100
0000
,  // measure 47
0100
0000
0000
0000
,  // measure 48
0001
0000
0010
0000
;

//---------------dance-single - This snap that plastic~----------------
#NOTES:
     dance-single:
     ITG 06 X 09:
     Medium:
     6:
     0.284673,0.306497,0.272441,0.365850,0.062272,256.000000,221.000000,35.000000,47.000000,19.000000,0.000000,0.284673,0.306497,0.272441,0.365850,0.062272,256.000000,221.000000,35.000000,47.000000,19.000000,0.000000:
// measure 0
0000
0000
0000
0000
,  // measure 1
0000
0000
0000
00M0
0M00
000M
M000
0M00
,  // measure 2
0000
1001
0002
0100
,  // measure 3
1000
0103
2000
3010
,  // measure 4
0002
0013
2000
0100
,  // measure 5
0001
3100
0001
1001
,  // measure 6
0101
1010
2000
0010
,  // measure 7
0001
3010
0002
0103
,  // measure 8
2000
3100
0002
0010
,  // measure 9
1000
0013
1000
0100
,  // measure 10
0001
0000
0110
0000
1001
0000
0001
0100
,  // measure 11
0010
0100
2000
3200
,  // measure 12
0002
0303
1001
1000
,  // measure 13
0100
0000
0001
0200
0000
1300
0001
0000
,  // measure 14
0100
0000
0010
0000
0110
0000
0100
0001
,  // measure 15
1000
0000
0100
0000
0110
0000
0010
0100
,  // measure 16
1000
0001
0100
2000
,  // measure 17
0000
0000
3100
0001
1001
0000
1100
0000
,  // measure 18
0011
0000
0000
0000
0001
0100
0000
0000
0201
0000
0000
0000
1000
0000
0000
0000
,  // measure 19
0001
0000
0000
0000
0310
0000
1000
0000
0100
0000
0000
0010
0000
0000
0001
0000
,  // measure 20
1000
1100
0200
0001
,  // measure 21
1000
0000
0000
0000
0310
0000
0001
0000
1000
0000
0000
0010
0000
0000
0100
0000
,  // measure 22
0001
1010
0020
0032
,  // measure 23
0203
0000
0000
0000
2300
0000
0000
0000
3010
0000
0000
0100
0000
0000
0001
0000
,  // measure 24
1000
0000
0100
0000
0010
0001
1000
0001
,  // measure 25
0100
0000
1010
0000
1000
0100
0010
0100
,  // measure 26
1000
0000
1001
0001
0020
0000
1000
0000
,  // measure 27
0001
0000
0000
0000
0130
0000
1000
0000
0100
0000
0000
0010
0000
0000
0001
0000
,  // measure 28
1000
1010
0020
0001
,  // measure 29
1000
0000
0000
0000
0130
0000
0001
0000
1000
0000
0000
0001
0000
0000
1000
0000
,  // measure 30
0100
0011
0002
0023
,  // measure 31
2030
3200
0302
2000
,  // measure 32
0000
3003
1001
M11M
,  // measure 33
0MM0
0000
0000
0000
0001
0000
0000
0000
1000
0000
0000
1000
0001
0000
0100
0000
,  // measure 34
0001
0000
1001
1000
0020
0000
0032
0000
,  // measure 35
2003
0000
3100
0002
1000
0000
0010
0000
,  // measure 36
1000
0000
0013
0100
1000
0000
1010
0000
,  // measure 37
0011
0000
0000
0000
0001
0000
1000
0000
0001
0000
0000
0001
1000
0000
0100
0000
,  // measure 38
0010
0000
1001
0001
0020
0000
2030
0000
,  // measure 39
3002
0000
0103
2000
0010
0000
0100
0000
,  // measure 40
0010
0000
3001
1000
0100
0000
0011
0000
,  // measure 41
1010
0000
0000
0000
0000
0000
0000
0000
0000
0000
0000
0000
0000
0000
0000
0000
0000
0000
0000
0000
0000
0000
0000
0000
0000
0000
0000
0000
0000
0000
0000
0000
0000
0000
0000
0000
0000
0000
0000
0000
0000
0000
0000
0000
0000
0000
0000
0000
1100
0000
0000
0000
0000
0000
0000
0000
0000
0000
0000
0000
0000
0000
0000
0000
0000
0000
0000
0000
0000
0000
0000
0000
0000
0000
0000
0000
0000
0000
0000
0000
0000
0000
0000
0000
0000
0000
0000
0000
0000
0000
0000
0000
0000
0000
0000
0000
00M0
0000
0000
0000
0000
M000
0000
0000
0000
0000
0000
0000
0000
0000
0000
0000
000M
0000
0000
0000
0000
0000
0000
M000
0000
0000
0000
0000
0M00
0000
0000
0000
0000
0000
0000
0000
0000
0000
0000
0000
0000
0000
0000
0000
0000
0000
0000
0000
1000
0000
0000
0000
0000
0000
0000
0000
0000
0000
0000
0000
0000
0000
0000
0000
0000
0000
0000
0000
0000
0000
0000
0000
0000
0000
0000
0000
0000
0000
0000
0000
0000
0000
0000
0000
0000
0000
0000
0000
0000
0000
0000
0000
0000
0000
0000
0000
,  // measure 42
0020
0000
0032
0000
2003
0000
3100
0002
,  // measure 43
0010
0000
2003
0000
0010
0000
3001
1000
,  // measure 44
0100
0011
0101
1010
,  // measure 45
1000
0000
0000
1000
0001
0000
0010
0000
0100
0000
0000
0000
1001
0000
0001
0000
,  // measure 46
0020
0000
2030
0000
3002
0000
0103
2000
,  // measure 47
0010
0000
3002
0000
0010
0000
1003
0100
,  // measure 48
0010
0000
0011
0000
0101
0000
1010
0020
,  // measure 49
M200
0000
0000
000M
0000
0000
0000
0000
M000
0000
0000
000M
0000
0000
M330
0000
0000
0000
0000
0000
0000
0000
0000
0000
0000
0000
0000
0000
0000
0000
0000
0000
0000
0000
0000
0000
0000
0000
0000
0000
0000
0000
0000
0000
0000
0000
0000
0000
0000
0000
0000
0000
0000
0000
0000
0000
0000
0000
0000
0000
0000
0000
0000
0000
;

//---------------dance-single - Freezes are fun.----------------
#NOTES:
     dance-single:
     ITG 03 X 05:
     Easy:
     3:
     0.162353,0.208710,0.116761,0.303578,0.000000,146.000000,131.000000,15.000000,39.000000,4.000000,0.000000,0.162353,0.208710,0.116761,0.303578,0.000000,146.000000,131.000000,15.000000,39.000000,4.000000,0.000000:
// measure 0
0000
0000
0000
0000
,  // measure 1
0000
0000
0000
0000
,  // measure 2
0000
0100
1002
0000
,  // measure 3
0000
0003
0001
0100
,  // measure 4
0020
0030
2000
0000
,  // measure 5
0000
3000
1000
0010
,  // measure 6
0010
0001
2000
0000
,  // measure 7
0000
3000
1000
0100
,  // measure 8
0020
0030
0002
0000
,  // measure 9
0000
0003
0001
0100
,  // measure 10
0100
0010
1001
1000
,  // measure 11
0100
0000
0002
0003
,  // measure 12
0200
0300
2000
3000
,  // measure 13
0001
0100
0220
0330
,  // measure 14
1000
0100
1001
0001
,  // measure 15
0100
0000
1000
0100
,  // measure 16
0001
0010
0100
2002
,  // measure 17
0000
3003
0001
0100
,  // measure 18
1000
0010
0002
0010
,  // measure 19
0000
0013
0100
1000
,  // measure 20
0100
0000
2000
0010
,  // measure 21
0000
3010
0100
0001
,  // measure 22
0100
0000
0010
1001
,  // measure 23
0100
1001
0001
0010
,  // measure 24
0100
1000
0001
0100
,  // measure 25
1000
0000
1000
0010
,  // measure 26
0001
0000
0010
1002
,  // measure 27
0000
0013
0100
1000
,  // measure 28
0100
0000
2000
0001
,  // measure 29
0000
3010
0100
0001
,  // measure 30
0100
0000
2020
3030
,  // measure 31
2200
3000
0300
0000
0022
0000
0000
0000
,  // measure 32
0033
0000
2002
0003
,  // measure 33
3000
M00M
0001
1000
,  // measure 34
0100
0000
0020
0001
,  // measure 35
0032
1000
2000
0000
,  // measure 36
3003
0200
0020
0000
,  // measure 37
0330
1001
1000
0001
,  // measure 38
0100
0000
0020
1000
,  // measure 39
2030
0001
0002
0000
,  // measure 40
3003
0200
0020
0300
,  // measure 41
0030
1001
0000
M00M
,  // measure 42
0001
0100
1000
0010
,  // measure 43
0002
0100
0000
0013
,  // measure 44
2000
0100
0000
3010
,  // measure 45
0100
0001
1000
0000
,  // measure 46
1000
0100
0001
0010
,  // measure 47
2000
0100
0000
3010
,  // measure 48
0002
0100
1003
0110
;
