#VERSION:0.81;
#TITLE:Pistols & Hearts;
#SUBTITLE:(The Bloody Beetroots Remix);
#ARTIST:Captain Phoenix;
#TITLETRANSLIT:;
#SUBTITLETRANSLIT:;
#ARTISTTRANSLIT:;
#GENRE:;
#ORIGIN:;
#CREDIT:;
#BANNER:;
#BACKGROUND:;
#PREVIEWVID:;
#JACKET:;
#CDIMAGE:;
#DISCIMAGE:;
#LYRICSPATH:;
#CDTITLE:;
#MUSIC:pistolsandhearts.ogg;
#OFFSET:-0.189000;
#SAMPLESTART:74.538811;
#SAMPLELENGTH:18.580643;
#SELECTABLE:YES;
#DISPLAYBPM:77.000000:155.000000;
#BPMS:0.000=155.000,
128.000=77.500,
152.000=155.000,
234.000=77.500,
235.000=38.750,
235.500=19.375,
235.750=155.000;
#STOPS:;
#DELAYS:;
#WARPS:;
#TIMESIGNATURES:0.000=4=4;
#TICKCOUNTS:0.000=4;
#COMBOS:0.000=1;
#SPEEDS:0.000=1.000=0.000=0;
#SCROLLS:0.000=1.000;
#FAKES:;
#LABELS:0.000=Song Start;
#BGCHANGES:;
#KEYSOUNDS:;
#ATTACKS:
;

//---------------dance-single - Blank----------------
#NOTEDATA:;
#CHARTNAME:Blank;
#STEPSTYPE:dance-single;
#DESCRIPTION:Blank;
#CHARTSTYLE:;
#DIFFICULTY:Beginner;
#METER:3;
#RADARVALUES:0.209990,0.220016,0.000000,0.000000,0.000000,155.000000,0.000000,0.000000,0.000000,0.000000,0.000000,0.000000,0.000000,0.209990,0.220016,0.000000,0.000000,0.000000,155.000000,0.000000,0.000000,0.000000,0.000000,0.000000,0.000000,0.000000;
#CREDIT:Blank;
#DISPLAYBPM:77.000000:155.000000;
#NOTES:
0000
0000
0000
0000
,
0000
0000
0000
0000
,
0000
0000
0000
0000
,
0000
0000
0000
0000
,
0000
0000
0000
0000
,
0000
0000
0000
0000
,
0000
0000
0000
0000
,
0000
0000
0000
0000
,
1000
1000
1000
0000
,
0001
0001
0001
0000
,
1000
0000
0001
0000
,
0100
0100
0100
0000
,
0010
0010
0010
0000
,
0100
0100
0100
0000
,
0001
0000
1000
0000
,
0100
0100
0100
0000
,
0010
0010
0000
0001
,
0000
0100
0100
0100
,
0000
0010
0000
1000
,
0000
0100
0100
0100
,
0000
0010
0000
0001
,
0000
1000
1000
1000
,
0000
0001
0001
0001
,
1000
1000
1000
0000
,
0010
0010
0010
0000
,
1000
1000
0001
0001
,
1000
1000
1000
0000
,
0010
0010
0100
0100
,
0010
0010
0010
0000
,
1000
1000
1000
0001
,
0001
0001
0001
0000
,
0010
0010
0010
0100
,
0100
0000
0000
0000
,
0100
0000
0000
0000
,
0010
0000
0000
0000
,
0001
0000
0000
0000
,
1000
1000
0001
0001
,
0100
0100
0010
0010
,
1000
0000
1000
0000
,
0100
0000
0100
0000
,
0010
0000
0010
0000
,
0001
0001
0001
0000
,
1000
1000
1000
1000
,
0001
0001
1000
1000
,
0001
0001
0001
0001
,
1000
1000
1000
0000
,
0100
0100
0100
0100
,
0010
0010
0100
0100
,
0010
0010
0010
0010
,
0100
0100
0010
0000
,
0001
0001
1000
1000
,
0001
0001
1000
1000
,
0001
1000
0001
1000
,
0001
1000
0001
0000
,
0100
0100
0010
0010
,
0100
0100
0010
0010
,
0100
0010
0100
0010
,
0100
0010
0100
0100
,
0100
0000
0000
0000
;

//---------------dance-single - Blank----------------
#NOTEDATA:;
#CHARTNAME:Blank;
#STEPSTYPE:dance-single;
#DESCRIPTION:Blank;
#CHARTSTYLE:;
#DIFFICULTY:Easy;
#METER:4;
#RADARVALUES:0.323792,0.335358,0.398304,0.208636,0.000000,175.000000,42.000000,22.000000,0.000000,0.000000,0.000000,0.000000,0.000000,0.323792,0.335358,0.398304,0.208636,0.000000,175.000000,42.000000,22.000000,0.000000,0.000000,0.000000,0.000000,0.000000;
#CREDIT:Blank;
#DISPLAYBPM:77.000000:155.000000;
#NOTES:
0000
0000
0000
0000
,
0000
0000
0000
0000
,
0000
0000
0000
0000
,
0000
0000
0000
0000
,
0000
0000
0000
0000
,
0000
0000
0000
0000
,
0000
0000
0000
0000
,
0000
0000
0000
0000
,
1000
1000
0100
0100
,
1000
0100
1000
0100
,
0010
0010
0001
0001
,
0010
0001
0010
0001
,
0100
0100
0001
0001
,
0100
0001
0100
0001
,
1000
1000
0010
0010
,
1000
0010
1000
0010
,
0200
0300
0020
0030
,
0200
0300
0002
0003
,
2000
3000
0002
0003
,
0020
0030
0100
0100
,
0200
0300
2000
3000
,
0002
0003
0200
0300
,
0020
0030
2000
3000
,
0001
0001
0001
1000
,
0100
0100
0010
0100
,
0100
0110
0110
0000
,
1000
0001
0001
1000
,
1000
1001
1001
0000
,
0010
0100
0100
0010
,
0100
0110
0110
0110
,
0001
1000
1000
0001
,
0001
1001
1001
1001
,
0200
0000
0320
0000
,
0032
0000
0023
0000
,
0230
0000
2300
0000
,
3002
0000
0003
0000
,
0001
0010
0100
1000
,
0001
0100
0010
1000
,
0100
0000
0100
0000
,
0010
0000
0001
0000
,
1000
0100
0010
0001
,
1000
0100
0020
0030
,
0001
0001
1000
1000
,
1001
1001
0110
1001
,
0010
0010
0100
0100
,
0110
0110
1001
0110
,
1000
0001
1001
1001
,
0001
1000
1001
0110
,
0100
0010
0110
0110
,
0010
0100
0110
1001
,
1000
0100
1000
0100
,
1100
1100
1100
0011
,
0010
0001
0010
0001
,
0011
0011
0011
0101
,
0001
0100
0001
0100
,
0101
0101
0101
1010
,
0010
1000
0010
1000
,
1010
1010
1010
0011
,
0001
0000
0000
0000
0000
0000
0000
0000
0001
0000
0000
0000
0001
0000
0002
0003
;

//---------------dance-single - Blank----------------
#NOTEDATA:;
#CHARTNAME:Blank;
#STEPSTYPE:dance-single;
#DESCRIPTION:Blank;
#CHARTSTYLE:;
#DIFFICULTY:Medium;
#METER:7;
#RADARVALUES:0.438948,0.447144,0.426755,0.142252,0.023709,264.000000,45.000000,15.000000,0.000000,0.000000,0.000000,0.000000,0.000000,0.438948,0.447144,0.426755,0.142252,0.023709,264.000000,45.000000,15.000000,0.000000,0.000000,0.000000,0.000000,0.000000;
#CREDIT:Blank;
#DISPLAYBPM:77.000000:155.000000;
#NOTES:
0000
0000
0000
0000
,
0000
0000
0000
0000
,
0000
0000
0000
0000
,
0000
0000
0000
0000
,
0000
0000
0000
0000
,
0000
0000
0000
0000
,
0000
0000
0000
0000
,
0000
0000
0000
0000
,
1000
0100
1100
0011
,
0001
0100
0101
1010
,
1000
0100
0011
1010
,
1000
0100
1100
0101
,
2000
0100
3100
0011
,
0002
0100
0103
1010
,
2000
0100
3001
1001
,
0002
0100
1003
1001
,
0200
0010
0010
0010
,
0010
0010
0010
0010
,
1000
1000
1000
1000
,
0001
0001
1000
0301
,
2000
0001
0001
0001
,
0010
0010
0010
0010
,
0001
0001
0100
0001
,
0010
0001
0100
3100
,
0011
0000
1010
0000
1000
0100
1000
0000
,
1100
0000
0101
0000
0001
0010
0001
0000
,
1010
0000
1100
0000
0001
0100
0001
0000
,
0011
0000
1010
0000
1000
0100
1000
0000
,
0101
0000
1100
0000
1000
0010
1000
0000
,
0011
0000
0101
0000
1000
0100
1000
0000
,
1010
0000
0011
0000
0001
0100
0001
0000
,
1100
0000
1010
0000
0001
0010
0001
0010
,
0200
0000
0002
0300
,
0020
0003
2000
0030
,
0200
3000
0020
0300
,
0002
0000
0030
0000
2000
0000
3003
1001
,
0010
0000
0000
1000
0010
0000
0000
1000
0010
0000
0000
0000
0100
0000
0100
0000
,
0001
0000
0000
0010
0001
0000
0000
0010
0001
0000
0000
0000
0100
0000
1001
0000
,
1000
0000
1000
0001
1000
0000
0001
1000
,
0001
0000
1000
0000
0100
0010
0001
0000
,
1000
0000
1000
0001
1000
0000
0001
1000
,
0001
1000
0020
0030
,
0101
0000
0101
0000
0010
1000
0010
0000
,
0101
0000
0101
0000
0010
1000
0100
0000
,
0011
0000
0011
0000
1000
0100
1000
0100
,
0010
0001
0010
0100
1000
0100
0010
0000
,
0101
0000
1010
0000
0001
0010
0001
0010
,
0100
0000
1010
0000
1000
0010
1000
0001
,
0100
0000
0011
0000
0001
0010
0100
1000
,
0001
0010
0100
1000
0010
0100
0010
0000
,
1000
0010
1000
0010
0100
0010
0100
0010
,
0001
0010
0001
0010
0001
0010
0100
0010
,
1000
0100
1000
0100
0010
0100
0010
0100
,
0001
0100
0001
0100
0010
0100
1000
0100
,
1000
0010
1000
0010
0001
0010
0001
0010
,
1000
0010
1000
0010
0001
0010
1000
0010
,
0100
0001
0100
0001
0010
0001
0010
0001
,
1000
0100
0010
0001
1000
0010
0100
0000
,
0101
0000
0000
0000
0000
0000
0000
0000
1100
0000
0000
0000
0011
0000
1010
1001
;

//---------------dance-single - Blank----------------
#NOTEDATA:;
#CHARTNAME:Blank;
#STEPSTYPE:dance-single;
#DESCRIPTION:Blank;
#CHARTSTYLE:;
#DIFFICULTY:Hard;
#METER:9;
#RADARVALUES:0.619133,0.754556,0.521589,0.227602,0.199152,378.000000,55.000000,24.000000,4.000000,1.000000,0.000000,0.000000,0.000000,0.619133,0.754556,0.521589,0.227602,0.199152,378.000000,55.000000,24.000000,4.000000,1.000000,0.000000,0.000000,0.000000;
#CREDIT:Blank;
#DISPLAYBPM:77.000000:155.000000;
#NOTES:
// measure 0
0000
0000
0000
0000
,  // measure 1
0000
0000
0000
0000
,  // measure 2
0000
0000
0000
0000
,  // measure 3
0000
0000
0000
0000
,  // measure 4
0000
0000
0000
0000
,  // measure 5
0000
0000
0000
0000
,  // measure 6
0000
0000
0000
0000
,  // measure 7
0000
0000
0000
0000
,  // measure 8
0011
0000
1100
0000
1000
0001
0100
0000
,  // measure 9
0011
0000
1010
0000
1000
0001
0010
0100
,  // measure 10
1100
0000
0101
0000
0001
0100
1000
0100
,  // measure 11
0001
0010
1000
0010
0001
0100
0010
1000
,  // measure 12
1010
0000
0011
0000
1000
0100
0010
0000
,  // measure 13
0101
0000
1010
0000
0001
0100
0010
1000
,  // measure 14
1100
0000
0011
0000
1000
0100
0001
0100
,  // measure 15
1000
0010
0100
0001
0010
0100
0010
0001
,  // measure 16
2001
0000
0010
0010
3020
0000
0100
0100
,  // measure 17
0230
0000
0001
0000
0302
1000
2003
0000
,  // measure 18
3200
0000
0010
0000
0010
0000
1300
1000
,  // measure 19
0020
0000
0001
0032
1003
0001
0010
1000
,  // measure 20
0200
0000
0001
0000
1000
0000
0001
0001
,  // measure 21
0001
1300
0101
1010
,  // measure 22
0020
0000
0001
0001
0001
0000
1000
0000
,  // measure 23
0100
0100
0130
0001
0010
0010
0100
0000
,  // measure 24
1001
0000
0011
0010
0100
0000
1010
0010
,  // measure 25
0001
0000
1010
0010
1000
0100
0010
0010
,  // measure 26
0100
0000
0101
0100
1000
0100
0101
0100
,  // measure 27
1000
0100
0001
0100
1000
0001
0101
0100
,  // measure 28
0110
0000
1010
0010
0100
0000
0011
0010
,  // measure 29
0100
0000
1010
0010
0001
0010
1000
0100
,  // measure 30
0001
0000
0101
0100
1000
0100
0101
0100
,  // measure 31
1000
0100
0010
0001
0200
0310
0020
0130
,  // measure 32
0002
0000
0000
0000
0000
0000
0000
0000
0000
0000
0000
0000
0000
0000
0000
0000
0000
0000
0000
0000
0000
0000
0000
0000
2000
0000
0000
0000
0000
0000
0000
0000
0000
0000
0000
0000
0003
0000
0000
0000
0000
0000
0000
0000
3000
0000
0100
0010
,  // measure 33
0200
0000
0000
0000
0000
0000
0000
0000
0000
0000
0000
0000
0000
0000
0000
0000
0000
0000
0000
0000
0000
0000
0000
0000
0002
0000
0000
0000
0000
0000
0000
0000
0000
0000
0000
0000
0300
0000
0000
0000
0000
0000
0000
0000
0003
0000
0000
0001
,  // measure 34
0020
0000
0000
0000
0000
0000
0000
0000
0000
0000
0000
0000
0000
0000
0000
0000
0000
0000
0000
0000
0000
0000
0000
0000
2000
0000
0000
0000
0000
0000
0000
0000
0000
0000
0000
0000
0030
0000
0000
0000
0000
0000
3000
0000
0000
0000
0100
0010
,  // measure 35
0200
0000
0000
0000
0000
0000
0000
0000
0000
0000
0000
0000
0000
0000
0000
0000
0000
0000
0000
0000
0000
0000
0000
0000
0000
0000
0000
0000
0000
0000
0000
0000
0000
0000
0000
0000
0000
0000
0000
0000
0000
0000
0000
0000
0000
0000
0000
0000
0000
0000
0000
0000
0000
0000
0000
0000
0000
0000
0000
0000
0000
0000
0000
0000
0000
0000
0000
0000
0000
0000
0000
0000
0300
0000
0000
0000
0000
0000
0000
0000
0000
0000
0000
0000
0000
0000
0000
0000
0000
0000
0000
0000
1000
0000
0000
0000
0002
0000
0000
0000
0000
0000
0000
0000
0000
0000
0000
0000
0000
0000
0000
0000
0000
0000
0000
0000
0000
0000
0000
0000
0000
0000
0000
0000
0000
0000
0000
0000
0000
0000
0000
0000
0000
0000
0000
0000
0000
0000
0000
0000
0000
0000
0000
0000
1003
0000
0000
0000
0000
0000
0001
0000
0000
0000
0000
0000
1000
0000
0000
0000
0000
0000
0001
0000
0000
0000
0000
0000
0100
0000
0000
0000
0000
0000
0000
0000
0000
0000
0000
0000
0000
0000
0000
0000
0000
0000
0000
0000
0000
0000
0000
0000
,  // measure 36
0010
0000
0000
0000
0010
0000
0100
0000
0010
0000
0000
0000
0010
0000
0100
0000
0010
0000
0000
0000
0010
0000
1000
0001
1000
0000
0000
0000
1100
0000
0000
0000
,  // measure 37
0010
0000
0000
0000
0010
0000
0100
0000
0010
0000
0000
0000
0010
0000
0100
0000
0010
0000
0000
0000
0010
0000
0001
1000
0001
0000
0000
0000
0101
0000
0000
0000
,  // measure 38
1000
0100
1000
0100
1000
0100
0010
0100
,  // measure 39
1000
0000
0100
0000
0010
0000
0001
0100
0001
0000
0000
0000
1010
0000
0000
0000
,  // measure 40
0001
0100
0001
0100
0010
0100
0001
0100
,  // measure 41
0010
0000
1000
0000
0100
0000
0010
0001
MMMM
0000
0000
0000
0100
0000
0000
0000
,  // measure 42
1000
0001
1001
0001
1000
0001
0101
0001
,  // measure 43
1000
0100
1100
0100
0110
0010
0011
0001
,  // measure 44
1000
0001
0101
0100
0010
1000
1100
0100
,  // measure 45
1100
1000
1001
0001
0101
0010
1010
0000
,  // measure 46
0100
0001
0101
0100
0010
0100
0110
0010
,  // measure 47
1000
0100
0110
0001
0010
1000
0010
0001
,  // measure 48
0100
0010
1010
1000
0100
0010
0011
0001
,  // measure 49
0101
0100
0110
0010
1010
1000
0001
1000
,  // measure 50
0100
1000
0100
0000
0001
0000
0100
0000
1000
0000
0100
0000
0010
0000
0001
0000
,  // measure 51
1000
0010
1000
0000
0010
0000
0001
0000
0010
0000
0100
0000
1000
0000
0100
0000
,  // measure 52
0001
0010
0001
0000
0101
0000
0100
0000
1000
0000
0100
0000
0001
0000
0010
0000
,  // measure 53
0100
1000
0100
0000
0101
0000
0100
0000
1000
0000
0010
0000
0100
0000
0001
0000
,  // measure 54
0010
0100
0010
0100
0010
0000
0001
0100
0010
0000
1000
0000
1100
0000
1000
0000
,  // measure 55
0010
0100
0010
0100
0010
0000
1000
0100
0010
0000
0001
0000
0101
0000
0010
0000
,  // measure 56
1000
0010
1000
0010
1000
0000
0001
0100
0001
0100
0001
0000
1000
0100
0010
0001
,  // measure 57
1000
0100
1000
0000
0001
0100
0001
0000
1000
0100
0010
0001
0100
0010
1000
0000
,  // measure 58
0002
0000
0000
0000
1000
0000
0000
0000
0023
0000
1000
0000
0230
0001
2000
3311
;
