#TITLE:Kali 47;
#SUBTITLE:;
#ARTIST:Savant;
#TITLETRANSLIT:;
#SUBTITLETRANSLIT:;
#ARTISTTRANSLIT:;
#GENRE:Drumstep;
#CREDIT:;
#BANNER:bn.png;
#BACKGROUND:bg.png;
#LYRICSPATH:;
#CDTITLE:;
#MUSIC:[Round B] - Kali 47.ogg;
#OFFSET:0.000;
#SAMPLESTART:53.333;
#SAMPLELENGTH:12.000;
#SELECTABLE:YES;
#BPMS:0.000=162.000;
#STOPS:;
#BGCHANGES:;
#KEYSOUNDS:;

//---------------dance-single - warpdrive----------------
#NOTES:
     dance-single:
     warpdrive:
     Hard:
     10:
     0.760,0.979,0.476,0.437,0.303:
0000
0000
0000
0000
,
0000
0000
0000
0000
,
0000
0000
0000
0000
,
0000
0000
0000
0000
,
1000
0000
0100
0010
0001
1000
0000
0010
,
0000
1000
0001
0100
0010
0001
0010
0100
,
0001
1000
0001
0010
0100
0010
0000
0001
,
0000
1000
0001
0000
0100
0010
0010
1000
,
0001
0000
1000
0001
1000
0100
0000
1000
,
0001
1000
1000
0100
0010
1000
0010
0100
,
1000
0001
0100
2000
0000
3100
0001
1000
,
0001
0000
0010
0000
0100
0000
0000
0000
1000
0000
0000
0001
1000
0000
0010
0000
,
1010
0000
1000
0000
1001
0001
0000
0200
,
0000
0000
000M
0000
00M0
0000
20M0
0000
000M
0000
00M0
3300
01M0
0000
0100
0000
,
0001
1001
1100
1001
,
0011
0010
0001
0011
0010
0110
0100
0000
,
1100
0000
1000
0001
1001
0000
1000
0020
,
0000
0000
0M00
0000
0000
0000
M002
0000
0000
0000
0M00
0033
0M10
0000
0010
0000
,
1000
0001
0011
0010
0110
0000
0100
1000
,
1001
0000
0001
0000
0100
0000
0000
0000
0101
0000
0000
0001
1000
0000
0010
0000
,
1M10
0M00
1M00
0M01
1M01
2M00
3M00
1M10
,
0M00
0000
0000
0M10
0000
0000
1M00
0000
0000
0M01
0010
0001
0M10
0000
0000
0M01
0000
0000
1M00
0000
0000
0M01
0000
0000
,
1M01
1000
0010
0100
0110
0010
1000
1001
,
0000
0000
0000
0001
0010
0001
0010
0000
0000
0100
0000
0000
0020
0000
0000
0031
0000
0000
0001
0000
0000
1000
0000
0000
,
1001
0000
0001
0100
0020
1000
0030
0001
,
0100
0010
0000
1000
0000
0001
0M01
1M00
,
0M01
0M01
0M10
0M01
1M00
1M00
0M10
2M00
,
0M00
3M02
0M00
0M13
0M01
1M00
0M01
0M00
,
1M01
0000
1000
1010
0000
0001
1001
0000
,
1000
1010
0000
0010
0100
1000
0100
0000
,
0101
0000
0001
1001
0000
1000
0004
0003
,
0010
0000
0000
0000
0000
0000
0000
0000
0004
0000
0000
0000
0000
0000
0000
0000
0003
0000
0000
0000
0000
0000
0000
0000
0040
0000
0000
0000
0000
0000
0000
0000
4030
0000
0000
0000
0000
0000
0000
0000
3040
0000
0000
0000
0000
0000
0000
0000
0034
0000
0000
0000
0000
0000
0000
0000
4003
0000
0000
0000
0000
0000
0000
3000
,
1010
0000
0010
0110
0000
1000
1010
0000
,
0010
0110
0000
0100
0010
0001
0010
0000
,
1000
0001
1000
0001
1000
0100
1000
0100
0010
0001
0010
0001
1000
0001
1000
0001
,
1000
0010
1000
0010
0100
0001
0100
0001
1000
0000
0100
0000
0010
0000
0001
1000
,
0010
0000
0000
0000
0100
0010
0100
0001
0020
0030
0100
0000
0010
0000
0000
0000
,
0011
0000
0000
0000
0001
0000
1001
0000
0000
0000
0010
0000
0022
0000
0000
0033
,
0002
0000
0000
0000
1003
0010
0100
0001
0020
0030
0100
0000
1000
0000
0020
0030
,
0200
0000
0000
0300
0101
0000
0200
0000
0000
0300
0000
0000
0220
0000
0000
0330
,
0010
0000
0000
0000
1000
0001
1000
0000
0010
0000
1000
0000
0001
0000
0010
0000
,
0011
0000
0001
1001
0000
1000
0010
0010
,
1000
1000
0001
0001
0100
0001
1001
0000
,
1000
0000
1000
0000
0200
0000
0000
2300
0000
0000
3100
0000
0010
0000
0001
0000
,
1001
1000
0010
0100
0110
0010
1000
0002
,
0000
0000
1003
0000
0100
0010
0200
0000
0000
0000
0000
0000
1300
0000
0001
0000
,
1002
0000
0000
0000
0000
0000
0000
0000
0000
0000
0000
0000
0000
0000
0000
0000
0403
0300
0000
0000
0000
0000
0000
0000
0010
0000
0000
0000
0000
0000
0000
0000
1010
0000
0000
0000
0000
0000
0000
0000
4000
3000
0000
0000
0000
0000
0000
0000
0001
0000
0000
0000
0000
0000
0000
0000
0020
0000
0000
0000
0000
0000
0000
0000
,
0000
0000
0000
0000
0000
0000
0000
0000
0430
0300
0000
0000
0000
0000
0000
0000
1000
0000
0000
0000
0000
0000
0000
0000
0001
0000
0000
0000
0000
0000
0000
0000
1000
0000
0000
0000
0000
0000
0000
0000
0010
0000
0000
0000
0000
0000
0000
0000
1000
0000
0000
0000
0000
0000
0000
0000
0001
0000
0000
0000
0000
0000
0000
0000
,
0020
0000
0031
0000
1000
0010
1000
0002
,
0000
0000
1003
0000
0010
0100
0002
0000
0000
0000
0000
0000
1003
0000
0001
0000
,
0010
0100
0010
0000
0100
1000
0001
2000
,
0000
0000
3010
0000
0100
0000
0010
0000
1000
0000
0001
0010
0100
0000
1000
0000
,
2001
0000
0000
0000
3001
0000
0100
0000
0101
0000
0002
0000
0000
0003
1001
0000
,
0000
1000
0100
0001
0100
0010
0100
1000
,
1001
0001
0100
0001
1001
1000
0100
0110
,
0000
0000
0010
0001
1000
0000
0010
0000
0110
0000
0100
0000
0001
0000
0000
0000
,
1001
0000
1000
0100
1100
1000
0000
1001
,
0001
2000
0000
3010
0000
0100
0010
1000
,
1001
0001
0010
0100
1100
1000
0001
1002
,
0000
0000
0103
0000
0000
0000
0001
0000
1000
0000
0000
0001
0010
0000
0100
0000
,
1000
0000
0000
0001
0000
0000
0001
0000
0100
0010
0000
0010
0100
0000
0001
0000
,
1000
0000
0000
0100
0000
0000
0100
0000
0000
1000
0001
1000
0010
0000
0010
0000
,
0100
0000
0000
0001
0000
0000
0001
0000
0000
0000
1000
0000
0000
0100
0000
0000
,
0010
0000
0000
0000
0000
0000
0000
0000
0000
0001
0000
0000
0000
0000
0000
0000
0000
0000
0001
0000
0000
0000
0000
0000
1000
0000
0010
0000
1000
0000
0010
0000
0000
0000
0000
0000
0100
0000
0000
0000
0000
0000
0010
0000
0000
0100
0000
0000
,
0001
0000
0000
0000
0000
0000
1000
0000
0000
0000
0000
0000
0001
0000
0000
0000
0000
0000
0010
0000
0000
0100
0000
0000
1000
0000
0001
0000
1000
0000
0001
0000
0000
0000
0000
0000
0100
0000
0000
0000
0000
0000
0010
0000
0000
1000
0000
0000
,
0001
0000
0000
0000
0000
0000
1000
0000
0000
0100
0000
0000
1000
0000
0000
0100
0000
0000
0010
0000
0000
0100
0000
0000
0010
0000
0001
0000
0010
0000
0001
0000
0000
1000
0000
0000
0010
0000
0000
1000
0000
0000
0010
0000
0000
1000
0000
0000
,
0001
0000
1000
0000
0001
0000
1000
0000
0000
0010
0000
0000
1000
0000
0000
0001
0000
0000
0100
0000
0000
0010
0000
0000
1000
0000
0001
0000
1000
0000
0004
0000
0000
0000
0000
0000
0000
0000
0000
0000
0000
0000
0000
0000
0000
0000
0000
0000
,
0000
0000
0000
0000
0013
1000
0010
0001
,
1001
1000
1000
1000
1100
0000
0200
0320
,
0031
0001
0001
0001
1001
2000
3020
0230
,
0310
0000
0000
0000
0010
0000
0000
0000
0010
0000
0000
0000
0010
0000
0000
2000
0000
0000
3002
0000
0000
0023
0000
0000
,
0130
0000
0100
0000
2000
0000
0000
3002
0000
0000
0103
0000
1000
0000
0100
0000
,
0010
0000
0010
0000
0010
0000
1000
0001
0010
0000
0000
0000
2200
0000
0000
3300
,
0100
0000
1000
0000
0000
0000
0001
0100
0010
0000
0002
0000
0023
0000
0230
0000
,
0301
0000
0000
0000
0000
0000
0000
0000
0001
0000
0000
0000
0000
0000
0000
0000
0001
0000
1000
0000
0000
0001
0000
0000
1000
0000
0000
0000
0000
0000
0001
0000
0000
0000
0000
0000
1000
0000
0000
0000
0000
0000
0010
0000
0000
0000
0000
0000
,
0100
0000
0010
0000
1000
0000
0001
0000
0010
0000
1000
0000
0010
0000
0100
1000
,
0001
0001
0001
0001
1001
1000
0020
0000
,
0130
0000
0000
0100
0000
0000
0100
0000
000M
0100
0000
0000
00M0
0000
0000
0000
M000
0000
0000
0000
0M00
0001
0000
0000
,
10M0
0000
0000
0000
1000
0000
0000
0000
1000
0000
0000
0000
1000
0000
0000
0002
0000
0000
0203
0000
0000
0300
0000
0000
,
0001
0001
0001
0001
1001
1000
0200
0320
,
0031
1000
0010
0000
0100
0001
1000
0000
0100
0000
0000
0000
0020
0000
0030
0000
,
0100
0100
0100
0100
1000
0001
0200
0300
,
0010
0000
1000
0000
0000
0000
0001
1000
0100
0000
1000
0000
0001
0000
0000
0000
,
0100
0000
0001
0000
1000
0000
0010
0000
0100
0000
1000
0000
0100
0000
0001
0100
,
0020
0000
0000
0000
,
0000
0000
0000
0000
,
0000
0000
0000
0000
,
0000
0000
0000
0000
,
0030
0000
0000
0000
;

//---------------dance-single - warpdrive----------------
#NOTES:
     dance-single:
     warpdrive:
     Medium:
     7:
     0.449,0.675,0.069,0.153,0.038:
0000
0000
0000
0000
,
0000
0000
0000
0000
,
0000
0000
0000
0000
,
0000
0000
0000
0000
,
1000
0000
0100
0010
0001
1000
0000
0010
,
0000
1000
0001
0000
1000
0010
0100
0000
,
0001
0000
1000
0010
0100
0010
0000
1000
,
0000
0001
0010
0000
0100
1000
0001
0000
,
1000
0000
0001
0100
0010
0100
0000
0001
,
0000
1000
0001
1000
0100
0000
0010
0000
,
0200
0000
0000
1300
0000
0000
0001
0000
,
1000
0010
0100
0001
,
1001
0000
0000
0000
1001
0000
0000
2001
,
0000
0000
0100
0000
0100
0000
3100
1000
,
1000
0001
0100
0001
,
1000
0100
0100
0100
,
1100
0000
0000
0000
1100
0000
0000
2100
,
0000
0000
0001
0000
0001
0000
3001
1000
,
1000
0010
0100
0000
,
0010
0000
1000
0001
,
2000
0000
0000
0000
0100
0000
0000
0001
,
0000
0100
0100
0100
,
3100
0000
0000
0000
0010
0000
0000
0001
,
0000
1000
0010
0000
1000
0001
1000
0000
,
0100
0000
0010
0000
0001
0010
0000
0000
,
0100
1000
0000
0001
0000
1000
0020
0000
,
0100
0000
1000
0000
,
0100
0000
1000
1000
,
0130
0000
0001
1000
0000
0001
0100
0000
,
0001
1000
0000
0010
1000
0001
1000
0000
,
0100
0000
1000
0001
0000
1000
0200
0300
,
2000
3200
0300
0020
0032
2003
3002
0203
,
0310
0000
1000
0001
0000
1000
0010
0000
,
1000
0001
0000
0100
0001
1000
0001
0000
,
1000
0100
1000
0000
0001
0010
0001
0000
,
1000
0010
1000
0000
0001
0100
0001
0000
,
1000
0200
0301
0100
,
1000
0000
0001
0100
0000
0001
2000
0000
,
3001
0100
1000
0100
,
0101
0000
0000
1001
0000
0000
0002
0000
,
1003
0100
0001
0100
,
0010
0000
0001
0010
0000
0100
1000
1000
,
0001
0100
0001
0100
0001
0000
1001
0000
,
1000
0000
0100
0000
1000
0000
0000
0002
0000
0000
0000
0000
1003
0000
0000
0000
,
0010
0000
0100
0001
0100
0000
0010
0000
,
1000
0000
0001
0010
0000
0100
1000
0000
,
0001
0000
0100
0000
0010
0000
1000
0001
,
0000
1000
0100
0000
0010
0100
0010
0000
,
0100
0000
1000
0000
0001
0000
1000
0010
,
0000
0100
0001
1000
0000
0000
0001
0000
,
0010
0000
0100
0000
0010
0000
0001
0010
,
0000
0100
1000
0001
1000
0000
0010
0000
,
1000
0000
0001
0010
0001
0010
0000
0100
,
0000
0000
1000
0000
0001
0000
1000
0001
,
0100
0000
0000
0010
0100
0000
0010
1000
,
0000
0001
0010
0000
0100
1000
0100
0000
,
1000
0000
0001
0000
0100
0010
0000
0100
,
0001
1000
0000
0001
0000
0000
0010
0000
,
0100
0000
0010
0000
0001
0000
1000
0010
,
0000
0100
0000
0001
1000
0000
0010
0000
,
1000
0100
1000
0100
1000
0000
0100
0000
,
0010
0001
0010
0001
0010
0000
0001
0000
,
1000
0010
1000
0010
1000
0000
0001
0000
,
1000
0100
1000
0100
1000
0000
0001
0000
,
0100
0001
1000
0100
,
1000
0001
0100
0010
,
0100
0001
0100
0001
1000
0010
1000
0010
,
0200
0000
0301
1000
,
0001
0010
0001
0010
0001
0000
0000
0000
,
1000
0010
1000
0010
1000
0000
0000
0000
,
0001
0000
0010
0000
0100
0000
1000
0000
0000
0000
0000
0000
,
0001
0000
0100
0000
0001
0000
0000
2000
0000
0000
0000
0000
3010
0000
0000
0000
,
1000
0001
1000
0000
0100
0000
0010
0000
,
0001
0010
0000
0100
1000
0001
1000
0000
,
0010
0000
0100
0000
0001
0000
1000
0000
0000
0010
0000
0000
,
1000
0001
1000
0000
0100
0000
0010
0000
,
0001
1000
0001
1000
0001
0000
0000
0000
,
1000
0000
0000
0010
0000
0000
1000
0000
0000
0010
0000
0000
0100
0000
0000
0000
0001
0000
0000
0000
1000
0000
0000
0000
,
0001
0000
0010
0000
0100
0000
1000
0000
0000
0001
0000
0000
,
1000
0010
1000
0010
1000
0000
0000
0000
,
0001
0010
0001
0000
1000
0000
0100
0000
,
1000
0001
1000
0001
0100
0000
0010
0000
,
1000
0000
0001
0000
,
1000
0000
0100
0000
0010
0001
0010
0001
,
2000
0000
0000
0000
,
0000
0000
0000
0000
,
0000
0000
0000
0000
,
0000
0000
0000
0000
,
3000
0000
0000
0000
;

//---------------dance-single - thank you for actually playing this----------------
#NOTES:
     dance-single:
     thank you for actually playing this:
     Easy:
     4:
     0.231,0.270,0.023,0.054,0.000:
0000
0000
0000
0000
,
0000
0000
0000
0000
,
0000
0000
0000
0000
,
0000
0000
0000
0000
,
1000
0000
0100
0000
0000
0100
0000
1000
,
0000
0001
0100
0010
,
0100
0000
0001
0000
0000
0001
0000
1000
,
0000
0100
0010
0100
,
1000
0000
0001
0000
0000
0001
0000
0100
,
0000
0010
1000
0001
,
1001
0000
0000
0000
,
1001
0000
0000
0000
,
1000
0000
0000
0000
0100
0000
0000
0020
,
0000
0000
0000
0030
,
0000
0001
1000
0010
,
0100
0000
0000
0010
0000
1000
0000
0000
,
0001
0000
0000
0000
0010
0000
0000
0200
,
0000
0000
0000
0300
,
0000
1000
0001
0000
,
0100
0000
0010
0000
,
2000
0000
0000
0000
0001
0000
0000
0001
,
0000
0000
0000
0000
,
3001
0000
0000
0000
1000
0000
0000
1000
,
0000
0000
0020
0030
,
0100
0000
0001
0000
,
1000
0000
0100
2000
,
0001
0000
0001
0000
,
0010
0000
0001
0001
,
3001
0000
0000
1000
0000
0000
0001
0000
,
0000
1000
0000
0000
0000
0000
0000
0000
,
0010
0000
0000
0100
0000
0000
0010
0000
,
0000
0100
0000
0000
0000
0000
0000
0000
,
0001
0000
0000
1000
0000
0000
0001
0000
,
0000
1000
0000
0000
0000
0000
0000
0000
,
0100
0010
0001
1000
,
0010
0100
0001
1000
,
0001
0000
0010
0000
,
0100
0000
0000
1000
0000
0000
0001
0000
,
0100
0000
0010
0000
,
1000
0000
0000
1000
0000
0000
0000
0000
,
0001
0000
0010
0000
,
0100
0000
0000
1000
0000
0000
0001
0000
,
0100
0000
0010
0000
,
1000
0000
0000
0001
0000
0000
1000
0000
,
0100
0000
0000
0000
1000
0000
0000
0001
,
0000
0100
0000
0010
,
1000
0000
0000
0000
0001
0000
0000
1000
,
0000
0100
0000
0010
,
0001
0000
0000
0000
1000
0000
0000
0010
,
0000
0100
0000
0001
,
1000
0000
0000
0000
0001
0000
0000
1000
,
0000
0001
0010
0100
,
1000
0000
0000
0000
0001
0000
0000
1000
,
0000
0010
0000
0100
,
0001
0000
0000
0000
1000
0000
0000
0001
,
0000
0010
0000
0100
,
1000
0000
0001
0000
,
0100
0000
0000
0010
0000
0000
1000
0000
,
0001
0000
0000
0000
1000
0000
0000
0001
,
0000
0100
0000
0000
0010
0000
1000
0000
,
0001
0000
0100
0000
,
0010
0000
1000
0000
,
0001
0000
1000
0000
,
0100
0000
0010
0000
,
0001
0000
1000
0000
,
0010
0000
0100
0000
,
0001
0000
1000
0000
,
0001
0000
1000
0001
,
1000
0000
0100
0010
,
0100
0000
1000
0001
,
1000
0000
0001
0100
,
0010
0000
1000
0001
,
1000
0000
0100
0010
,
0001
0000
1000
0010
,
0100
0000
0001
1000
,
0001
0000
0010
0100
,
1000
0000
0001
0100
,
0010
0000
0100
0000
,
0001
0000
1000
0100
,
0010
0000
0100
1000
,
0001
0001
1000
0010
,
0100
0000
0001
0000
,
1000
0000
0001
0010
,
0100
0000
1000
0000
,
2002
0000
0000
0000
,
0000
0000
0000
0000
,
0000
0000
0000
0000
,
0000
0000
0000
0000
,
3003
0000
0000
0000
;
