#TITLE:Here Comes the Money;
#SUBTITLE:;
#ARTIST:Naughty by Nature;
#TITLETRANSLIT:;
#SUBTITLETRANSLIT:;
#ARTISTTRANSLIT:;
#GENRE:Hip-Hop;
#CREDIT:;
#BANNER:Here Comes the Money.png;
#BACKGROUND:Here Comes the Money-bg.png;
#LYRICSPATH:;
#CDTITLE:;
#MUSIC:here comes the money.ogg;
#OFFSET:0.000000;
#SAMPLESTART:52.918999;
#SAMPLELENGTH:13.000000;
#SELECTABLE:YES;
#BPMS:0.000000=90.669998
;
#STOPS:30.000000=0.662000,
37.000000=0.662000,
56.000000=0.662000,
65.000000=1.985000,
72.000000=0.662000,
87.000000=0.662000,
100.000000=1.985000,
107.000000=0.662000,
116.000000=1.985000,
125.000000=1.323000
;
#BGCHANGES:;
#KEYSOUNDS:;
#ATTACKS:;

//---------------dance-single - ----------------
#NOTES:
     dance-single:
     :
     Beginner:
     2:
     0.111722,0.131569,0.000000,0.156411,0.000000,85.000000,85.000000,0.000000,17.000000,0.000000,0.000000,0.111722,0.131569,0.000000,0.156411,0.000000,85.000000,85.000000,0.000000,17.000000,0.000000,0.000000:
0000
0000
0000
0000
,
0000
0000
0000
0000
,
0000
0000
0000
0000
,
0000
0000
0000
0000
,
1000
0000
0001
0001
,
0001
0000
1000
0000
,
0010
0000
0100
0100
,
0100
0000
0010
0100
,
0000
0010
0010
0010
,
0000
0100
0010
0000
,
1000
1000
1000
0000
,
0001
0001
0001
0000
,
1000
0000
0100
0000
,
0001
0000
0010
0000
,
1000
0001
0001
0001
,
0000
1000
0000
0010
,
0010
0010
0100
0000
,
0010
0010
0010
0000
,
1000
0002
2003
3002
,
2003
3002
0003
0000
,
0000
0200
0320
0230
,
0320
0230
0300
0010
,
0010
0010
0000
1000
,
1000
0000
0001
0001
,
0000
0010
0000
0100
,
0100
0010
0000
1000
,
0000
0010
0000
0100
,
1000
0000
0010
0000
,
0001
0000
0100
0000
,
1000
0001
0001
0000
,
1000
1000
1000
0000
,
0010
0010
0000
0200
,
0000
0000
0300
0000
,
0000
0002
0003
2000
,
3002
2003
3002
2003
,
3000
1000
1000
1000
;

//---------------dance-single - ----------------
#NOTES:
     dance-single:
     :
     Easy:
     3:
     0.161669,0.164462,0.046003,0.073605,0.000000,123.000000,118.000000,5.000000,8.000000,1.000000,0.000000,0.161669,0.164462,0.046003,0.073605,0.000000,123.000000,118.000000,5.000000,8.000000,1.000000,0.000000:
0000
0000
0000
0000
,
0000
0000
0000
0000
,
0000
0000
0000
0000
,
0000
0000
0000
0000
,
1000
1000
0001
0010
,
1000
0100
1000
0010
,
0001
0001
1000
0010
,
0100
0100
1001
1000
,
0100
0001
0001
1000
,
0010
0001
1000
0010
,
0001
0001
1000
0100
,
0001
1000
1000
0100
,
0001
0100
1000
0001
,
0100
0100
0010
0100
,
0010
0100
0001
0001
,
0000
1000
0100
0010
,
0000
1001
1000
1000
,
0001
01M0
0000
0100
,
1000
2000
0100
0001
,
0010
0002
3003
1000
,
1000
0002
0010
1000
,
0100
2000
3003
1001
,
1000
0100
0010
0010
,
0100
1000
0001
0001
,
1000
0010
0010
0100
,
0001
1000
0100
0010
,
0010
0100
0010
0001
,
1000
0001
0100
1000
,
0100
0010
0100
0001
,
1000
0001
0010
1000
,
0001
0001
0100
1000
,
1000
0001
0000
2002
,
0000
0000
3003
1000
,
1000
0001
1000
0002
,
0100
1000
0010
2000
,
3003
0001
0100
0110
;

//---------------dance-single - ----------------
#NOTES:
     dance-single:
     :
     Medium:
     4:
     0.223444,0.230246,0.101207,0.046003,0.000000,170.000000,159.000000,11.000000,5.000000,0.000000,0.000000,0.223444,0.230246,0.101207,0.046003,0.000000,170.000000,159.000000,11.000000,5.000000,0.000000,0.000000:
0000
0000
0000
0000
,
0000
0000
0000
0000
,
0000
0000
0000
0000
,
0000
0000
0000
0000
,
0001
0000
0001
0100
0100
0000
1001
0000
,
0001
0100
0001
0000
1000
0000
0001
0000
,
1000
0000
1000
0010
0010
0000
1001
0000
,
1000
0001
0001
0000
1001
0000
0001
0000
,
1000
0000
0100
1000
0100
0000
0010
0000
,
0010
1001
0001
0001
,
1000
0001
1000
0000
0001
0000
0100
0000
,
0010
0100
0010
0000
0100
0000
0100
0000
,
0010
1000
0010
0000
0000
0000
1000
0000
,
0001
1000
0001
0000
1000
1000
0100
1000
,
0100
0000
1000
0000
0100
0000
0010
0001
,
0010
0000
0100
0000
0010
0000
0001
0010
,
0001
1001
0001
0100
,
0010
0100
0010
0000
0000
0000
0100
0000
,
1001
0000
1000
1000
0001
1000
0100
0100
,
0010
0100
0020
0000
0100
0000
0031
0000
,
1000
0000
0001
0001
1000
0001
0100
0100
,
0010
0100
0020
0000
0030
0000
1001
0000
,
0001
1000
0001
0000
0001
0100
0001
0000
,
0001
1000
0001
0000
0001
0010
0001
0000
,
0010
0001
0010
0100
,
1001
0000
1000
0001
1000
0000
0001
0100
,
0001
0000
0001
0000
0100
0001
0100
0000
,
0001
1000
0100
0001
,
0010
1000
0100
0010
,
1001
0000
1000
0010
1000
0000
0001
0100
,
0001
0000
1000
0000
0010
0000
0100
0010
,
0100
1001
0000
2000
,
0001
0001
3010
0100
,
0010
0000
2000
0000
3001
0000
1000
1000
,
0001
1000
0100
0100
0010
0100
0020
0000
,
0000
0031
0100
1001
;

//---------------dance-single - ----------------
#NOTES:
     dance-single:
     :
     Hard:
     6:
     0.269448,0.279585,0.101207,0.018401,0.004600,205.000000,194.000000,11.000000,2.000000,0.000000,0.000000,0.269448,0.279585,0.101207,0.018401,0.004600,205.000000,194.000000,11.000000,2.000000,0.000000,0.000000:
// measure 0
0000
0000
0000
0000
,  // measure 1
0000
0000
0000
0000
,  // measure 2
0000
0000
0000
0000
,  // measure 3
0000
0000
0000
0000
,  // measure 4
0001
0000
1000
0001
0001
0100
0010
0000
,  // measure 5
1000
0010
0001
0000
1000
0100
0001
0000
,  // measure 6
1000
0000
0001
1000
1000
0100
0010
0000
,  // measure 7
0100
0010
0010
0000
1001
0000
0100
0000
,  // measure 8
1001
0000
0001
1000
0010
0000
0001
0010
,  // measure 9
1000
0000
0101
0000
1000
0001
0010
0000
,  // measure 10
1000
0100
0001
0000
0001
1000
0010
0000
,  // measure 11
0001
0100
1000
0000
0100
1000
0001
0000
,  // measure 12
1000
0001
0100
0000
1000
0010
0001
0010
,  // measure 13
1000
0100
0001
0000
1000
0100
0001
0100
,  // measure 14
1000
0000
0001
1000
0010
0001
1000
0001
,  // measure 15
0000
0001
1000
0001
0100
1000
0001
1000
,  // measure 16
0010
0000
0101
0000
0010
0100
1000
0100
,  // measure 17
0010
1000
0100
0000
0001
0000
0100
0000
,  // measure 18
1000
0000
0001
0100
1000
0010
0001
0010
,  // measure 19
1000
0100
0001
0000
1000
0000
0001
0000
,  // measure 20
0001
0000
1000
0010
0001
0100
1000
0100
,  // measure 21
0001
0010
1000
0000
0001
0000
1001
0000
,  // measure 22
1000
0010
0100
0000
1000
0100
1000
0000
,  // measure 23
1000
0100
0010
0000
0001
0010
0001
0000
,  // measure 24
0010
0000
1010
0000
0001
1000
0100
0000
,  // measure 25
0011
0000
0100
1000
0010
0000
0001
0001
,  // measure 26
0010
0000
0001
0000
0010
1000
0001
0000
,  // measure 27
1000
0100
0001
1000
0010
1000
0001
1000
,  // measure 28
0010
0100
1000
0010
0100
1000
0100
0010
,  // measure 29
1000
0000
0010
1000
0100
0001
0100
1000
,  // measure 30
0010
0000
0001
0010
1000
0000
0001
0010
,  // measure 31
0100
0011
0000
1200
,  // measure 32
0010
0001
0010
1000
0320
0000
0001
0100
,  // measure 33
0031
0000
0010
0001
0100
0000
0001
0100
,  // measure 34
1000
0010
0001
0010
1000
0100
0001
0000
,  // measure 35
1000
0000
0000
0000
0001
0100
0000
0000
1001
0000
0000
0000
0110
0000
0000
0000
;

//---------------dance-single - ----------------
#NOTES:
     dance-single:
     :
     Challenge:
     9:
     0.503407,0.542723,0.138010,0.018401,0.763654,383.000000,368.000000,15.000000,2.000000,3.000000,0.000000,0.503407,0.542723,0.138010,0.018401,0.763654,383.000000,368.000000,15.000000,2.000000,3.000000,0.000000:
// measure 0
0000
0000
0000
0000
,  // measure 1
0000
0000
0000
0000
,  // measure 2
0000
0000
0000
0000
,  // measure 3
0000
0000
0000
0000
,  // measure 4
0001
0000
0000
0000
0000
0000
0000
0001
0000
0000
0000
0000
1000
0000
0000
0000
1000
0000
0000
0000
0001
0000
1000
0000
0010
0000
0100
0000
0000
0000
0010
0000
,  // measure 5
0001
0000
1000
0100
0001
0100
0001
0100
0010
0100
0001
0000
0100
0010
0000
0100
,  // measure 6
0001
0000
0000
0000
0000
0000
0000
0001
0000
0000
0000
0000
1000
0000
0000
0000
1000
0000
0000
0000
0001
0000
1000
0000
0100
0000
0010
0000
0000
0000
0100
0000
,  // measure 7
0010
1000
0010
0100
0010
0100
1000
0000
1100
0000
0000
1000
0100
0000
0010
0000
,  // measure 8
1001
0000
0001
0000
0100
0000
0010
0000
0001
0000
1000
0000
0001
0000
0010
0000
1000
0000
0001
0000
0000
0000
1000
0000
0100
0000
0000
0010
0000
0000
0100
0000
,  // measure 9
1000
0000
0100
0000
1001
0000
0000
0001
0100
0000
0010
0100
0001
0010
0001
0100
,  // measure 10
0000
0001
2000
0000
0000
0010
0000
3001
0000
1000
0100
0001
0100
1000
0001
0100
,  // measure 11
0000
0000
1000
0000
0100
0000
0000
0000
0001
0000
0000
0000
1000
0000
0000
0000
0001
0000
0000
1000
0000
0000
0100
0000
0010
0000
0000
0000
0000
0000
0000
0000
,  // measure 12
1000
0000
0010
0000
0100
0000
0000
0000
1000
0000
0000
0000
0000
0000
0000
0000
0001
0000
0000
0000
0100
0000
0000
0000
1000
0000
0000
0000
0100
0000
0000
0001
,  // measure 13
0000
1000
0100
0000
0010
0100
1000
0010
0001
0010
0100
1000
0100
0001
0100
0010
,  // measure 14
0100
0000
0000
0000
0101
0100
0010
0100
0001
1000
0100
0001
0100
0000
1000
0001
,  // measure 15
0000
0000
1000
0000
0010
0000
0100
0000
1000
0000
0100
0000
0010
0000
0100
0000
0001
0000
0100
0000
0010
0000
0000
0001
0000
0000
0010
0000
0100
0000
0001
0000
,  // measure 16
1000
0100
0000
0010
0100
0000
0000
0010
0001
0010
0100
0010
0001
1000
0010
0100
,  // measure 17
1000
0000
0100
0000
0001
0010
0000
0100
0010
0001
1000
0000
0101
0000
0010
0000
,  // measure 18
1001
0001
1000
0100
0010
0100
0010
0100
0001
0100
0001
0100
0010
0100
0010
0100
,  // measure 19
1000
0100
1000
0100
1000
0001
0000
1000
0010
0000
0001
0000
0001
0010
0000
0001
,  // measure 20
0010
0000
1000
0000
0100
0010
0100
0010
1000
0010
1000
0010
0100
0010
0100
0010
,  // measure 21
0001
0010
0001
0010
0001
1000
0000
0001
0100
0000
0010
0000
1001
0001
1000
0010
,  // measure 22
0100
0000
0100
1000
0100
0010
0000
0001
0010
0000
1000
0010
0100
0000
1000
0000
,  // measure 23
0001
0000
0010
0000
1000
0000
0001
0000
0010
1000
0010
0100
1000
0000
0001
0000
,  // measure 24
1000
0010
0100
0000
1000
0100
0000
0010
1000
0000
0001
1000
0100
0001
0000
0100
,  // measure 25
1000
0000
0000
0000
0000
0000
1000
0000
0001
0000
0000
M100
0000
0000
0100
0000
1000
0000
0000
0000
0001
0000
0000
0000
1000
0000
0000
001M
0000
0000
0010
0000
,  // measure 26
0001
0000
001M
0010
1000
0000
0001
0000
1000
0010
0001
0010
1000
0000
0000
0000
,  // measure 27
0010
0000
0001
0010
0100
0000
1000
0100
0010
0001
0010
0100
0001
0010
0100
0000
,  // measure 28
0010
0001
0100
0010
0001
0010
0100
0000
1000
0100
0010
0000
1000
0100
0000
0000
,  // measure 29
0011
0000
0000
0000
0000
0000
0000
0000
0010
0000
0000
1001
0000
0000
0100
0000
0000
1001
0000
1000
0000
0010
0000
0000
0100
0000
0000
1001
0000
0000
0001
0000
,  // measure 30
0100
0000
0000
0000
0001
0100
0010
0000
0001
0000
0010
1000
0000
0001
0100
1000
,  // measure 31
0100
0001
0000
0000
0110
0000
0000
0000
1000
0010
0000
0001
0010
2000
0000
0000
,  // measure 32
3001
0000
1000
0100
0001
0000
1000
0010
0001
1000
0000
0000
0001
0000
1000
0010
,  // measure 33
0001
1000
0100
0001
0000
1000
0000
0001
0010
0100
0000
0000
0010
0100
0010
0100
,  // measure 34
0001
0100
0001
0100
0010
0100
0010
0100
1000
0100
1000
0100
1000
0001
0000
1000
,  // measure 35
0010
0000
0100
0000
0010
0101
0010
1000
0101
0010
1000
0001
1010
0000
0000
0000
;
