#VERSION:0.82;
#TITLE:FREEDOM DiVE↓;
#SUBTITLE:(tpz Overcute Remix);
#ARTIST:xi remixed by t+pazolite;
#TITLETRANSLIT:FREEDOM DiVE;
#SUBTITLETRANSLIT:(tpz Overcute Remix);
#ARTISTTRANSLIT:xi remixed by t+pazolite;
#GENRE:Hardcore;
#ORIGIN:;
#CREDIT:;
#BANNER:FREEDOM DiVE (tpz Overcute Remix).png;
#BACKGROUND:FREEDOM DiVE (tpz Overcute Remix)-bg.png;
#PREVIEWVID:;
#JACKET:FREEDOM DiVE (tpz Overcute Remix)-jacket.png;
#CDIMAGE:;
#DISCIMAGE:;
#LYRICSPATH:;
#CDTITLE:;
#MUSIC:FREEDOM DiVE (tpz Overcute Remix).ogg;
#OFFSET:-0.028000;
#SAMPLESTART:67.556999;
#SAMPLELENGTH:16.349001;
#SELECTABLE:YES;
#DISPLAYBPM:234.000000;
#BPMS:0.000=234.600;
#STOPS:;
#DELAYS:;
#WARPS:;
#TIMESIGNATURES:0.000=4=4;
#TICKCOUNTS:0.000=4;
#COMBOS:0.000=1;
#SPEEDS:0.000=1.000=0.000=0;
#SCROLLS:0.000=1.000;
#FAKES:;
#LABELS:0.000=Song Start;
#BGCHANGES:;
#KEYSOUNDS:;
#ATTACKS:
;

//---------------dance-single - ----------------
#NOTEDATA:;
#CHARTNAME:;
#STEPSTYPE:dance-single;
#DESCRIPTION:;
#CHARTSTYLE:;
#DIFFICULTY:Hard;
#METER:10;
#RADARVALUES:0.865925,0.929381,0.389520,0.608198,0.068337,741.000000,57.000000,89.000000,0.000000,0.000000,0.000000,0.000000,0.000000,0.865925,0.929381,0.389520,0.608198,0.068337,741.000000,57.000000,89.000000,0.000000,0.000000,0.000000,0.000000,0.000000;
#CREDIT:;
#DISPLAYBPM:234.000000;
#NOTES:
0000
0000
0000
0000
,
0000
0000
0000
0000
,
0000
0000
0000
0000
,
0000
0000
0000
0000
,
0000
0000
0000
0000
,
0000
0000
0000
0000
,
0000
0000
0000
0000
,
0000
0000
1100
0101
,
1100
1000
0001
1000
,
0100
1000
0010
1000
,
0001
1000
0001
0100
,
0001
0010
0001
0001
,
1000
0000
0001
0100
0000
0000
0010
0100
,
0001
0000
1000
0100
0000
1000
0010
0100
,
0001
0100
1000
0100
0001
0010
1000
0010
,
0001
0100
0010
1000
0020
0000
0130
0000
,
1001
0000
1000
1000
0100
0010
0001
0000
,
1000
1000
0001
0100
0001
1000
0010
0000
,
1001
0000
0001
0001
1000
0010
0100
0000
,
0001
0010
0100
1000
0010
0000
0101
0000
,
1010
0000
0010
0010
1000
0001
0100
0000
,
0010
0100
0001
1000
0100
1000
0010
0000
,
0110
0000
0100
0100
0001
0010
0100
1000
,
0200
0001
0010
1000
,
0310
0000
0001
0001
1000
0001
0100
0000
,
0001
1000
0001
0100
1000
0100
0020
0000
,
1030
0000
1000
1000
0001
1000
0100
0000
,
0100
0100
1000
0001
0020
0000
0031
0000
,
0001
0100
1000
0000
1000
0100
0010
0000
,
0010
1000
0100
0000
1000
0001
0100
0000
,
0002
0023
0230
2300
,
3010
0010
1000
1000
0001
0001
0010
0010
,
0200
0000
2300
0000
,
3020
0000
0230
0000
,
0302
0000
0203
0000
,
0320
0000
0000
0000
0230
0302
0023
0230
,
2300
0000
3002
0023
,
0230
0302
0203
0320
,
0032
0203
2300
3200
,
0320
0000
0000
0030
,
0200
0302
2003
3200
,
0310
0001
1000
0020
0000
0000
2030
0000
0000
3002
0000
0000
,
0203
0302
0023
0230
,
2300
3020
0032
0023
,
2030
0000
3000
0000
2000
0000
3000
0001
,
2000
0000
0000
0000
0000
0000
3000
0000
0000
0000
0000
0000
1000
0000
0000
0000
0001
0000
0000
0000
0000
1000
0000
0000
,
0020
0000
0000
0230
0000
0300
0001
0100
,
0010
1010
1001
0101
,
0001
0010
0100
1000
,
0010
0010
1000
1000
0100
0100
0020
0000
,
0031
0100
0001
1000
0010
0000
2000
0000
,
0001
0100
3001
1010
,
0002
0000
0100
0000
1003
0000
1000
0100
,
0010
0100
1100
1001
,
1000
0010
0100
0010
1000
0000
0001
1000
,
0001
0010
0100
0010
0001
0000
0002
0000
,
1003
0010
1000
0000
0001
0100
0001
0000
,
1000
0100
1000
0001
0010
0001
0100
0000
,
0001
1000
0001
0000
0101
0000
1001
0000
,
1100
1001
0011
1010
,
0110
0101
0011
1001
,
1010
1001
1100
0110
,
0001
1000
0001
0100
0001
1000
0010
0100
,
0001
0020
1000
0130
,
0001
0100
0010
1000
0100
1000
0001
0010
,
0001
1000
0010
0100
0001
0010
0100
1000
,
0010
1000
0010
1000
0010
0100
0010
0100
,
0001
0100
0001
0100
0001
1000
0001
1000
,
0100
1000
0100
1000
0100
0010
0100
0010
,
0001
0010
0001
0010
0100
1000
0001
0100
,
0010
0100
0010
0100
0001
0001
0100
0100
,
0010
0010
1000
1000
0100
0100
0010
0010
,
0001
0001
1000
1000
0010
0010
0100
0100
,
0001
0100
0001
0000
0101
0000
1001
0000
,
1000
0100
1000
0010
0100
0001
0010
0100
,
0010
0000
0001
0000
1000
0000
0020
0000
0000
0000
0000
0000
0130
0000
0000
0001
0000
0000
0100
0000
0000
0010
0000
0000
,
1000
0001
0010
0100
0010
0001
1000
0100
,
1000
0001
0100
0001
0010
0001
1000
0010
,
0200
0300
0200
0300
0200
0300
0200
0301
,
0200
0000
0000
0300
0000
0000
0200
0000
0000
0300
0000
0000
0100
0000
0000
0000
0010
0000
0000
0000
0000
0100
0000
0000
,
0002
0000
0000
2003
0000
0000
3001
1000
,
0200
2300
3002
0203
,
0310
0000
1000
0000
1010
0000
0001
0100
,
0010
0100
0001
0000
1010
0000
0001
0000
,
0100
0000
0001
0000
0011
0000
1000
0001
,
0100
0001
1000
0100
0010
0100
1000
0001
,
0100
0010
1000
0001
0010
0000
0010
0001
,
0100
1000
0100
0010
1000
0010
0100
0001
,
0010
0100
0010
0100
1000
0001
1000
0010
,
0100
0100
0100
0100
,
0101
0100
0100
0100
,
0110
0100
0100
0100
,
1100
0100
0100
0100
,
0101
0100
0110
0010
,
1010
1000
1100
0100
,
0110
0011
1100
0011
,
1001
1010
1001
0110
,
2002
0000
0000
0000
0000
0000
0003
0000
3001
1000
0001
1000
0001
0000
0000
0000
,
1000
0100
1000
0100
0010
0100
0010
0100
,
0010
0001
0010
0001
0100
0001
0100
0001
,
0100
0010
0100
0010
1000
0010
1000
0010
,
0100
0001
0100
0001
1000
0100
0010
0001
,
0010
0100
0010
0100
1000
1000
0001
0001
,
0010
0010
0100
0100
1000
1000
0010
0010
,
0100
0001
0100
1000
0100
0001
0010
1000
,
0010
0001
0100
0000
0101
0000
1100
0000
,
1000
0001
0100
0001
0010
0100
1000
0010
,
0100
0000
0010
0000
0100
0000
0002
0000
0000
0000
0000
0000
1003
0000
0000
0010
0000
0000
0100
0000
0000
0010
0000
0000
,
1000
0001
0010
0001
1000
0100
1000
0010
,
0100
0010
1000
0001
0100
0001
0010
0100
,
2000
0000
0100
0000
0001
0000
3010
0100
,
0002
0000
0000
0000
0000
0000
0100
0000
0000
0000
0000
0000
1003
0000
0000
0000
0010
0000
0000
0000
0000
1000
0000
0000
,
0200
0000
0000
2300
0000
0000
3001
0100
,
0010
0110
1001
0110
,
0001
0100
0010
0100
0001
1000
0100
1000
,
0010
0100
0001
0100
0010
1000
0100
0010
,
0001
1000
0010
1000
0001
0100
1000
0100
,
0001
0010
0100
1000
0100
0100
0010
0001
,
1000
0010
0100
0010
1000
0001
1000
0100
,
1000
0010
0100
0001
0010
0001
1000
0001
,
0200
0000
0320
0000
,
1030
0010
1000
0020
0000
0000
0001
0000
0000
1030
0000
0000
,
0001
0001
0100
0100
0010
0010
1000
1000
,
0100
0010
0100
0020
0000
0000
0032
0000
0000
0203
0000
0000
,
1300
1000
0100
0100
0001
0001
0010
0010
,
0100
0100
1000
1000
0001
0001
0100
0100
,
0020
0000
0100
0000
0100
0000
0130
0010
,
0200
0000
0000
0000
0000
0000
0010
0000
0000
0000
0000
0000
0310
0000
0000
0000
0100
0000
0000
0000
0000
0001
0000
0000
,
0010
0100
1000
0100
0010
0001
0100
0010
,
1000
0010
0100
0001
,
0020
0230
2300
3002
,
0103
0110
1010
0011
,
0010
0010
0001
0001
1000
1000
0100
0100
,
1000
0010
1000
0000
0001
0100
0001
0000
1000
0100
1000
0000
0001
0010
0001
0000
,
0200
0000
0000
0000
,
0000
0000
0000
0000
,
0300
0000
0000
0000
;

//---------------dance-single - ----------------
#NOTEDATA:;
#CHARTNAME:;
#STEPSTYPE:dance-single;
#DESCRIPTION:;
#CHARTSTYLE:;
#DIFFICULTY:Beginner;
#METER:3;
#RADARVALUES:0.229416,0.274714,0.000000,0.075171,0.000000,224.000000,0.000000,11.000000,0.000000,0.000000,0.000000,0.000000,0.000000,0.229416,0.274714,0.000000,0.075171,0.000000,224.000000,0.000000,11.000000,0.000000,0.000000,0.000000,0.000000,0.000000;
#CREDIT:;
#DISPLAYBPM:234.000000;
#NOTES:
// measure 0
0000
0000
0000
0000
,  // measure 1
0000
0000
0000
0000
,  // measure 2
0000
0000
0000
0000
,  // measure 3
0000
0000
0000
0000
,  // measure 4
0000
0000
0000
0000
,  // measure 5
0000
0000
0000
0000
,  // measure 6
0000
0000
0000
0000
,  // measure 7
0000
0000
0000
0000
,  // measure 8
0000
0100
0000
0100
,  // measure 9
0000
0100
0000
0100
,  // measure 10
0000
0100
0000
0100
,  // measure 11
0000
0100
0000
0100
,  // measure 12
0100
0000
0000
0100
0000
0000
0000
0000
,  // measure 13
0100
0000
0000
0100
0000
0000
0000
0000
,  // measure 14
0100
0000
0100
0000
,  // measure 15
0100
0100
0100
0000
,  // measure 16
0000
0100
0000
0100
,  // measure 17
0000
0100
0000
0100
,  // measure 18
0000
0100
0000
0100
,  // measure 19
0000
0100
0100
0000
,  // measure 20
0000
0100
0000
0100
,  // measure 21
0000
0100
0000
0100
,  // measure 22
0000
0100
0000
0100
,  // measure 23
0200
0000
0000
0300
,  // measure 24
0000
0100
0000
0100
,  // measure 25
0000
0100
0000
0100
,  // measure 26
0000
0100
0000
0100
,  // measure 27
0000
0100
0100
0000
,  // measure 28
0000
0100
0000
0100
,  // measure 29
0000
0100
0000
0100
,  // measure 30
0100
0000
0100
0000
,  // measure 31
0100
0000
0100
0000
,  // measure 32
0100
0000
0000
0000
,  // measure 33
0000
0000
0000
0000
,  // measure 34
0000
0000
0000
0000
,  // measure 35
0000
0000
0000
0000
,  // measure 36
0000
0000
0000
0000
,  // measure 37
0000
0000
0000
0000
,  // measure 38
0000
0000
0000
0000
,  // measure 39
0000
0000
0000
0000
,  // measure 40
0100
0000
0000
0100
0000
0000
0000
0000
,  // measure 41
0100
0000
0000
0100
0000
0000
0000
0000
,  // measure 42
0100
0000
0000
0100
0000
0000
0000
0000
,  // measure 43
0100
0000
0000
0100
0000
0000
0000
0000
,  // measure 44
0100
0000
0100
0000
,  // measure 45
0100
0000
0100
0000
,  // measure 46
0100
0000
0100
0000
,  // measure 47
0100
0100
0100
0100
,  // measure 48
0200
0000
0000
0300
,  // measure 49
0200
0000
0000
0300
,  // measure 50
0000
0100
0000
0100
,  // measure 51
0000
0100
0100
0000
,  // measure 52
0000
0100
0000
0100
,  // measure 53
0000
0100
0100
0000
,  // measure 54
0000
0100
0000
0100
,  // measure 55
0000
0100
0000
0100
,  // measure 56
0000
0100
0000
0100
,  // measure 57
0200
0000
0000
0300
,  // measure 58
0000
0100
0000
0100
,  // measure 59
0000
0100
0000
0100
,  // measure 60
0000
0100
0000
0100
,  // measure 61
0000
0100
0100
0100
,  // measure 62
0000
0100
0000
0100
,  // measure 63
0000
0100
0000
0100
,  // measure 64
0100
0000
0100
0000
,  // measure 65
0100
0000
0100
0000
,  // measure 66
0100
0000
0100
0000
,  // measure 67
0100
0000
0100
0000
,  // measure 68
0100
0000
0100
0000
,  // measure 69
0100
0000
0100
0100
,  // measure 70
0100
0000
0100
0100
,  // measure 71
0100
0000
0100
0000
,  // measure 72
0100
0000
0100
0000
,  // measure 73
0000
0100
0100
0100
,  // measure 74
0000
0100
0000
0100
,  // measure 75
0000
0100
0100
0000
,  // measure 76
0000
0100
0000
0100
,  // measure 77
0000
0100
0000
0100
,  // measure 78
0100
0000
0000
0100
,  // measure 79
0100
0000
0100
0000
,  // measure 80
0100
0000
0000
0100
0000
0000
0100
0000
,  // measure 81
0000
0100
0100
0100
,  // measure 82
0200
0000
0000
0000
,  // measure 83
0000
0000
0000
0300
,  // measure 84
0000
0000
0000
0000
,  // measure 85
0000
0000
0000
0000
,  // measure 86
0000
0000
0100
0000
,  // measure 87
0000
0000
0100
0000
,  // measure 88
0000
0000
0100
0000
,  // measure 89
0100
0000
0000
0000
,  // measure 90
0100
0000
0000
0000
,  // measure 91
0100
0000
0000
0000
,  // measure 92
0100
0000
0000
0000
,  // measure 93
0100
0000
0100
0000
,  // measure 94
0100
0000
0100
0000
,  // measure 95
0100
0100
0100
0100
,  // measure 96
0200
0300
0200
0300
,  // measure 97
0200
0000
0000
0300
,  // measure 98
0000
0100
0000
0100
,  // measure 99
0000
0100
0000
0100
,  // measure 100
0000
0100
0000
0100
,  // measure 101
0000
0100
0100
0000
,  // measure 102
0000
0100
0000
0100
,  // measure 103
0000
0100
0000
0100
,  // measure 104
0100
0000
0100
0000
,  // measure 105
0000
0100
0100
0100
,  // measure 106
0000
0100
0000
0100
,  // measure 107
0000
0100
0000
0100
,  // measure 108
0000
0100
0000
0100
,  // measure 109
0000
0100
0000
0100
,  // measure 110
0100
0000
0000
0000
,  // measure 111
0100
0000
0000
0000
,  // measure 112
0100
0000
0000
0100
0000
0000
0100
0000
,  // measure 113
0100
0000
0000
0000
,  // measure 114
0000
0100
0000
0100
,  // measure 115
0000
0100
0000
0100
,  // measure 116
0000
0100
0000
0100
,  // measure 117
0000
0100
0000
0100
,  // measure 118
0000
0100
0000
0100
,  // measure 119
0000
0100
0000
0100
,  // measure 120
0100
0000
0100
0000
,  // measure 121
0000
0100
0100
0100
,  // measure 122
0100
0000
0000
0000
,  // measure 123
0100
0000
0000
0000
,  // measure 124
0100
0000
0000
0000
,  // measure 125
0100
0000
0100
0000
,  // measure 126
0200
0000
0000
0300
,  // measure 127
0200
0300
0200
0300
,  // measure 128
0100
0000
0100
0000
,  // measure 129
0100
0100
0100
0100
,  // measure 130
0100
0000
0000
0000
,  // measure 131
0100
0000
0000
0000
,  // measure 132
0100
0000
0000
0000
,  // measure 133
0100
0000
0000
0000
,  // measure 134
0100
0000
0000
0000
;

//---------------dance-single - ----------------
#NOTEDATA:;
#CHARTNAME:;
#STEPSTYPE:dance-single;
#DESCRIPTION:;
#CHARTSTYLE:;
#DIFFICULTY:Easy;
#METER:5;
#RADARVALUES:0.453952,0.557628,0.041002,0.307516,0.000000,414.000000,6.000000,45.000000,0.000000,0.000000,0.000000,0.000000,0.000000,0.453952,0.557628,0.041002,0.307516,0.000000,414.000000,6.000000,45.000000,0.000000,0.000000,0.000000,0.000000,0.000000;
#CREDIT:;
#DISPLAYBPM:234.000000;
#NOTES:
0000
0000
0000
0000
,
0000
0000
0000
0000
,
0000
0000
0000
0000
,
0000
0000
0000
0000
,
0000
0000
0000
0000
,
0000
0000
0000
0000
,
0000
0000
0000
0000
,
0000
0000
0000
0000
,
0001
0100
0000
0100
,
0001
0100
0000
0100
,
1000
0100
0000
0100
,
0010
0100
0000
0100
,
0001
0100
0010
0100
,
1000
0100
0010
0100
,
0001
0010
0100
1000
,
0010
0010
0020
0130
,
0001
0100
0100
0100
,
0001
0100
0001
0010
,
1000
0100
0100
0100
,
1000
0001
0020
0030
,
0001
0100
0100
0100
,
0010
0100
0001
0010
,
0001
1000
0001
0100
,
0020
0000
0000
0030
,
1000
1000
1000
0100
,
1000
1000
1000
0001
,
1000
1000
1000
0010
,
1000
0001
1000
1000
,
0001
0001
0001
0100
,
0001
0001
0001
0010
,
0100
1000
0001
1000
,
0001
1000
0001
1000
,
0020
0000
0000
0000
,
0000
0000
0000
0000
,
0230
0000
0000
0000
,
0000
0000
0000
0000
,
0302
0000
0000
0000
,
0000
0000
0000
0000
,
2003
0000
0000
0000
,
0000
0000
0000
0000
,
3200
0000
0000
0000
,
0320
0000
0000
0000
,
0032
0000
0000
0000
,
0203
0000
0000
0000
,
0320
0000
0000
0030
,
0020
0000
0000
0030
,
0020
0000
0000
1030
0000
0000
0100
0000
,
0010
0001
1000
0100
,
1000
0010
1000
0100
,
0010
0001
0100
0001
,
1000
1000
0001
1000
,
0010
0100
0002
0003
,
0001
0100
0010
0010
,
1000
0001
0020
0030
,
0010
0100
1000
0010
,
1000
0001
0200
0300
,
0100
0001
0010
0100
,
1000
1000
1000
0001
,
1000
1000
0100
0100
,
0010
0010
0001
0010
,
0001
0001
0100
0100
,
0010
0010
1000
0001
,
0100
0100
0010
1000
,
0100
0010
0010
0001
,
2000
0000
3002
0000
,
1003
0100
0010
0001
,
0020
0031
0002
0103
,
0200
0310
0020
1030
,
2000
3001
0002
0013
,
0020
0130
1000
0100
,
0200
0310
0001
0100
,
0010
1000
0100
0010
,
0001
0010
0100
1000
,
0010
0100
0100
0100
,
0002
1003
0010
1000
,
0100
0010
0001
0002
,
2003
3001
0100
0010
,
1000
0001
1000
0100
,
0020
0000
0000
0000
0000
0000
0030
0001
,
0020
0000
0230
0000
,
0310
0000
0000
0010
0000
0000
0010
0000
,
0002
2003
3002
2003
,
3010
0010
1001
0000
,
0000
0100
1001
0000
,
0010
1000
0110
0000
,
0000
0001
0110
0000
,
1000
0000
0100
0000
1100
0000
0000
0001
,
0000
0010
0011
0000
,
0001
0100
0001
1000
,
0010
0100
0000
0100
,
0000
0100
0000
0100
,
0000
0100
0000
0100
,
0000
0100
0000
0100
,
0001
0100
0000
0100
,
1000
0100
0000
0100
,
0010
0100
0100
0100
,
0010
1000
0001
0010
,
0200
0000
0000
0310
,
0001
0100
0010
0100
,
0001
0010
0100
0010
,
0001
1000
0010
0100
,
0001
0010
0100
1000
,
0010
0010
1000
0010
,
0100
0001
1000
0010
,
1000
0001
0010
0100
,
2000
0001
0001
3001
,
1000
0100
0010
0001
,
1000
0010
1000
0001
,
0100
0010
1000
0100
,
0010
0100
1000
0001
,
0010
0010
0001
1000
,
0010
0010
1000
0010
,
0100
0000
0000
0100
0000
0000
0100
0000
,
0001
0100
1000
0100
,
0001
0001
0100
0100
,
0010
0010
1000
1000
,
0100
0100
0010
0010
,
0001
0001
1000
0010
,
0100
0100
0010
1000
,
0001
0010
0100
1000
,
0002
0000
2003
0000
,
3020
0100
0100
0130
,
0010
1000
0001
1000
,
0100
0100
0010
0010
,
0001
0010
0100
0010
,
0001
0100
0010
0010
,
2000
0000
0000
0000
3000
0000
0000
1000
,
0002
0000
1003
0001
,
0010
0000
0000
0010
0000
0000
0010
0000
,
0001
1000
0001
1000
,
0100
1000
0001
0010
,
0100
1000
0001
0010
,
0001
0100
0010
1000
,
0001
0100
0010
1000
,
0200
0000
0000
0000
,
0000
0000
0000
0000
,
0300
0000
0000
0000
;

//---------------dance-single - ----------------
#NOTEDATA:;
#CHARTNAME:;
#STEPSTYPE:dance-single;
#DESCRIPTION:;
#CHARTSTYLE:;
#DIFFICULTY:Medium;
#METER:8;
#RADARVALUES:0.683368,0.743505,0.287015,0.662867,0.085421,561.000000,42.000000,97.000000,0.000000,0.000000,0.000000,0.000000,0.000000,0.683368,0.743505,0.287015,0.662867,0.085421,561.000000,42.000000,97.000000,0.000000,0.000000,0.000000,0.000000,0.000000;
#CREDIT:;
#DISPLAYBPM:234.000000;
#NOTES:
0000
0000
0000
0000
,
0000
0000
0000
0000
,
0000
0000
0000
0000
,
0000
0000
0000
0000
,
0000
0000
0000
0000
,
0000
0000
0000
0000
,
0000
0000
0000
0000
,
0000
0000
0001
1000
,
0001
0100
0101
0001
,
0100
0001
0101
0100
,
0010
1000
1100
0100
,
1000
0100
1100
1000
,
0001
0101
1000
1100
,
0001
0011
1000
1010
,
0010
0000
0010
1000
0001
0000
0001
0010
,
0100
0100
0100
0100
,
1000
0000
0001
0000
1000
0100
1000
0000
,
1000
0000
1000
0100
0010
0000
0020
0000
,
0031
0000
1000
0000
0001
0100
0001
0000
,
1000
0000
0001
1000
0020
0000
0130
0000
,
1000
0000
1000
0000
0001
0100
0001
0000
,
1000
0000
0010
0100
0001
0000
2000
0000
,
3001
0000
0100
0000
0001
0100
0010
0000
,
0020
0100
1000
0130
,
1000
0100
0000
1000
0000
0001
0000
1000
,
0000
0001
0000
0100
0000
0001
0000
0010
,
0000
0100
0000
1000
0000
0010
0000
0100
,
0000
0001
0000
0100
0000
0010
0000
0010
,
1000
0001
0000
0100
0000
0010
0000
0100
,
0001
1000
0000
0100
0000
1000
0000
0010
,
0200
0302
2003
3200
,
0320
0032
2003
3020
,
0230
0000
0302
0000
,
0023
0000
0032
0000
,
2003
0000
3200
0000
,
0320
0000
0000
0000
0031
0100
0001
0100
,
0020
0000
2030
3002
,
0023
0230
2300
3002
,
0203
0320
2030
3200
,
0320
0000
0000
0030
,
0002
0000
0000
0010
0000
0000
0003
0000
,
2000
0000
0000
3010
0000
0000
1000
0000
,
0200
0000
0000
0010
0000
0000
0300
0000
,
0020
0032
0203
0320
,
2030
0000
0000
0000
0000
0000
3000
1000
,
0002
0000
0000
0000
0000
0000
0000
0000
0000
0000
0000
0000
0103
0000
0000
0000
0001
0000
0000
0000
0000
0100
0000
0000
,
0020
0000
0000
0230
0000
0000
0310
0100
,
0001
0100
0010
1000
,
0002
0023
0230
2300
,
3020
0230
0302
1003
,
1000
0100
0010
0000
0011
0000
0001
0000
,
1001
1000
2200
3000
,
1300
0100
0001
0001
,
0101
0110
2020
0030
,
3001
0100
0010
0100
,
0001
0010
0220
0030
,
1300
0100
0001
0100
,
1000
1100
1001
0101
,
0210
0000
0301
0100
0010
0000
0001
0100
,
0020
1030
1000
0100
,
2000
0000
3100
0000
0001
0000
0100
0010
,
1000
0110
0001
1001
,
2100
0100
3001
0001
,
0102
0010
1003
0100
,
1000
0100
1000
0100
1000
0001
1000
0001
,
0100
0001
0100
0001
0100
0010
0100
0010
,
0100
0000
0000
0000
0001
0000
0000
0000
0000
0100
0000
0000
0010
0000
0000
0000
1000
0000
0000
0000
0000
0010
0000
0000
,
1000
0000
0000
0000
0100
0000
0000
0000
0000
1000
0000
0000
0001
0000
0000
0000
0010
0000
0000
0000
0000
0001
0000
0000
,
1000
0000
0000
0000
0010
0000
0000
0000
0000
0100
0000
0000
0010
0000
0000
0000
1000
0000
0000
0000
0000
0100
0000
0000
,
0010
0000
0000
0000
0001
0000
0000
0000
0000
0100
0000
0000
0001
0000
0000
1000
0000
0000
0001
0000
0000
1000
0000
0000
,
0100
0000
0000
0000
0010
0000
0000
0000
0000
0100
0000
0000
1000
0000
0000
0000
0000
0000
0001
0000
0000
1000
0000
0000
,
0010
0000
0010
1000
0100
0000
0100
0010
,
0001
0000
0001
0100
0010
0000
0010
1000
,
0100
1100
1100
1100
,
0100
0010
0001
0000
1000
0000
0001
0000
,
1000
0100
1000
0100
0000
0000
0010
0000
0000
0100
0000
0000
,
1000
0000
0001
0000
0100
0000
0010
1000
,
0001
1000
0001
0100
,
2000
0000
0000
0000
3002
0000
0003
0010
,
2000
0000
0000
0000
0000
0000
0000
0000
0000
0000
0000
0000
3001
0000
0000
0000
0100
0000
0000
0000
0000
0001
0000
0000
,
0020
0000
0000
0230
0000
0000
0310
0100
,
1000
1100
1001
0101
,
1001
0000
0100
0000
0002
0000
0000
0103
,
0000
0100
2000
0000
,
3100
0000
0100
0000
0002
0000
0000
0103
,
0000
0100
0020
0000
,
1030
0000
0100
0000
2000
0000
0000
3001
,
0000
0001
0020
0000
,
0130
0000
1000
0000
0100
1000
0100
0010
,
0001
0100
0001
0100
,
0010
0100
0010
0100
,
1000
0100
1000
0100
,
0010
0100
0010
0100
,
0001
0100
0010
0100
,
1000
0100
0010
0100
,
0001
0010
1000
0010
,
0001
0100
1000
0010
,
0002
0000
0000
0000
0103
0100
0001
0000
,
0001
0000
0100
0001
0010
0000
0001
1000
,
0100
0000
0100
1000
0010
0000
1000
0001
,
0100
0000
0001
1000
0010
0000
1000
0100
,
0010
0000
0100
0000
0010
0001
0010
0001
,
0100
1000
0010
0001
,
0010
0110
1100
1001
,
0011
1001
0101
0110
,
2010
0100
0100
3100
,
1000
0001
0100
0000
0001
0000
0010
0000
,
0001
0100
0001
0100
0000
0000
0010
0000
0000
0200
0000
0000
,
0302
2003
3020
2030
,
3002
0023
0230
2300
,
3020
0000
0000
0000
0000
0000
0030
0100
,
0020
0000
0000
0000
0000
0000
0000
0000
0000
0000
0000
0000
1030
0000
0000
0000
0001
0000
0000
0000
0000
1000
0000
0000
,
0002
0000
0000
0203
0000
0000
1300
0100
,
0001
0100
0010
1000
,
0001
0000
0000
0000
0100
0000
0000
0000
0000
0001
0000
0000
1000
0000
0000
0000
0010
0000
0000
0000
0000
1000
0000
0000
,
0100
0000
0000
0000
1000
0000
0000
0000
0000
0100
0000
0000
0010
0000
0000
0000
0001
0000
0000
0000
0000
0010
0000
0000
,
0001
0000
0000
0000
1000
0000
0000
0000
0000
0010
0000
0000
1000
0000
0000
0000
0001
0000
0000
0000
0000
0100
0000
0000
,
0001
0000
0000
0000
1000
0000
0000
0000
0000
0100
0000
0000
1000
0000
0000
0100
0000
0000
0010
0000
0000
0001
0000
0000
,
0010
0000
0000
0000
0001
0000
0000
0000
0000
0010
0000
0000
0100
0000
0000
0000
0000
0000
1000
0000
0000
0001
0000
0000
,
0010
0000
0100
1000
0001
0000
0100
0010
,
2000
0000
3002
0000
,
0013
0001
0100
0000
0100
0000
0100
0000
,
0001
1000
0010
0000
0010
1000
0001
0010
,
0100
1000
0100
1000
0000
0000
1000
0000
0000
0100
0000
0000
,
0001
0100
1000
0010
,
0001
0010
1000
0100
,
0010
0011
1000
1010
,
0100
0000
1100
0000
0001
0000
0101
0100
,
0001
0100
0001
0010
0100
1000
0100
1000
,
0020
2030
3002
0203
,
0302
0100
0100
0100
,
2003
0100
0100
0100
,
3002
0013
2000
3100
,
0001
0100
0001
1000
0010
1000
0001
0010
,
0200
0000
0000
0000
,
0000
0000
0000
0000
,
0300
0000
0000
0000
;
