#TITLE:Boss Mode;
#SUBTITLE:;
#ARTIST:Knife Party;
#TITLETRANSLIT:;
#SUBTITLETRANSLIT:;
#ARTISTTRANSLIT:;
#CREDIT:;
#BANNER:;
#BACKGROUND:;
#LYRICSPATH:;
#CDTITLE:;
#MUSIC:[Round B] - Boss Mode.ogg;
#OFFSET:-0.005;
#SAMPLESTART:43.636;
#SAMPLELENGTH:15.000;
#SELECTABLE:YES;
#BPMS:0.000=88.000,48.000=176.000,112.000=88.000,120.000=176.000,152.000=88.000,160.000=176.000,192.000=88.000,200.000=176.000;
#STOPS:;
#BGCHANGES:;

//---------------dance-single - ----------------
#NOTES:
     dance-single:
     :
     Hard:
     8:
     0.541,0.771,0.651,0.284,0.165:
0000
0000
0000
0000
,
0000
0000
0000
0000
,
0000
0000
0000
0000
,
0000
0000
0000
0000
,
2000
0000
0000
3001
0000
0000
1000
0000
0010
0000
0010
0000
0100
0001
0100
0002
,
0000
0000
0000
0013
0000
0000
0010
0000
0010
0000
0001
0000
0100
0010
0100
0020
,
0000
0000
0000
1000
0030
0000
1000
0000
1000
0000
0001
0000
1000
0100
0000
0020
,
0000
0000
0000
0001
0030
0000
0001
0000
0001
0001
1000
0000
0001
1000
0001
0000
,
0220
0330
0022
0033
,
2200
3300
2020
3030
,
0202
0303
0220
0330
,
2002
3003
0022
0033
,
0101
0100
1010
0100
,
1001
0010
1001
0100
,
0011
1000
1010
0001
,
1010
1100
0110
1001
,
1000
0100
1000
0100
0010
0001
0010
0001
,
1000
0001
0100
0010
1000
0100
0010
0001
,
1000
0100
0000
0000
0010
0001
0000
0000
1000
0010
0000
0000
0100
0001
0000
0000
,
1000
0001
0000
0000
0100
0010
0000
0000
1000
0002
0000
0000
0103
0000
0000
0000
,
0001
0010
0100
0010
0100
0000
0110
0000
,
1100
0000
1001
0000
0001
1000
0010
0000
,
0100
0000
0001
0100
0010
0000
1000
0100
,
0010
0000
0001
0010
0001
1000
0010
0000
,
0100
0010
0001
0010
0100
0000
1100
0000
,
0101
0000
1001
0000
1000
0100
0010
0000
,
0011
0000
0001
0100
1000
0000
0011
0000
,
1010
0000
0001
1000
0100
0010
0001
0000
,
1001
0000
0000
1000
0100
0000
2000
0000
0000
0000
0001
0000
3001
0000
1000
0100
,
0010
0000
0000
0001
1000
0000
0002
0000
0000
0000
1003
0000
1010
0000
0110
0000
,
1001
0000
0001
0100
0010
0000
1010
0000
,
1100
0000
0010
0000
0001
1000
0100
0000
,
0011
0000
0000
0001
0101
0000
0010
0000
,
1100
0000
1000
0100
0010
0001
0100
0000
,
0010
1000
0100
0001
0100
0000
1001
0000
,
1010
0000
0110
0000
0100
0001
0010
0000
,
0011
0000
0000
1000
1100
0000
0011
0000
,
1001
0000
0001
1000
0100
0001
0100
0000
,
0210
0000
0000
0010
0310
0000
2001
0000
0000
0001
3001
0000
1000
0100
0010
0001
,
0200
0000
0000
0001
0301
0000
1002
0000
0000
1000
1003
0000
1001
0000
0110
0000
,
2002
3003
0011
0100
,
0001
0100
0001
0100
0010
0000
1000
0000
,
1100
0000
1000
0001
0100
0000
0101
0000
,
0001
1000
0100
0010
0100
0000
0010
0000
,
1001
0000
0001
0100
0010
0000
1001
0000
,
1000
0100
1000
0001
0100
0000
0010
0000
,
0101
0000
0010
1000
0100
0000
0101
0000
,
0100
1000
0001
0100
0010
0000
0100
0000
,
0101
0000
0000
1000
1000
0000
0101
0000
0000
0001
0001
0000
2200
0000
3300
0000
,
1001
0000
0000
0100
0100
0000
1001
0000
0000
0010
0010
0000
1001
0000
1001
0000
,
1001
0000
0000
0001
0000
0000
0100
0000
0001
0000
0000
0000
0101
0000
0000
0000
,
1000
0000
0000
0100
0000
0000
1000
0000
0001
0000
0100
0000
0010
0000
0000
0000
,
0100
0000
0000
0010
0000
0000
0100
0000
0010
0000
0000
0000
1001
0000
0000
0000
,
0010
0000
0000
0001
0000
0000
1000
0000
0100
0000
1000
0000
0001
0000
0000
0000
,
0100
0010
1000
0100
0010
0000
0110
0000
,
0100
0010
0001
0100
0010
1000
0100
0000
,
1000
0100
0001
0000
0101
0000
0101
0000
,
0001
0100
1000
0001
0100
0100
0110
0000
,
0110
0000
0000
0000
;

//---------------dance-single - ----------------
#NOTES:
     dance-single:
     :
     Medium:
     6:
     0.431,0.585,0.440,0.174,0.018: // measure 1
0000
0000
0000
0000
,  // measure 2
0000
0000
0000
0000
,  // measure 3
0000
0000
0000
0000
,  // measure 4
0000
0000
0000
0000
,  // measure 5
0001
0000
0000
0100
0000
0000
0001
0000
0100
0000
0010
0000
1000
0000
0000
0000
,  // measure 6
1000
0000
0000
0001
0000
0000
1000
0000
0100
0000
0010
0000
0001
0000
0100
0000
,  // measure 7
0010
0000
0000
0100
0000
0000
0010
0000
1000
0000
0001
0000
0010
0000
0000
0000
,  // measure 8
0100
0000
0000
0010
0000
0000
0100
0000
0010
0000
0010
0000
0001
0000
1000
0000
,  // measure 9
2002
3003
0200
0300
,  // measure 10
2002
3003
0020
0030
,  // measure 11
0220
0330
2000
3000
,  // measure 12
0220
0330
0002
0003
,  // measure 13
1000
0100
0010
0001
,  // measure 14
0100
0010
1000
0010
,  // measure 15
0100
0001
0010
0100
,  // measure 16
0001
0100
1000
0001
,  // measure 17
1001
1001
0101
0101
,  // measure 18
1010
1010
1100
1100
,  // measure 19
0011
1100
1010
0101
,  // measure 20
0110
1001
0220
0330
,  // measure 21
1001
0000
0001
0100
0001
0000
0100
0000
,  // measure 22
0010
0000
1000
0000
0100
1000
0100
0000
,  // measure 23
1000
0000
0001
0010
0100
0000
0010
0000
,  // measure 24
0001
0100
0001
0000
0100
0010
1000
0000
,  // measure 25
0100
0000
1000
0001
0100
0000
0010
0000
,  // measure 26
0100
0000
0001
0000
0100
0010
1000
0000
,  // measure 27
0100
0000
0001
0100
1000
0000
0001
0000
,  // measure 28
0100
0000
0001
0000
1000
0010
1000
0000
,  // measure 29
1001
0000
0001
0101
0000
1000
1100
0000
,  // measure 30
1001
0000
0001
0011
0000
1000
1001
0001
,  // measure 31
2001
0000
0000
0100
3100
0000
0010
0000
,  // measure 32
0001
0000
0100
0000
0010
0100
0001
0000
,  // measure 33
1000
0000
0001
0010
0100
0000
0010
0001
,  // measure 34
1000
0000
0001
0000
1000
0010
0100
0000
,  // measure 35
0001
1000
0001
1000
0001
0000
0100
0000
,  // measure 36
1000
0000
0100
0000
0001
1000
0001
0000
,  // measure 37
1000
0000
0100
0010
0001
0000
1000
0010
,  // measure 38
0100
0000
0010
0000
1000
0001
1000
0000
,  // measure 39
1001
0000
0100
1001
0000
0010
1001
0000
,  // measure 40
0110
0000
1000
0110
0000
0001
0110
1000
,  // measure 41
2002
0000
3003
0000
0001
0100
0010
0000
,  // measure 42
1000
0100
0010
0000
0100
0000
0010
0001
,  // measure 43
1000
0000
0001
0000
1000
0001
0100
0000
,  // measure 44
0010
0100
0010
0000
1000
0000
0001
0010
,  // measure 45
0100
0000
0001
0000
0100
0010
0001
0000
,  // measure 46
1000
0010
0100
0000
0010
0100
0001
0000
,  // measure 47
1000
0000
0001
0000
0100
0010
1000
0000
,  // measure 48
0001
0010
0001
0000
1100
0000
1001
0000
,  // measure 49
0101
0000
1001
1001
0000
0110
0110
0000
,  // measure 50
1001
0000
0110
0110
0000
1001
1001
0000
,  // measure 51
0220
0330
0010
1000
,  // measure 52
0001
0000
1000
0001
1000
0000
0001
0000
,  // measure 53
0010
0000
0100
0010
0100
0000
0010
0000
,  // measure 54
0001
0000
1000
0100
0010
0000
0100
0010
,  // measure 55
0001
0000
0100
0010
1000
0000
0001
0000
,  // measure 56
0100
0000
0001
0010
0100
0000
0010
0000
,  // measure 57
0001
1000
0100
0000
0100
0000
0100
0000
,  // measure 58
1000
0000
0010
0000
0100
0010
0100
0000
,  // measure 59
0110
0000
0000
0000
;

//---------------dance-single - ----------------
#NOTES:
     dance-single:
     :
     Easy:
     4:
     0.275,0.372,0.183,0.055,0.000: // measure 1
0000
0000
0000
0000
,  // measure 2
0000
0000
0000
0000
,  // measure 3
0000
0000
0000
0000
,  // measure 4
0000
0000
0000
0000
,  // measure 5
1000
0000
0001
0001
0001
0000
0100
0000
,  // measure 6
0010
0000
1000
1000
1000
0000
0001
0000
,  // measure 7
1000
0000
0010
0010
0010
0000
0001
0000
,  // measure 8
1000
0000
0001
0100
0001
0000
0100
0000
,  // measure 9
0010
0000
0100
0000
,  // measure 10
0001
0000
1000
0000
,  // measure 11
1001
0000
0110
0000
,  // measure 12
1001
0000
0110
0000
,  // measure 13
0010
0000
1000
0000
,  // measure 14
0100
0000
0010
0000
,  // measure 15
0001
0000
0100
0000
,  // measure 16
0001
0000
1000
0000
,  // measure 17
0001
0100
0001
0100
,  // measure 18
0010
1000
0010
1000
,  // measure 19
0001
0010
0100
1000
,  // measure 20
0100
0010
0002
0003
,  // measure 21
1001
0000
1000
0100
,  // measure 22
0010
0100
1000
0001
,  // measure 23
0100
0000
0010
0100
,  // measure 24
0010
1000
0001
0000
,  // measure 25
1001
0000
0001
0010
,  // measure 26
0100
0010
0100
0100
,  // measure 27
0010
0000
0001
1000
,  // measure 28
0001
0100
0010
0000
,  // measure 29
1001
0000
0100
0000
,  // measure 30
1001
0000
0010
0000
,  // measure 31
1001
0000
1000
0100
,  // measure 32
1000
0001
0100
1000
,  // measure 33
0100
0000
0010
0100
,  // measure 34
0001
0010
0100
0000
,  // measure 35
0010
0001
1000
0100
,  // measure 36
0001
0100
1000
0001
,  // measure 37
0100
0000
0010
0100
,  // measure 38
0001
0010
0100
0000
,  // measure 39
1001
0001
1001
1000
,  // measure 40
0110
0100
1001
0010
,  // measure 41
2002
3003
0001
0010
,  // measure 42
0100
0001
0100
1000
,  // measure 43
0002
0003
1000
0010
,  // measure 44
0100
0001
0010
0100
,  // measure 45
0020
0030
0100
1000
,  // measure 46
0001
0100
1000
0100
,  // measure 47
0020
0030
1000
0100
,  // measure 48
0001
0010
0001
0100
,  // measure 49
1000
0000
0001
0001
0000
0001
0001
0000
,  // measure 50
0001
0000
1000
1000
0000
1000
1000
0000
,  // measure 51
1001
0001
0010
0000
,  // measure 52
0110
0010
0001
0000
,  // measure 53
1001
1000
0010
0100
,  // measure 54
0110
0010
1000
0000
,  // measure 55
0001
0010
0100
0001
,  // measure 56
0100
1000
0001
0100
,  // measure 57
0010
0001
0010
1000
,  // measure 58
0001
1000
0001
1001
,  // measure 59
1001
0000
0000
0000
;

//---------------dance-single - ----------------
#NOTES:
     dance-single:
     :
     Beginner:
     1:
     0.134,0.213,0.110,0.000,0.000: // measure 1
0000
0000
0000
0000
,  // measure 2
0000
0000
0000
0000
,  // measure 3
0000
0000
0000
0000
,  // measure 4
0000
0000
0000
0000
,  // measure 5
0100
0000
0010
0010
,  // measure 6
0010
0000
0100
0100
,  // measure 7
0100
0000
0001
0001
,  // measure 8
0001
0000
1000
1000
,  // measure 9
1001
0000
0000
0000
,  // measure 10
1001
0000
0000
0000
,  // measure 11
0110
0000
0000
0000
,  // measure 12
0110
0000
0000
0000
,  // measure 13
0001
0000
0000
0000
,  // measure 14
0001
0000
0000
0000
,  // measure 15
1000
0000
0000
0000
,  // measure 16
1000
0000
0000
0000
,  // measure 17
0001
0000
0100
0000
,  // measure 18
0010
0000
1000
0000
,  // measure 19
0100
0000
0010
0000
,  // measure 20
0001
0000
0001
0000
,  // measure 21
1001
0000
0000
0000
,  // measure 22
1000
0000
0010
0000
,  // measure 23
0100
0000
0000
0000
,  // measure 24
0001
0000
1000
0000
,  // measure 25
0100
0000
0000
0000
,  // measure 26
0010
0000
0001
0000
,  // measure 27
1000
0000
0100
0000
,  // measure 28
0010
0000
0001
0000
,  // measure 29
0100
0000
0000
0000
,  // measure 30
0010
0000
0000
0000
,  // measure 31
0110
0000
0000
0000
,  // measure 32
0100
0000
0010
0000
,  // measure 33
1000
0000
0000
0000
,  // measure 34
0001
0000
0010
0000
,  // measure 35
0100
0000
0010
0000
,  // measure 36
0001
0000
1000
0000
,  // measure 37
0100
0000
0000
0000
,  // measure 38
1000
0000
0001
0000
,  // measure 39
1001
0000
0000
0000
,  // measure 40
0100
0000
0000
0000
,  // measure 41
1001
0000
0000
0000
,  // measure 42
0010
0000
1000
0000
,  // measure 43
0100
0000
0000
0000
,  // measure 44
1000
0000
0100
0000
,  // measure 45
1000
0000
0000
0000
,  // measure 46
0001
0000
0010
0000
,  // measure 47
0100
0000
0000
0000
,  // measure 48
0010
0000
0001
0000
,  // measure 49
1000
0000
0000
0000
,  // measure 50
0001
0000
0000
0000
,  // measure 51
1001
0000
0001
0000
,  // measure 52
1001
0000
1000
0000
,  // measure 53
0110
0000
0010
0000
,  // measure 54
0110
0000
0100
0000
,  // measure 55
0001
0000
0100
0000
,  // measure 56
0010
0000
1000
0000
,  // measure 57
0100
0000
0010
0000
,  // measure 58
0001
0000
1000
1000
,  // measure 59
1000
0000
0000
0000
;
