#TITLE:BACK AT EM;
#SUBTITLE:;
#ARTIST:WOOFER;
#TITLETRANSLIT:;
#SUBTITLETRANSLIT:;
#ARTISTTRANSLIT:;
#GENRE:Breaks;
#CREDIT:;
#BANNER:[Round B] - BACK AT EM.png;
#BACKGROUND:[Round B] - BACK AT EM-bg.png;
#LYRICSPATH:;
#CDTITLE:cdtitle.png;
#MUSIC:[Round B] - BACK AT EM.ogg;
#OFFSET:0.009000;
#SAMPLESTART:28.115999;
#SAMPLELENGTH:16.875000;
#SELECTABLE:YES;
#DISPLAYBPM:128.000000;
#BPMS:0.000000=128.000000
;
#STOPS:
;
#BGCHANGES:;
#KEYSOUNDS:;
#ATTACKS:;

//---------------dance-single - ----------------
#NOTES:
     dance-single:
     :
     Beginner:
     1:
     0.090683,0.181848,0.121739,0.000000,0.000000,73.000000,59.000000,14.000000,0.000000,0.000000,0.000000,0.090683,0.181848,0.121739,0.000000,0.000000,73.000000,59.000000,14.000000,0.000000,0.000000,0.000000:
0000
0000
0000
0000
,
0000
0000
0000
0000
,
0000
0000
0000
0000
,
0000
0000
0000
0000
,
0001
0000
0000
0000
,
0000
0000
0000
0000
,
1000
0000
0000
0000
,
0010
0010
0010
0000
,
0010
0000
0000
0000
,
0010
0000
0000
0000
,
0010
0000
0000
0000
,
0010
0000
0000
0000
,
0010
0000
0010
0000
,
0010
0000
0010
0000
,
0010
0010
0010
0010
,
0010
0000
0000
0000
,
1001
0000
0000
0000
,
0000
0000
0000
0000
,
0110
0000
0000
0000
,
1000
0000
0000
0000
,
1001
0000
0000
0000
,
0000
0000
0000
0000
,
0110
0000
0000
0000
,
0001
0000
0000
0000
,
1001
0000
0000
0000
,
0000
0000
0000
0000
,
0110
0000
0000
0000
,
0000
0000
0000
0000
,
1001
0000
0000
0000
,
0000
0000
0000
0000
,
0110
0000
0000
0000
,
0001
0001
0001
0000
,
0001
0000
0000
0000
,
0000
0000
0000
0000
,
0000
0000
0000
0000
,
0000
0000
0000
0000
,
1000
0000
1000
0000
,
1000
0000
1000
0000
,
1000
1000
1000
1000
,
1000
0000
0000
0000
,
0110
0000
0000
0000
,
0000
0000
0000
0000
,
1000
0000
0000
0000
,
0000
0000
0000
0000
,
1001
0000
0000
0000
,
0000
0000
0000
0000
,
0001
0000
0000
0000
,
0000
0000
0000
0000
,
0110
0000
0000
0000
,
1000
0000
0000
0000
,
0001
0000
0000
0000
,
0010
0000
0000
0000
,
0110
0000
0000
0000
,
0100
0000
0000
0000
,
0001
0000
0000
0000
,
1000
0000
0000
0000
,
1001
0000
0000
0000
,
0000
0000
0000
0000
,
0110
0000
0000
0000
,
0100
0100
0100
0100
;

//---------------dance-single - ----------------
#NOTES:
     dance-single:
     :
     Medium:
     7:
     0.391304,0.467609,0.191304,0.191304,0.117391,315.000000,293.000000,22.000000,22.000000,0.000000,0.000000,0.391304,0.467609,0.191304,0.191304,0.117391,315.000000,293.000000,22.000000,22.000000,0.000000,0.000000:
0000
0000
0000
0000
,
0000
0000
0000
0000
,
0000
0000
0000
0000
,
0000
0000
0000
1001
,
0101
0000
0010
0100
0000
0100
0010
0000
,
1001
0000
1000
0100
0000
0100
1000
0000
,
0011
0000
1000
0001
0000
0001
0010
0000
,
0100
0000
0000
0000
0100
0000
0000
0100
0000
0000
0100
0000
0100
0000
0000
0000
,
1000
0000
0000
1000
0000
0000
1000
0000
0000
1000
0000
0000
1000
0000
0000
0000
,
0001
0000
0000
0001
0000
0000
0001
0000
0000
0001
0000
0000
0001
0000
0000
0000
,
0010
0000
0000
0010
0000
0000
0010
0000
0000
0010
0000
0000
0010
0000
0000
0000
,
0100
0000
0000
0100
0000
0000
0100
0000
0000
0100
0000
0000
0100
0000
0000
0000
,
1000
0001
1000
0001
1000
0001
1000
0001
,
0100
0010
0100
0010
0100
0010
0100
0010
,
2002
0000
0000
3003
,
0020
0000
0100
0130
,
2001
0000
3100
0000
0010
0001
0010
0010
,
0001
0001
0010
0010
0001
0010
0001
0000
,
2000
0000
3010
0000
0100
0001
0100
0001
,
0010
0000
0210
1300
,
0020
0000
1030
0000
0001
0100
0001
0001
,
0100
0100
0001
0001
0100
0001
0100
0000
,
0020
0000
1030
0000
0100
1000
0010
1000
,
0100
0000
0100
0010
0000
0010
0000
0010
,
0200
0000
1300
0000
0001
0010
0001
0001
,
0010
0010
0100
0100
1000
0100
1000
0000
,
0010
1000
0100
0000
0010
0001
0100
0000
,
0010
0000
0000
1000
0000
0000
0001
0000
0000
0000
0000
0000
0011
0000
0000
0000
,
0210
0000
1300
0000
0010
1000
0010
0010
,
1000
1000
0001
0001
0100
0001
0100
0000
,
0020
0000
1030
0000
0001
0010
0001
0010
,
0100
0000
0000
0000
0100
0000
0000
0100
0000
0000
0100
0000
0100
0000
0000
0000
,
2002
0000
0000
0000
,
0000
0000
0000
3003
,
2002
0000
0000
0000
,
0000
0000
0000
3003
,
0010
1000
0010
1000
0010
1000
0010
1000
,
0001
0100
0001
0100
0001
0100
0001
0100
,
0020
0000
0000
0000
,
1030
0000
0001
0001
,
1200
0310
0001
0001
,
1000
0000
1000
0000
0010
0000
0100
0000
0001
0000
0000
0001
0000
0000
0001
0000
,
2000
0000
0000
0000
3100
0000
0000
0000
0010
0000
0000
0001
0000
0000
0010
0000
,
0100
0000
1000
0000
0100
0000
1000
0000
0010
0000
0000
0100
0000
0000
0001
0000
,
2000
0000
0000
0000
3100
0000
0000
0000
0010
0000
0000
0001
0000
0000
0010
0000
,
0100
0000
0100
0000
1000
0000
0100
0000
0010
0000
0000
0001
0000
0000
0010
0000
,
0100
0000
0100
0000
1000
0000
0000
0000
0010
0000
0000
0100
0000
0000
0001
0000
,
1000
0000
0100
0000
1000
0000
0001
0000
0100
0000
0000
0010
0000
0000
0100
0000
,
0002
0000
0000
0000
0013
0000
0000
0000
0100
0000
0000
1000
0000
0000
0100
0000
,
1000
0000
0010
0000
0001
0000
0010
0000
0100
0000
0000
0001
0000
0000
1000
0000
,
0200
0000
0000
0000
0310
0000
0000
0000
0001
0000
0000
1000
0000
0000
0110
0000
,
0001
0000
0010
0000
0001
0000
0010
0000
0100
0000
0000
1000
0000
0000
0001
0000
,
0200
0000
0000
0000
0310
0000
0000
0000
1000
0000
0000
0001
0000
0000
1000
0000
,
0100
0000
1000
0000
0100
0000
1000
0000
0001
0000
0000
0100
0000
0000
0010
0000
,
1001
0000
0100
0000
1000
0000
0000
0000
0010
0000
0000
1000
0000
0000
0001
0000
,
0010
0000
0100
0000
1000
0000
0001
0000
0100
0000
0000
0001
0000
0000
1000
0000
,
1100
0000
0001
0010
0000
0010
0001
0000
,
1100
0000
0001
0010
0000
0010
0001
0000
,
0101
0000
1000
0010
0000
0010
1000
0000
,
1100
0000
0000
0000
0110
0000
0000
0011
0000
0000
1001
0000
1001
0000
0000
0000
;

//---------------dance-single - ----------------
#NOTES:
     dance-single:
     :
     Hard:
     8:
     0.454658,0.493587,0.165217,0.147826,0.326087,366.000000,347.000000,19.000000,17.000000,0.000000,0.000000,0.454658,0.493587,0.165217,0.147826,0.326087,366.000000,347.000000,19.000000,17.000000,0.000000,0.000000:
0000
0000
0000
0000
,
0000
0000
0000
0000
,
0000
0000
0000
0000
,
0000
0000
0000
1000
,
0101
0000
1000
0001
0000
0001
0100
0000
,
0001
0000
1000
0001
0000
0001
0100
0000
,
1010
0000
0001
0010
0000
0010
0001
0000
,
0001
0000
0000
0000
0001
0000
0000
0001
0000
0000
0001
0000
0000
0000
0000
0000
,
1000
0000
0000
1000
0000
0000
1000
0000
0000
1000
0000
0000
1000
0000
0000
0000
,
0010
0000
0000
0010
0000
0000
0010
0000
0000
0010
0000
0000
0010
0000
0000
0000
,
0100
0000
0000
0100
0000
0000
0100
0000
0000
0100
0000
0000
0100
0000
0000
0000
,
0001
0000
0000
0001
0000
0000
0001
0000
0000
0001
0000
0000
0001
0000
0000
0000
,
1000
0100
1000
0100
1000
0100
1000
0100
,
0010
0001
0010
0001
0010
0001
0010
0001
,
2000
0000
0000
3000
,
1100
0000
0101
1100
,
0002
0000
0103
0000
0010
1000
0010
0010
,
0010
0010
0010
0010
0010
1000
1000
0000
,
0001
0010
0001
0010
0001
0000
0000
0000
2000
0000
0100
0000
0100
0000
0100
0000
,
0010
0000
0001
3100
,
0020
0000
0031
0000
1000
0100
1000
1000
,
1000
1000
1000
1000
1000
0100
0100
0000
,
1000
0010
1000
0010
1000
0000
0000
0000
0001
0010
0100
0000
0001
0010
0100
0000
,
0001
0000
1000
0010
0000
0010
0000
0010
,
0200
0000
0310
0000
1000
0001
1000
1000
,
1000
1000
1000
1000
1000
0001
0001
0000
,
0100
0010
0100
0010
0100
0000
0000
0000
0010
1000
0010
0000
1000
0000
0000
0000
,
0002
0000
0000
0010
0000
0000
0103
0000
0002
0000
0000
0000
0013
0000
0100
0000
,
2000
0000
3010
0000
0100
0001
0100
0100
,
0100
0100
0100
0100
0100
0001
0001
0000
,
1000
0100
1000
0100
1000
0000
0000
0000
0001
0010
0100
0000
0001
0010
0100
0000
,
0010
0000
0000
0000
0010
0000
0000
0010
0000
0000
0010
0000
0010
0000
0000
0000
,
1001
0000
0000
0000
0000
0001
0000
0010
0000
0001
0010
0000
0000
0100
0000
1000
,
0000
0100
1000
0000
0000
0001
0000
0100
0000
0001
0100
0000
0000
0010
1000
0000
,
1010
0000
0000
0000
0000
0100
0000
1000
0000
0100
1000
0000
0000
0001
0000
0010
,
0000
0001
0010
0000
0000
0001
0000
0100
0000
0001
0100
0000
0000
0010
1000
0000
,
0001
0100
0001
0100
0001
0100
0001
0100
,
0010
1000
0010
1000
0010
1000
0010
1000
,
0002
0000
0000
0000
,
0013
0000
1100
0101
,
2010
0000
0000
0000
0000
0000
0000
0000
3010
0000
0000
0001
0000
0000
1000
0000
,
0010
0000
0010
0000
0010
0000
0010
0000
0100
0000
0000
0001
0000
0000
1000
0000
,
0200
0000
0000
0000
0300
0000
0000
0000
0010
0000
0000
0001
0000
0000
0010
0000
,
0100
1000
0100
1000
0100
1000
0100
1000
0010
0000
0000
0100
0000
0000
0001
0000
,
0020
0000
0000
0000
0000
0000
0000
0000
0031
0000
0000
1000
0000
0000
0010
0000
,
0100
0000
0100
0000
0100
0000
0100
0000
0001
0000
0000
0010
0000
0000
0100
0000
,
2000
0000
0000
0000
3000
0000
0000
0000
0010
0000
0000
0010
0000
0000
0010
0000
,
0100
0001
1000
0000
0100
0010
0001
1000
0010
0000
0000
1000
0000
0000
0001
0000
,
0020
0000
0000
0000
0000
0000
0000
0000
0031
0000
0000
1000
0000
0000
0010
0000
,
0100
0000
0100
0000
0100
0000
0100
0000
0001
0000
0000
0010
0000
0000
0100
0000
,
2000
0000
0000
0000
3000
0000
0000
0000
0010
0000
0000
1000
0000
0000
0001
0000
,
0010
0001
0010
0001
0010
0001
0010
0001
1000
0000
0000
0010
0000
0000
0100
0000
,
2010
0000
0000
0000
0000
0000
0000
0000
3100
0000
0000
0010
0000
0000
0001
0000
,
1000
0000
1000
0000
1000
0000
1000
0000
0001
0000
0000
0100
0000
0000
0010
0000
,
2000
0000
0000
0000
3100
0000
0000
0000
0001
0000
0000
1000
0000
0000
0010
0000
,
0100
0001
1000
0000
0010
1000
0001
0100
0010
0000
0000
1000
0000
0000
0100
0000
,
1100
0000
0001
0010
1000
0010
0001
0000
,
1010
0000
0001
0100
1000
0100
0001
0000
,
1100
0000
0010
0001
0100
0001
0010
0000
,
1100
0000
0000
0000
1100
0000
0000
1100
0000
0000
1100
0000
0011
0000
0000
0000
;

//---------------dance-single - ----------------
#NOTES:
     dance-single:
     :
     Easy:
     3:
     0.214907,0.311739,0.278261,0.260870,0.000000,173.000000,141.000000,32.000000,30.000000,0.000000,0.000000,0.214907,0.311739,0.278261,0.260870,0.000000,173.000000,141.000000,32.000000,30.000000,0.000000,0.000000:
// measure 0
0000
0000
0000
0000
,  // measure 1
0000
0000
0000
0000
,  // measure 2
0000
0000
0000
0000
,  // measure 3
0000
0000
0000
0001
,  // measure 4
0110
1000
1000
1000
,  // measure 5
1000
0010
0100
0001
,  // measure 6
0110
1000
1000
1000
,  // measure 7
0110
0220
0000
0330
,  // measure 8
2002
0000
0000
3003
,  // measure 9
0220
0000
0000
0330
,  // measure 10
2200
0000
0000
3300
,  // measure 11
0022
0000
0000
0033
,  // measure 12
2002
0000
0000
0000
,  // measure 13
0000
0000
0000
3003
,  // measure 14
0200
0000
0000
0300
,  // measure 15
0101
0000
0101
0101
,  // measure 16
0002
0103
0001
0001
,  // measure 17
0001
0001
0001
0001
,  // measure 18
2000
3000
0100
0100
,  // measure 19
0100
0000
0000
0011
,  // measure 20
2000
3100
1000
1000
,  // measure 21
1000
1000
1000
1000
,  // measure 22
0020
0030
0010
0010
,  // measure 23
0010
0000
0000
0000
,  // measure 24
1001
0000
0001
1000
,  // measure 25
0001
1000
0001
1000
,  // measure 26
0020
0030
0010
1000
,  // measure 27
0011
0000
0011
0000
,  // measure 28
1001
0010
0100
0001
,  // measure 29
0100
0001
0100
0001
,  // measure 30
2000
3000
0010
0010
,  // measure 31
0200
0000
0000
0310
,  // measure 32
1001
0000
0000
0000
,  // measure 33
0000
0000
0000
0000
,  // measure 34
0110
0000
0000
0000
,  // measure 35
0000
0000
0000
0000
,  // measure 36
2000
0000
0000
0000
,  // measure 37
0020
0000
0000
3000
,  // measure 38
0200
0000
0000
0030
,  // measure 39
0310
0000
1100
0000
,  // measure 40
0011
0000
0100
0100
,  // measure 41
0010
0010
0100
0100
,  // measure 42
1001
0001
1000
1000
,  // measure 43
0020
0000
0000
0030
,  // measure 44
1001
0000
0010
0010
,  // measure 45
0100
0100
0010
0010
,  // measure 46
1100
1000
0010
0010
,  // measure 47
0200
0000
0000
0300
,  // measure 48
2002
3003
0010
0010
,  // measure 49
1000
1000
0001
0001
,  // measure 50
0011
0010
0100
0100
,  // measure 51
2000
0000
0000
3000
,  // measure 52
0220
0330
0001
0001
,  // measure 53
0010
0010
1000
1000
,  // measure 54
0011
0100
0010
0010
,  // measure 55
1000
0000
0001
0000
,  // measure 56
0101
0001
0001
0001
,  // measure 57
1000
1000
1000
0010
,  // measure 58
1100
0000
0000
0000
,  // measure 59
1001
0000
0000
1001
;
