#TITLE:aura;
#SUBTITLE:;
#ARTIST:Expander;
#TITLETRANSLIT:;
#SUBTITLETRANSLIT:;
#ARTISTTRANSLIT:;
#GENRE:Glitch Step;
#CREDIT:shite BEMANI import vol. 2;
#BANNER:bn.png;
#BACKGROUND:bg.png;
#LYRICSPATH:;
#CDTITLE:;
#MUSIC:[Round A] - aura.ogg;
#OFFSET:0.000;
#SAMPLESTART:10.970;
#SAMPLELENGTH:12.000;
#SELECTABLE:YES;
#BPMS:0.000=87.500,16.000=175.000,276.000=87.500,291.000=175.000;
#STOPS:;
#BGCHANGES:;
#KEYSOUNDS:;

//---------------dance-single - warpdrive----------------
#NOTES:
     dance-single:
     warpdrive:
     Hard:
     10:
     0.782,0.739,0.148,1.000,0.374:
0000
0000
0000
0000
,
0000
0000
0000
0000
,
2000
0000
0000
0000
0000
0000
3010
0100
0002
0000
0000
2003
0000
0000
3200
0000
,
0000
0000
0000
0000
0000
0000
0000
0000
0000
0000
0000
0000
0300
0000
0000
0000
1000
0000
0000
0000
0001
0000
0100
0000
0001
0000
1000
0100
1000
0000
0000
0000
,
2MM1
0000
0000
3001
0100
1000
0200
0000
,
0320
0000
0000
0230
0000
0000
0302
0000
,
2003
0000
0000
0000
3001
0010
1000
0010
,
0000
0001
1000
0000
0010
0100
0001
0100
,
0020
0030
2000
3002
,
0023
0000
0000
0230
0000
0000
0320
0001
,
0030
0000
0010
0000
0100
0000
0000
0000
1000
0000
0001
0000
0100
0000
0001
1000
,
0002
0000
0023
0000
,
0032
0000
0000
1003
0010
0001
0020
0000
,
0230
0000
0000
0302
0000
0000
2003
0000
,
3002
0000
0000
0000
1003
0100
0001
0100
,
0000
0000
1000
0000
0001
0000
0000
0000
0100
0000
0001
1000
0001
0000
0100
0000
,
0020
0000
0030
0000
0000
0000
1000
0001
,
0020
0000
0000
0230
0000
0000
0320
0001
,
0030
0000
0010
0000
0100
0000
0000
0000
0010
0000
0004
0003
1000
0000
0010
0100
,
0020
0000
0000
0000
1030
0001
0010
0000
,
0002
0000
0000
0000
0000
0000
0000
0000
2003
0000
0000
3010
0100
0010
0000
0000
,
1000
0000
0010
0000
1000
0000
0001
0100
0001
0000
1000
0000
0010
1000
0010
1000
,
0002
0000
1003
0001
0020
2030
0000
3010
,
0000
0000
0001
1000
0010
0000
00M1
1000
0010
0000
0200
0000
0320
0000
0000
0000
,
1030
0000
0000
0002
0000
0000
0043
0000
0000
0130
0010
0001
,
1000
1000
0001
0000
0100
0100
0010
0000
,
2000
0000
3002
0000
0023
0000
0031
1000
,
0002
0000
0000
0000
0000
0000
0000
0000
0000
0000
0000
0000
1003
0000
0000
0000
0000
0000
0010
0000
0000
0100
0000
0000
0010
0000
0000
0000
1000
0000
0000
0000
0001
0000
0000
0000
1000
0000
0000
0000
0000
0000
0100
0000
0000
0000
0000
0000
,
0020
0000
0000
0000
0130
0000
1000
0000
0001
0000
0000
0100
0010
0100
0001
1000
,
0001
0010
1000
0000
1000
0010
0001
0001
,
2000
0000
3020
0230
0320
0032
0000
0023
,
0130
0000
0001
0000
1000
0000
0001
1000
0010
0000
00M1
1000
0020
0000
0000
0000
,
0230
0000
0301
1000
0004
0000
0000
0000
,
0013
0010
0100
0000
1000
1000
0001
0000
,
0100
0010
0100
0010
0100
1000
0100
1000
,
0100
0000
0000
0010
0000
0000
0100
0000
0000
0010
0000
0000
1000
0000
0000
0001
0000
0000
1000
0000
0000
0000
0000
0000
0100
0000
0000
0000
0010
0000
0000
0000
0001
0000
0000
0000
4000
0000
0000
0000
0000
0000
3000
0000
0000
0000
0000
0000
,
0002
0000
0203
0000
0300
0110
0000
0110
,
0010
0000
0010
0000
1000
0000
0000
0001
0100
0000
0100
0000
0001
0000
0000
0000
,
2000
0000
3200
0000
0300
0110
0000
0110
,
0010
0000
0010
0000
0002
0000
0000
0000
1003
0010
0100
0000
0020
0000
0000
0000
,
1030
0000
0000
0010
0100
0010
0000
0100
0001
0100
0001
1000
0000
1000
0000
1000
,
0100
0000
0010
0000
0100
0000
0010
0000
0100
0000
0010
0000
0002
0000
1003
0010
,
1000
0001
0100
0000
0010
1000
0000
0000
0001
0000
0010
0000
0200
0300
0200
0300
,
1000
0001
1000
0001
0200
0000
0000
0000
0320
0000
0000
0000
0000
0000
0000
0000
,
2030
0000
3002
0000
0003
0011
0000
0011
,
0010
0000
0010
0000
0001
0000
0000
1000
0100
0000
0100
0000
0010
0000
0000
0000
,
0002
0000
2003
0000
3000
1010
0000
1010
,
0010
0000
0010
0000
2000
0000
0000
0000
3001
0010
0001
0000
0020
0000
0000
0000
,
0130
2000
0000
0000
3001
0100
1000
0100
,
0001
0000
1000
0000
1000
0000
0001
0000
0001
0000
0010
0000
0100
1000
0001
1000
,
0010
0100
0001
0010
0000
0100
1000
0010
0000
0000
1000
0001
0200
0000
0310
1000
,
0002
0000
0000
0000
0023
0000
0000
0030
0022
0000
0000
0000
0033
0000
0004
0000
,
1003
0000
0000
0000
0002
0000
0103
0000
0020
0000
0030
1000
0001
1000
0000
0000
,
0010
0100
0010
0001
0010
0100
0010
1000
,
0001
0000
0001
0000
1000
0000
0100
0000
0000
0010
0100
0000
1000
0000
0001
0000
,
2000
0000
3020
0000
0230
2300
3200
0320
,
1030
0000
0000
0001
2000
0000
3100
0000
0000
0000
0000
0000
0010
0001
0100
0010
,
1000
0000
0001
0000
1000
0000
0010
0000
0100
0001
0000
0001
0010
0000
0100
0000
,
1000
0000
0001
0000
1000
0000
0100
0010
0000
0001
0020
0000
0031
0000
1000
0000
,
0020
0000
0000
0130
0000
0000
0001
1000
0001
0010
0000
0000
,
0001
0000
0000
0000
2000
0000
3001
0000
0200
0000
0300
0001
1000
0001
0000
0000
,
0010
0100
0010
1000
0010
0100
0010
0001
,
1000
0000
1000
0000
0001
0000
0100
0000
0000
0010
0100
0000
0001
0000
1000
0000
,
0002
0000
0023
0000
0230
0302
0203
0320
,
0031
0000
0000
1000
0200
0000
0300
0000
2002
0000
0000
3003
1000
0001
1000
0001
,
1000
0000
0010
0000
0100
0000
0010
0000
0100
0001
0000
0001
0010
0000
0100
0000
,
1000
0000
0001
0000
1000
0000
0100
0010
0000
0100
2000
0000
3001
0000
1000
0000
,
0020
0000
0000
0230
0000
0000
0301
1000
0001
0010
0000
0000
,
0001
0000
0001
0000
0010
0100
0010
0100
1000
0000
1000
0000
2200
0000
0000
3300
,
2MM1
0000
0000
0000
3002
0000
0000
0000
0203
0000
0000
0320
0000
0000
1030
0000
,
2001
0000
0000
0002
0000
0000
3003
0000
,
0012
0000
0000
0000
0013
0000
0100
0000
2000
0000
0000
3002
0000
0000
0203
0000
,
0000
0000
0000
0000
0000
0000
0000
0000
0000
0000
0000
0000
0300
0000
0010
1000
0020
0000
0000
0000
0000
0000
0000
0000
1M3M
0000
0000
0000
0040
0000
0000
0000
,
0230
0300
2001
0000
0000
3001
0010
1000
,
0020
0000
0230
0000
0000
2300
0000
3001
,
0100
0010
2000
0000
0000
3001
1000
0100
,
0001
0000
0101
0000
0000
0000
0000
0000
0110
0000
0000
0000
0100
0000
1000
0001
,
1000
0010
0100
0001
0100
0020
0000
1030
,
0001
0010
0200
0000
0000
2300
0000
0000
,
3200
0010
0300
0100
1000
0001
1000
0200
,
0310
0000
0001
1000
0002
0000
0000
0000
0000
0000
2003
0000
0000
3001
0100
0000
,
0010
0000
0100
0000
0001
0000
0001
0000
1000
0100
1000
0100
0010
0000
0010
0000
,
2002
0000
0000
3003
0002
0000
0000
0000
0103
0000
0001
0000
1000
0000
0000
0100
,
1000
0100
0010
0001
1000
0000
0010
0000
0001
0000
0000
0000
0010
0000
0000
0000
,
1000
0000
0002
0000
0023
0230
0320
2030
,
0000
3020
0130
1000
0001
0000
1000
0001
,
0200
0000
0302
0000
1003
0100
0020
0000
,
0031
0010
0001
0010
0100
0000
0100
0000
1000
0000
0000
0000
0001
0000
0001
0000
,
1000
0000
0010
0100
0010
0100
0010
0001
,
0010
0000
0000
0000
0000
0000
0001
0000
0000
0000
0000
0000
0010
0000
0000
0100
0000
0000
0010
0000
0000
0100
0000
0000
0001
0000
0000
1000
0000
0000
0001
0000
0000
0000
0000
0000
0010
0000
0000
0000
0100
0000
0000
0000
1000
0000
0000
0000
,
0001
0000
0100
0000
0010
0000
2000
0000
0000
0000
0000
0000
0000
0000
0000
3000
0000
0000
1001
0000
0000
0000
0000
0000
;

//---------------dance-single - warpdrive----------------
#NOTES:
     dance-single:
     warpdrive:
     Easy:
     4:
     0.221,0.336,0.037,0.252,0.000:
0000
0000
0000
0000
,
0000
0000
0000
0000
,
0000
0000
0000
0000
,
0000
0000
0000
0000
,
2000
0000
3000
0000
,
0020
0000
0030
0000
,
0200
0000
0301
0000
,
0000
0000
1000
0000
,
0002
0000
0003
0000
,
0020
0000
0000
0130
0000
0000
1000
0000
,
0000
0000
0001
0000
,
1000
0000
0010
0000
,
2000
0000
3000
0000
,
0002
0000
0003
0000
,
2000
0000
3100
0000
,
0010
0000
0001
0000
,
2000
0000
3000
0000
,
0002
0000
0003
0000
,
0200
0000
0300
0000
,
0010
0000
1000
0000
,
0001
0000
0010
0000
,
0100
0000
0010
0000
,
0001
0000
1001
0000
,
1000
0000
0010
0000
,
0100
0000
0001
0000
,
1000
0000
0100
0000
,
0020
0000
0000
0000
,
0032
0000
1003
0010
,
1000
0000
0001
0000
,
1000
0000
0001
0000
,
0010
0000
0110
0000
,
0100
0000
1000
0000
,
0001
0000
2000
0000
,
3010
0000
0100
0000
,
0002
0000
0000
0000
,
0203
0000
0310
0000
,
1000
0000
0000
0000
0000
0001
0000
0001
,
0000
0000
1000
0000
,
0100
0000
0000
0000
0000
0010
0000
0010
,
0000
0000
0001
0000
,
1000
0000
0010
0000
,
0100
0000
0001
0000
,
1000
0000
0100
0000
,
0010
0000
0002
0000
,
1003
0000
0000
0000
0000
0010
0000
0010
,
0000
0000
0100
0000
,
0001
0000
0000
0000
0000
1000
0000
1000
,
0000
0000
0001
0000
,
0010
0000
0100
0000
,
0010
0000
0001
0000
,
1000
0000
0010
0000
,
0100
0000
0002
0000
,
1003
0000
0100
0000
,
1000
0001
1000
0000
,
0001
0000
0100
0000
,
0010
1000
0010
0000
,
0100
0000
0001
0000
,
1000
0100
1000
0000
,
0001
0000
0010
0000
,
0001
1000
0001
0000
,
0100
0000
0010
0000
,
1000
0001
1000
0000
,
0100
0000
0010
0000
,
0100
1000
0100
0000
,
1000
0000
0001
0000
,
0100
0010
0100
0000
,
0001
0000
1000
0000
,
0100
0000
0010
0000
,
0002
0000
0000
1003
,
0020
0000
0230
0000
,
0302
0000
0000
2003
0000
0000
0000
0000
,
3200
0000
0000
0000
0320
0000
0000
0032
,
0000
0000
1003
0020
,
0000
0130
0000
0001
,
0000
1000
0000
0001
,
0000
1000
0000
0100
,
0000
0110
0000
0000
0010
0000
0000
0000
,
0000
0002
0000
0003
,
0000
0000
2000
0000
0000
3010
0000
0000
,
0100
0000
0000
0001
,
0000
0200
0000
0300
,
0000
0002
0000
0000
,
1003
0001
0000
0010
,
0000
0100
0000
0010
,
0000
0001
0000
1001
,
0000
1000
0000
0010
,
0000
0100
0000
0001
,
0000
1000
0000
0100
,
0000
0020
0000
0000
,
0000
0032
0000
1003
,
0001
2000
3000
1001
;

//---------------dance-single - warpdrive----------------
#NOTES:
     dance-single:
     warpdrive:
     Medium:
     8:
     0.564,0.537,0.052,0.837,0.067:
0000
0000
0000
0000
,
0000
0000
0000
0000
,
2000
0000
0000
0000
0000
0000
3010
0100
0002
0000
0000
2003
0000
0000
3200
0000
,
0000
0000
0000
0000
0000
0000
0300
0000
1000
0000
0001
0100
0001
0000
1001
0000
,
2MM0
0000
0000
3001
0010
0001
0200
0000
,
0320
0000
0000
2030
0000
0000
3002
0000
,
2003
0000
0000
0000
3001
0010
0001
0100
,
0000
0001
1000
0000
0001
0100
0010
0100
,
0002
0003
2000
3002
,
0023
0000
0000
0230
0000
0000
0320
0001
,
0030
0010
0100
0000
1000
0001
0100
0000
,
0002
0000
2003
0000
,
3002
0000
0000
0103
0001
0010
0002
0000
,
2003
0000
0000
3020
0000
0000
0230
0000
,
0302
0000
0000
0000
1003
0100
1000
0010
,
0000
1000
0001
0000
0100
0000
0001
1000
,
0020
0000
0030
0000
0000
0000
1000
0001
,
0020
0000
0000
0230
0000
0000
2300
0001
,
3000
1000
0100
0000
0010
0100
1000
0000
,
0020
0000
0000
0000
1030
0001
0010
0000
,
0002
0000
2003
3010
,
0100
0000
0001
0000
1000
0100
0010
0000
,
0200
0000
1300
1000
0001
0000
0000
0100
,
0000
0001
0000
0100
0000
0010
2000
0000
,
3001
0000
0020
0000
0130
1000
0100
0000
,
2000
3002
0203
0320
,
1030
0000
0001
0000
0010
0000
0100
0010
,
0001
0000
0000
1000
0000
0000
0010
0100
0010
0100
0000
0000
,
0002
0000
2003
3100
,
0010
0000
0100
0000
1000
0001
0100
0000
,
0020
0000
1030
1000
0001
0000
0000
0100
,
0010
0000
1000
0000
0010
0100
0002
0000
,
1003
0000
0200
0000
0310
0001
0010
0000
,
0002
2003
3020
0230
,
0301
1000
0001
0000
1000
0001
1000
0000
,
0001
0000
0000
0100
0000
0000
0010
0000
0000
0000
0000
0000
1000
0000
0001
0000
1000
0000
0001
0000
0000
0000
0000
0000
,
0020
0000
0230
0000
0300
1000
0000
1000
,
0001
0100
0010
0000
0100
0000
0001
0000
,
2000
0000
3200
0000
0300
0010
0000
0010
,
0001
0001
1000
0000
0001
0000
0100
0000
,
0010
0100
0010
1000
0001
0100
0001
0000
,
1000
0100
0010
0100
,
1000
0001
0100
0000
0010
1000
0010
0000
,
0200
0302
2003
0000
,
3200
0000
0320
0000
0030
0100
0000
0100
,
1000
0001
0100
0000
0010
0000
1000
0000
,
0002
0000
0023
0000
0030
0001
0000
0001
,
1000
1000
0010
0000
1000
0000
0001
0000
,
0020
0000
0000
0000
0031
1000
0010
0100
,
0001
0100
0010
0100
,
0001
1000
0100
0000
0010
0001
1000
0000
,
0020
0230
0302
0000
,
1003
1100
0100
0010
,
0001
1000
0010
0000
0100
0001
1000
0000
,
0001
0010
0001
0010
0000
0000
0100
0000
,
2000
3002
0203
0320
,
1030
1001
0001
0010
,
0001
1000
0010
0000
0100
0001
1000
0000
,
0001
0010
0001
0010
0000
0000
0100
0000
,
0020
0000
0000
0032
0000
0000
1003
0010
1000
0020
0000
0000
,
1030
1001
0001
0100
,
0001
1000
0100
0000
0010
0001
1000
0000
,
0001
0100
0001
0100
0000
0000
0010
0000
,
2000
3002
0023
0230
,
1300
1001
0001
0100
,
0001
1000
0010
0000
0100
0010
1000
0000
,
0001
1000
0001
1000
0000
0000
0100
0000
,
0020
0000
0000
0230
0000
0000
1300
0001
1000
0002
0000
0000
,
1003
0010
0100
0000
0010
1000
0002
0000
,
2MM3
0000
0000
0000
3002
0000
0000
0000
0203
0000
0000
0320
0000
0000
1030
0000
,
0002
0000
0000
0020
0000
0000
0033
0000
,
0002
0000
0000
0000
0013
0000
0100
0000
2000
0000
0000
3002
0000
0000
0203
0000
,
0000
0000
0000
0000
0000
0000
0000
0302
0000
0000
0000
0000
1MM3
0000
0000
0000
,
0200
0000
2300
0000
0000
3001
0010
0001
,
0200
0000
0302
0000
0000
2003
0000
0000
,
3001
0010
0002
0000
0000
1003
0001
0100
,
0001
0010
0000
0000
0011
0000
0001
1000
,
0010
0100
0002
0000
0000
2003
0000
0000
,
3002
0000
0023
0000
0000
0230
0000
0000
,
2300
0001
3000
1000
0100
0000
1000
0001
,
0100
0000
0002
0000
0000
2003
0000
0000
,
3000
0000
0001
0010
0100
0000
1000
0001
,
0200
0302
0000
2003
,
3100
0000
0010
0000
0100
0000
1000
0100
,
0010
0000
0002
0000
1003
1000
0010
0000
,
0000
0100
0010
1000
0010
0000
0000
0100
,
0002
1003
0200
2300
,
3001
0010
0002
0000
0023
0000
0230
0000
,
1300
0001
1000
0010
,
0100
0000
0000
0010
0000
0000
1000
0000
0000
0000
0000
0000
0001
0000
0000
0000
0000
0000
0100
0000
0010
0000
0100
0000
,
0010
0000
1000
0000
0010
0000
2000
0000
0000
0000
0000
0000
0000
0000
0000
3000
0000
0000
1001
0000
0000
0000
0000
0000
;
