#TITLE:UNCOOL LUNCH TABLES;
#SUBTITLE:(LIVE SKRILLEX MINI-MASHUP);
#ARTIST:shawn wasabi;
#TITLETRANSLIT:;
#SUBTITLETRANSLIT:;
#ARTISTTRANSLIT:;
#GENRE:;
#CREDIT:;
#BANNER:[Round A] - UNCOOL LUNCH TABLES (LIVE SKRILLEX MINI-MASHUP).png;
#BACKGROUND:[Round A] - UNCOOL LUNCH TABLES (LIVE SKRILLEX MINI-MASHUP)-bg.png;
#LYRICSPATH:;
#CDTITLE:cdtitle.png;
#MUSIC:[Round A] - UNCOOL LUNCH TABLES (LIVE SKRILLEX MINI-MASHUP).ogg;
#OFFSET:-0.017000;
#SAMPLESTART:50.761349;
#SAMPLELENGTH:14.000000;
#SELECTABLE:YES;
#DISPLAYBPM:104.000000;
#BPMS:0.000000=104.010002
,179.500000=208.020004
,180.500000=104.010002
;
#STOPS:179.500000=0.288437
;
#BGCHANGES:;
#KEYSOUNDS:;
#ATTACKS:;

//---------------dance-single - ----------------
#NOTES:
     dance-single:
     :
     Hard:
     9:
     0.492101,0.605486,0.600733,0.121667,0.182501,453.000000,374.000000,79.000000,16.000000,0.000000,0.000000,0.492101,0.605486,0.600733,0.121667,0.182501,453.000000,374.000000,79.000000,16.000000,0.000000,0.000000:
0000
0000
0000
0000
,
0000
0000
0000
0000
,
0000
0000
0000
0000
,
0000
0000
0000
0000
,
1100
0100
1000
0100
1000
0100
1000
0100
,
0011
0001
0010
0001
0010
0001
0010
0001
,
1010
1000
0100
1010
1000
0100
0000
0011
,
0011
0001
0100
0010
1000
0010
0100
0001
,
0010
0010
0010
0010
,
0100
0100
0100
0100
,
0011
0100
1000
0011
0100
1000
0010
0100
,
0100
0000
0010
0100
0000
0010
0100
0000
0010
0100
0000
0010
0200
0000
0000
0000
0000
0000
0300
0000
0000
0000
0000
0000
,
1010
1010
1000
0100
0010
0001
1001
0000
,
0101
0001
0010
0100
0010
1000
0010
0000
,
0011
0011
0001
0010
0100
1000
0001
0000
,
1000
0100
1100
1100
0010
0001
0011
0001
,
1000
0000
1000
0000
0010
0000
0100
0001
0100
0001
0100
0000
0010
0000
0010
0000
,
1001
0000
1001
0000
0100
0000
0010
0001
0010
0001
0010
0000
0100
0000
0010
0001
,
0010
0001
0100
0011
0001
0100
0000
0000
,
0110
1000
0100
0010
0001
0100
0010
1000
,
0002
0000
0000
0000
0013
0000
0100
1000
0100
1000
0100
1000
0100
0000
0010
0000
,
1001
0000
1001
0000
0010
0000
0100
0001
0100
0001
0100
0000
0010
0000
0001
0100
,
0010
1000
0100
1010
1000
0100
0000
0000
,
0011
0001
0100
0010
1000
1000
1000
1000
,
2001
0000
0000
0000
0100
0100
3100
0000
,
1002
0000
0000
0000
0100
0100
0103
0000
,
1002
0000
0000
0010
0000
0000
0100
0000
0000
1000
0000
0000
0010
0000
0000
0100
,
0000
0000
0000
1000
0000
0000
0010
0000
0000
0100
0000
0000
1003
0000
0000
0000
,
2001
0100
3000
0000
0000
0000
0000
0000
,
0010
0001
0010
0001
0010
0001
0010
0001
,
0011
0000
0000
0101
0000
0000
1001
0000
0000
1010
0000
0000
1100
0000
0000
0000
,
0011
0000
0000
0101
0000
0000
1001
0000
0000
1010
0000
0000
1100
0000
0000
0000
,
2001
0100
3010
0001
0001
0001
1100
0000
,
0010
0100
1000
0000
0110
0000
0001
0000
,
2100
0100
3001
1100
0100
0002
0010
0203
,
0001
0320
1000
1030
0001
0010
0110
0100
,
1001
1001
0001
0100
1001
0100
1000
0000
,
0110
0000
0001
0110
0000
0000
2000
3200
,
0010
0300
1001
0101
0011
0100
0000
1010
,
0001
0001
0001
0001
,
1100
0000
0000
0000
,
1010
0000
0001
0000
0100
0000
0010
1000
0000
1000
0010
0000
0101
0000
0010
0000
,
0100
0000
1000
0001
0100
0000
0010
1000
0000
0000
0001
0000
0011
0000
0000
0000
,
1100
0000
1100
0000
0010
0000
0100
0001
0000
0001
1000
0000
1100
0000
0100
0000
,
0011
0001
0101
0101
0010
0001
1000
1000
,
0000
0000
0101
0000
1000
0000
0010
1000
0100
1000
0010
1000
0100
0000
1000
0000
,
0011
0000
0011
0000
0100
0000
1000
0001
1000
0001
1000
0001
0100
0000
1000
0001
,
1000
0010
0100
1010
0010
0100
0000
0000
,
1001
0000
0100
0000
0010
0000
0001
0000
1000
0010
1000
0010
1000
0000
0001
0000
,
0110
0000
0110
0000
1000
0000
0001
0100
0010
1000
0010
0100
0001
0000
0010
0000
,
1001
0000
1001
0000
0010
0000
0100
1000
0100
0001
0100
1000
0010
0000
0100
1000
,
0010
0100
0110
0010
0100
0110
0000
0000
,
0001
0000
1000
0000
1001
0000
0010
0000
0100
1000
0001
0010
0100
0000
1000
0000
,
2001
0000
0100
3100
,
1002
0000
0010
0013
,
2001
0000
0000
0001
0010
0010
3010
0000
,
1000
1000
1000
1000
1000
0010
1000
0010
;

//---------------dance-single - ----------------
#NOTES:
     dance-single:
     :
     Medium:
     6:
     0.334585,0.366808,0.129272,0.060834,0.000000,308.000000,291.000000,17.000000,8.000000,0.000000,0.000000,0.334585,0.366808,0.129272,0.060834,0.000000,308.000000,291.000000,17.000000,8.000000,0.000000,0.000000:
0000
0000
0000
0000
,
0000
0000
0000
0000
,
0000
0000
0000
0000
,
0000
0000
0000
0000
,
1000
0010
1000
0010
0000
0000
0000
0000
,
0001
0010
0001
0010
0000
0000
0000
0000
,
1000
0010
0100
1000
0010
0100
0000
0001
,
0001
0010
0100
1000
0010
0100
0001
0000
,
0001
0010
0001
0010
0001
0000
0001
0000
,
1000
0010
1000
0010
1000
0000
1000
0000
,
0001
0010
0100
0001
0010
0100
0000
1000
,
1000
0010
0100
0001
0020
0000
0030
0000
,
1001
1001
0010
0000
0200
0000
0301
0000
,
0011
0011
0100
0000
2000
0000
3010
0000
,
1010
1010
0100
0000
0020
0000
1030
0000
,
0001
0010
1000
1000
0010
0001
0100
0100
,
0010
0000
0001
0000
0010
1000
0100
1000
,
0010
0000
0001
0000
0010
1000
0100
1000
,
0001
0010
0100
0001
0010
0100
0000
0000
,
1000
0010
0100
0001
0010
0100
1000
0000
,
0010
1000
0100
0000
1000
0000
0101
0000
,
0010
1000
0100
0000
1000
0000
0101
0000
,
0010
0010
1000
0010
0010
1000
0000
0000
,
0001
0001
0010
0001
0010
0100
1000
0001
,
0100
0000
0000
0000
0100
0010
0100
0010
,
0000
0000
0000
0000
0100
0010
0100
0010
,
0000
0000
0000
0000
1000
0001
1000
0001
,
0000
0000
0000
0000
1000
0001
1000
0001
,
0011
1010
0000
0000
0010
1000
0100
0000
,
0000
0000
0000
0000
0010
1000
0100
0000
,
0000
0000
0000
0000
0010
0010
1000
0001
,
0000
0000
0000
0000
0010
0010
1000
0001
,
0010
0001
1000
0100
0100
0100
0010
0100
,
1000
0010
0100
0001
0000
0000
0020
0000
,
0130
1000
0010
0100
0001
0010
0001
1000
,
0010
1000
0100
0010
0001
0010
0100
0100
,
1000
1000
1000
0000
0001
0001
0001
0000
,
1000
1000
1000
0000
0001
0001
0001
0000
,
1100
0000
0000
0010
0001
0000
0000
0100
,
0010
1000
0001
0100
,
0010
1000
0000
0000
0100
0000
0000
0000
,
1001
0000
0100
0000
0010
1000
0100
0000
,
0011
0000
0100
1000
1000
0001
0010
0000
,
1001
0000
0010
0000
0100
0001
0010
0000
,
0100
1000
0001
0001
0100
1000
0010
0010
,
0000
0000
1001
0000
0000
0000
0100
0100
,
0010
0000
0100
0000
0000
0000
0001
1000
,
0010
1000
0100
0010
1000
0100
0000
0000
,
0100
1000
0010
0000
0100
0001
0010
0000
,
0100
1000
0100
0000
0011
0000
1000
0001
,
0100
0001
0100
0000
1010
0000
0001
0100
,
0010
1000
0100
0010
1000
0100
0000
0000
,
0010
0001
0100
0100
0001
0010
0100
1000
,
0002
0000
0000
0000
0100
0100
0103
0000
,
0020
0000
0000
0000
1000
1000
1030
0000
,
2000
0000
0000
0010
0001
0001
3001
0000
,
0100
0100
0100
0100
0100
0000
0100
0000
;

//---------------dance-single - ----------------
#NOTES:
     dance-single:
     :
     Easy:
     3:
     0.193364,0.276793,0.228126,0.060834,0.000000,178.000000,148.000000,30.000000,8.000000,0.000000,0.000000,0.193364,0.276793,0.228126,0.060834,0.000000,178.000000,148.000000,30.000000,8.000000,0.000000,0.000000:
0000
0000
0000
0000
,
0000
0000
0000
0000
,
0000
0000
0000
0000
,
0000
0000
0000
0000
,
1001
0001
0001
0001
,
1001
1000
1000
1000
,
0110
0001
0110
0000
,
0110
1000
0110
0000
,
0001
0010
0100
1000
,
0010
1000
0001
0100
,
0010
0010
0010
0000
,
0010
0010
0020
0030
,
2001
3100
0000
0011
,
2010
3100
0000
1001
,
0012
0103
0000
0101
,
0010
1000
0100
1000
,
0010
0110
0000
1001
,
0010
0110
0000
1001
,
0010
0100
0010
0000
,
0100
0010
0100
0000
,
0001
0010
1100
1100
,
0001
0010
1100
1100
,
0010
0010
0010
0000
,
0010
0010
1000
1000
,
0100
0000
0010
0000
,
1000
0000
0001
0000
,
0100
0000
0010
0000
,
0001
0000
1000
0000
,
0020
0030
0000
0000
,
0010
0000
0000
0000
,
1000
0010
0100
0001
,
1000
0010
0100
0001
,
1001
0000
0000
0100
,
1001
0000
0000
0020
,
0130
0000
2000
3020
,
0130
0000
0001
0010
,
1100
0000
0001
0000
,
1000
0000
0010
0000
,
0100
0000
0100
0000
,
0100
0100
0100
0100
,
1001
0000
0000
0000
,
0100
1000
0010
0010
,
0100
0001
0010
0010
,
1000
0010
0100
0100
,
0001
0000
0001
0000
,
0000
0000
1000
0010
,
0100
0001
0000
0010
,
0100
0000
0000
0100
0000
0000
0000
0000
,
1000
0000
0001
0000
,
0100
0010
0100
0110
,
0001
1000
0001
1001
,
0010
0000
0000
0010
0000
0000
0000
0000
,
0100
0100
0100
0100
,
1001
0000
0000
0000
,
0101
0000
0000
0000
,
0110
0000
0000
0000
,
1010
0000
0000
0000
;

//---------------dance-single - ----------------
#NOTES:
     dance-single:
     :
     Beginner:
     1:
     0.082560,0.150373,0.053230,0.000000,0.000000,76.000000,69.000000,7.000000,0.000000,0.000000,0.000000,0.082560,0.150373,0.053230,0.000000,0.000000,76.000000,69.000000,7.000000,0.000000,0.000000,0.000000:
// measure 0
0000
0000
0000
0000
,  // measure 1
0000
0000
0000
0000
,  // measure 2
0000
0000
0000
0000
,  // measure 3
0000
0000
0000
0000
,  // measure 4
1000
0000
0000
0000
,  // measure 5
1000
0000
0000
0000
,  // measure 6
0001
0000
0000
0000
,  // measure 7
0001
0000
0000
0000
,  // measure 8
0010
0000
0010
0000
,  // measure 9
0010
0000
0000
0000
,  // measure 10
0100
0000
0100
0000
,  // measure 11
0100
0100
0100
0000
,  // measure 12
1001
0000
0000
0000
,  // measure 13
0110
0000
0000
0000
,  // measure 14
1001
0000
0000
0000
,  // measure 15
0100
0100
0100
0000
,  // measure 16
0010
0000
0000
0000
,  // measure 17
0010
0000
0000
0000
,  // measure 18
0010
0010
0010
0000
,  // measure 19
0010
0010
0010
0000
,  // measure 20
1000
0000
0000
0000
,  // measure 21
1000
0000
0000
0000
,  // measure 22
0010
0000
0000
0000
,  // measure 23
0010
0000
0000
0000
,  // measure 24
0100
0000
0000
0000
,  // measure 25
0000
0000
0000
0000
,  // measure 26
0010
0000
0000
0000
,  // measure 27
0000
0000
0000
0000
,  // measure 28
1000
0000
0000
0000
,  // measure 29
0001
0000
0000
0000
,  // measure 30
0010
0000
0000
0000
,  // measure 31
0010
0000
0000
0000
,  // measure 32
1001
0000
0000
0000
,  // measure 33
0100
0000
0000
0000
,  // measure 34
0100
0000
0000
0000
,  // measure 35
0100
0000
0000
0000
,  // measure 36
0110
0000
0000
0000
,  // measure 37
0001
0000
0000
0000
,  // measure 38
1000
0000
0000
0000
,  // measure 39
1000
1000
1000
1000
,  // measure 40
1000
0000
0000
0000
,  // measure 41
0010
0000
0000
0000
,  // measure 42
0100
0000
0000
0000
,  // measure 43
1001
0000
0000
0000
,  // measure 44
0010
0000
0000
0000
,  // measure 45
0000
0000
0000
0000
,  // measure 46
1001
0000
0000
0000
,  // measure 47
0100
0000
0000
0000
,  // measure 48
1000
0000
0000
0000
,  // measure 49
0001
0001
0001
0000
,  // measure 50
0001
0000
0000
0000
,  // measure 51
1000
1000
1000
0000
,  // measure 52
1000
0000
0000
0000
,  // measure 53
0010
0000
0000
0000
,  // measure 54
0100
0000
0000
0000
,  // measure 55
1000
0000
0000
0000
,  // measure 56
0001
0001
0001
0000
;
