#TITLE:Rocking Hardcore;
#SUBTITLE:;
#ARTIST:Fastway;
#TITLETRANSLIT:;
#SUBTITLETRANSLIT:;
#ARTISTTRANSLIT:;
#GENRE:SUPER EUROBEAT;
#CREDIT:;
#BANNER:Rocking Hardcore.png;
#BACKGROUND:Rocking Hardcore-bg.png;
#LYRICSPATH:;
#CDTITLE:;
#MUSIC:Rocking Hardcore.ogg;
#OFFSET:-0.040000;
#SAMPLESTART:40.235001;
#SAMPLELENGTH:12.000000;
#SELECTABLE:YES;
#BPMS:0.000000=158.000000
;
#STOPS:
;
#BGCHANGES:;
#KEYSOUNDS:;
#ATTACKS:;

//---------------dance-single - ----------------
#NOTES:
     dance-single:
     :
     Hard:
     8:
     0.464456,0.521447,0.125650,0.219887,0.176695,414.000000,398.000000,16.000000,28.000000,0.000000,0.000000,0.464456,0.521447,0.125650,0.219887,0.176695,414.000000,398.000000,16.000000,28.000000,0.000000,0.000000:
0000
0000
0000
0000
,
0000
0000
0000
0000
,
0000
0000
0000
0000
,
1000
0000
0000
0000
1000
0000
0000
0000
0001
0100
0000
0001
0000
0000
0000
0000
,
1000
0000
0001
0010
0000
0010
0001
0000
1000
0000
0001
0000
0000
0000
0100
0000
,
0010
0000
0000
0000
0010
0000
0000
0000
1000
0000
0010
1000
0000
0001
0200
0000
,
0000
0000
0000
0000
0000
0000
0000
0000
0310
0000
0000
1000
0000
0000
0001
0000
,
0100
0000
0000
0000
0100
0000
0000
0000
0010
1000
0000
0010
0000
0000
0000
0000
,
0100
0000
0010
1000
0000
1000
0010
0000
0100
0000
0010
0000
0000
0000
0100
0000
,
0001
0000
0000
0000
0001
0000
0000
0000
0100
0000
0010
0100
0000
0001
0200
0000
,
0010
0000
0000
0010
0000
0000
0010
0000
0310
0000
0000
0000
0000
0000
0000
0000
,
1000
0000
0001
0000
1000
0000
0001
0010
,
0100
0010
0100
0010
0000
0100
1000
0010
,
0000
0100
0010
1000
0001
0000
0000
1000
,
0000
0010
0100
0001
1000
0000
0000
0000
,
0001
0000
1000
0000
0001
0000
1000
0100
,
0010
0100
0010
0100
0000
0010
0001
0100
,
0000
0010
0100
0001
1000
0000
0000
0220
,
0000
0000
0330
0000
,
0002
0013
2000
3010
,
0002
0000
0013
0100
0000
0010
0001
1000
,
0100
0001
0100
0010
0000
0011
0000
0000
,
0001
0100
1000
0100
0000
0101
0000
0000
,
2000
3100
0002
0103
,
2000
0000
3100
0010
0000
0010
0001
0000
,
0010
0100
1000
0010
0100
0001
0010
0100
,
1000
0001
1000
0001
1000
0000
0000
0000
,
0010
0101
0010
1100
,
1000
0001
0010
0001
0000
0000
0000
1000
,
0000
0001
0100
0001
0010
0100
0010
0001
,
0000
0000
1000
0001
,
0100
1010
0100
0011
,
0010
0001
1000
0200
0000
0000
0300
0000
,
0000
0010
0100
1000
0001
0100
0010
1000
,
0000
0100
0000
0100
0010
0100
0010
0100
,
1000
0000
0000
0000
1000
0000
0000
0000
0001
0100
0000
0001
0000
0000
0000
0000
,
0100
0000
0001
0100
0000
0100
0010
0000
1000
0000
0100
0000
0000
0000
0100
0000
,
1000
0000
0000
0000
1000
0000
0000
0000
0001
0000
1000
0010
0000
0010
0200
0000
,
0000
0000
0000
0000
0000
0000
0000
0000
0301
0000
0000
1000
0000
0000
0001
0000
,
0010
0000
0000
0000
0010
0000
0000
0000
0100
1000
0000
0100
0000
0000
0000
0000
,
1000
0000
0100
1000
0000
1000
0001
0000
0010
0000
0100
0000
0000
0000
0100
0000
,
0010
0000
0000
0000
0010
0000
0000
0000
0100
0000
0010
0001
0000
0001
2000
0000
,
0001
0000
0000
0001
0000
0000
0001
0000
3001
0000
0000
0000
0000
0000
0000
0000
,
0100
0001
0100
0000
0001
0010
0001
0000
,
0010
0100
0010
0000
0100
1000
0100
0000
,
1000
0010
0100
0000
0010
0100
0001
0000
,
1000
0001
0100
0000
0001
1000
0010
0000
,
0101
0000
1010
0000
,
1000
0100
0010
0001
0000
0000
0000
1000
,
0001
0100
0010
0000
0100
0010
1000
0000
,
0001
0000
0000
1000
0000
0000
0010
0000
2002
0000
0000
0000
0000
0000
3003
0000
,
0001
0000
0100
0000
0001
0000
0100
0010
,
1000
0000
0001
0000
1000
0000
0001
0000
0000
0000
0000
0000
0000
0000
0000
0400
,
0040
0000
0000
0000
,
0000
0000
0000
0000
0000
0000
0000
0330
,
1000
0000
0001
0000
1000
0000
0100
0010
,
0001
0000
0100
0000
0010
0000
0100
0000
0000
0000
0000
0000
0000
0000
0000
0004
,
4000
0000
0000
0000
0000
0000
0000
3003
,
0000
0000
0000
0000
,
0002
0003
2000
3000
,
0002
0000
0000
0020
0000
0000
0033
0000
,
0001
0100
0001
0010
0000
1100
0000
0000
,
0100
1000
0100
0010
0000
0011
0000
0000
,
0002
0013
2000
3010
,
2000
0000
3001
0100
0000
0100
0001
0000
,
0010
0100
1000
0100
0001
0100
0010
0001
,
1000
0001
1000
0001
1000
0000
0000
0000
,
0010
1100
0010
0101
,
0001
1000
0001
0010
0000
0000
0000
0002
,
0000
0013
1000
0010
0100
0010
0001
0200
,
0000
0000
0310
1000
,
0100
0011
0100
1010
,
1000
0001
0010
0200
0000
0000
0000
0300
,
0000
0010
0100
1000
0010
0100
0001
0010
,
0000
0010
0000
0010
0100
0010
0100
0010
,
0001
0000
0000
0000
0001
0000
0000
0000
1000
0010
0000
1000
0000
0000
0000
0000
,
0001
0000
1000
0100
0000
0100
1000
0000
0001
0000
1000
0000
0000
0000
0010
0000
,
0100
0000
0000
0000
0100
0000
0000
0000
0001
0000
0100
0001
0000
1000
0020
0000
,
0000
0000
0000
0000
0000
0000
0000
0000
0130
0000
0000
0001
0000
0000
1000
0000
,
0010
0000
0000
0000
0010
0000
0000
0000
0100
0001
0000
0100
0000
0000
0000
0000
,
0010
0000
0100
0001
0000
0001
0100
0000
0010
0000
0100
0000
0000
0000
0010
0000
,
1000
0000
0000
0000
1000
0000
0000
0000
0010
0000
0100
0010
0000
0010
2000
0000
,
0001
0000
0000
0001
0000
0000
0001
0000
0002
0000
0000
0000
0000
0000
0000
0000
,
3003
0000
0000
0000
;

//---------------dance-single - ----------------
#NOTES:
     dance-single:
     :
     Medium:
     6:
     0.336562,0.423676,0.109944,0.251300,0.086384,300.000000,286.000000,14.000000,32.000000,0.000000,0.000000,0.336562,0.423676,0.109944,0.251300,0.086384,300.000000,286.000000,14.000000,32.000000,0.000000,0.000000:
0000
0000
0000
0000
,
0000
0000
0000
0000
,
0000
0000
0000
0000
,
1000
0000
0000
0000
1000
0000
0000
0000
0001
0000
0000
0100
0000
0000
0000
0000
,
0010
0000
0000
0010
0000
0000
0010
0000
0100
0000
0001
0000
0000
0000
1000
0000
,
0001
0000
0000
0000
1000
0000
0000
0000
0100
0000
0000
0100
0000
0000
0200
0000
,
0000
0000
0000
0000
0000
0000
0000
0000
0310
0000
0000
0100
0000
0000
1000
0000
,
0001
0000
0000
0000
0001
0000
0000
0000
0100
0000
0000
0010
0000
0000
0000
0000
,
0100
0000
0000
0100
0000
0000
0010
0000
1000
0000
0001
0000
0000
0000
1000
0000
,
0100
0000
0000
0000
0100
0000
0000
0000
0010
0000
0000
0010
0000
0000
0020
0000
,
0000
0000
0030
0000
,
0001
0100
0001
1000
,
0010
0000
0100
0000
0000
0100
0010
1000
,
0000
0000
0001
0000
0100
0000
0000
0001
,
0000
1000
0100
0000
,
0010
0100
1000
0010
,
0100
0000
0100
0000
0000
0010
0100
0001
,
0000
0000
1000
0000
0010
0000
0000
0202
,
0000
0000
0000
0303
,
0002
0000
0023
0000
,
0230
0000
0000
2000
0000
0000
3300
0000
,
1000
0100
0010
0001
0000
0011
0000
0000
,
0001
0010
0100
1000
0000
1100
0000
0000
,
2000
0000
3200
0000
,
0320
0000
0000
0002
0000
0000
0033
0000
,
0001
0010
0100
1000
,
0001
1000
0001
1000
0001
0000
0000
0000
,
0010
1001
0100
1001
,
0001
0100
0010
1000
,
0010
0100
0001
1000
,
0100
1000
0010
0100
,
0001
0011
0001
1001
,
0001
0000
1000
0200
0000
0000
0000
0000
,
1300
0000
0010
0000
0100
0000
0001
0200
,
0000
0000
0300
0000
,
0010
0000
0000
0000
1000
0000
0000
0000
0001
0000
0000
1000
0000
0000
0000
0000
,
0001
0000
0000
0100
0000
0000
0010
0000
1000
0000
0100
0000
0000
0000
0010
0000
,
0100
0000
0000
0000
0100
0000
0000
0000
0010
0000
0000
0010
0000
0000
0020
0000
,
0000
0000
0000
0000
0000
0000
0000
0000
0031
0000
0000
0010
0000
0000
0100
0000
,
0010
0000
0000
0000
0001
0000
0000
0000
1000
0000
0000
0001
0000
0000
0000
0000
,
0100
0000
0000
0010
0000
0000
1000
0000
0010
0000
0100
0000
0000
0000
0010
0000
,
1000
0000
0000
0000
0001
0000
0000
0000
0010
0000
0000
0100
0000
0000
2000
0000
,
0000
0000
3000
0000
,
0001
0001
1000
1000
,
0010
0010
0100
0100
,
0002
0103
0020
1030
,
2000
3100
0020
0031
,
0010
0000
0001
0000
,
1000
0010
1000
0020
0000
0000
0030
0000
,
1000
0100
1000
0001
,
0010
0001
0100
0010
,
1000
1000
0001
1000
,
0010
0100
0001
0000
,
4004
0000
0000
0000
,
0000
0000
0000
3003
,
0001
0001
1000
0001
,
0100
0001
0010
0000
,
0440
0000
0000
0000
0000
0000
0000
0330
,
0000
0000
0000
0000
,
1000
0000
0001
0000
,
1000
0000
0000
1000
0000
0000
0000
0000
,
0001
0010
0100
1000
0000
0100
0000
0000
,
1000
0100
0010
0001
0000
0010
0000
0000
,
0002
0000
0203
0000
,
0320
0000
0000
2000
0000
0000
3030
0000
,
1000
0010
0100
0001
1000
0010
0100
0002
,
0000
0000
1003
0001
,
0100
1001
0010
1001
,
0001
0000
1000
0000
0100
0000
0000
0010
,
0000
0010
0100
1000
0100
0010
0100
2000
,
0000
0000
3001
1000
,
0010
1010
1000
1001
,
0001
0000
0010
0200
0000
0000
0300
0000
,
0000
0000
0010
0000
0100
0000
1000
0002
,
0000
0000
0003
0000
,
1000
0000
0000
0000
0010
0000
0000
0000
0100
0000
0000
0010
0000
0000
0000
0000
,
0100
0000
0000
0010
0000
0000
1000
0000
0001
0000
0100
0000
0000
0000
0001
0000
,
0010
0000
0000
0000
0001
0000
0000
0000
1000
0000
0000
1000
0000
0000
0200
0000
,
0000
0000
0000
0000
0000
0000
0300
0000
0010
0000
0000
0100
0000
0000
1000
0000
,
0001
0000
0000
0000
0100
0000
0000
0000
0001
0000
0000
0001
0000
0000
0000
0000
,
0010
0000
0000
0001
0000
0000
1000
0000
0100
0000
1000
0000
0000
0000
0001
0000
,
0100
0000
0000
0000
0010
0000
0000
0000
1000
0000
0000
0001
0000
0000
0100
0000
,
0010
0000
0000
0010
0000
0000
0100
0000
2002
0000
0000
0000
0000
0000
0000
0000
,
3003
0000
0000
0000
;

//---------------dance-single - ----------------
#NOTES:
     dance-single:
     :
     Easy:
     3:
     0.212034,0.291547,0.094237,0.117797,0.000000,189.000000,177.000000,12.000000,15.000000,0.000000,0.000000,0.212034,0.291547,0.094237,0.117797,0.000000,189.000000,177.000000,12.000000,15.000000,0.000000,0.000000:
0000
0000
0000
0000
,
0000
0000
0000
0000
,
0000
0000
0000
0000
,
1000
0001
1000
0000
,
0010
0000
1000
0000
,
0001
0100
0001
1000
,
0200
0000
0300
0000
,
0010
0100
0010
0000
,
0100
0000
1000
0000
,
0001
1000
0001
0001
,
0200
0000
0300
0000
,
0010
1000
0010
1000
,
0001
0100
0001
0000
,
2002
0000
0000
0000
,
0000
0000
0000
3003
,
0001
1000
0010
1000
,
0001
1000
0001
0000
,
0220
0000
0000
0000
0000
0000
0000
0330
,
0000
0000
0000
0000
,
0010
0000
1000
0000
,
0001
0000
0000
0001
0000
0000
0000
0000
,
1000
0001
0100
0000
,
0001
1000
0010
0000
,
0100
0000
0010
0000
,
1000
0000
0000
0001
0000
0000
0000
0000
,
1000
0100
0010
0001
,
1000
0000
0001
0100
,
1001
0000
0110
0000
,
0010
0010
0010
0000
,
0100
0010
1000
0001
,
0010
0000
0001
1000
,
1001
0000
0110
0000
,
0100
0100
0100
0000
,
0000
0010
1000
0001
,
0100
0000
0000
0000
,
0010
1000
0010
0000
,
0100
0000
0001
0000
,
0010
0100
1000
1000
,
2000
0000
3000
0000
,
0001
1000
0001
0000
,
0100
0000
0010
0000
,
0100
0001
0010
0010
,
0020
0000
0030
0000
,
0100
0000
0100
0000
,
0100
0000
0100
0000
,
0020
0000
0000
0000
,
0000
0000
0000
0000
,
0031
0000
1000
0000
,
0010
0100
0010
0000
,
1000
0000
1000
0000
,
0001
0000
0001
0000
,
1000
0010
1000
0010
,
0100
0100
0000
0000
,
2002
0000
0000
0000
,
0000
0000
0000
3003
,
0001
0001
1000
0001
,
0010
0010
0000
0000
,
0220
0000
0000
0000
0000
0000
0000
0330
,
0000
0000
0000
0000
,
0100
0000
0100
0000
,
0100
0000
0000
0000
,
1000
0000
0000
0000
,
0001
0000
0000
0000
,
0100
0000
0010
0000
,
1000
0000
0000
0000
,
0001
0001
1000
1000
,
0001
0000
0100
0010
,
1001
0000
0110
0000
,
1000
1000
1000
0000
,
0001
0000
1000
0000
,
0010
0000
1000
0001
,
1001
0000
0110
0000
,
0001
0001
0001
0000
,
1000
0000
0001
0000
,
0100
0000
0000
0000
,
0010
0000
1000
0000
,
0001
0100
0001
0000
,
1000
0000
0100
1000
,
0200
0000
0300
0000
,
0010
0000
0100
0000
,
0010
0001
1000
0000
,
0001
0000
1000
0001
,
0200
0000
0300
0000
;

//---------------dance-single - ----------------
#NOTES:
     dance-single:
     :
     Beginner:
     1:
     0.117797,0.225384,0.031412,0.000000,0.000000,105.000000,101.000000,4.000000,0.000000,0.000000,0.000000,0.117797,0.225384,0.031412,0.000000,0.000000,105.000000,101.000000,4.000000,0.000000,0.000000,0.000000:
// measure 0
0000
0000
0000
0000
,  // measure 1
0000
0000
0000
0000
,  // measure 2
0000
0000
0000
0000
,  // measure 3
1000
0000
0000
0000
,  // measure 4
0001
0000
0000
0000
,  // measure 5
1000
0000
0001
0000
,  // measure 6
1000
0000
0000
0000
,  // measure 7
0010
0000
0000
0000
,  // measure 8
0100
0000
0000
0000
,  // measure 9
0010
0000
0100
0000
,  // measure 10
0010
0000
0000
0000
,  // measure 11
1000
0000
0000
0000
,  // measure 12
0001
0000
0000
0000
,  // measure 13
0100
0000
0000
0000
,  // measure 14
0010
0000
0000
0000
,  // measure 15
1000
0000
0000
0000
,  // measure 16
0001
0000
0000
0000
,  // measure 17
0010
0000
0000
0000
,  // measure 18
1001
0000
0000
0000
,  // measure 19
1000
0000
1000
0000
,  // measure 20
1000
0000
0000
0000
,  // measure 21
0010
0000
0000
0000
,  // measure 22
0100
0000
0000
0000
,  // measure 23
0001
0000
0001
0000
,  // measure 24
0001
0000
0000
0000
,  // measure 25
0100
0000
0010
0000
,  // measure 26
1001
0000
0000
0000
,  // measure 27
1000
0000
0001
0000
,  // measure 28
1000
1000
1000
0000
,  // measure 29
0010
0000
0100
0000
,  // measure 30
0010
0000
0000
0000
,  // measure 31
0100
0000
0010
0000
,  // measure 32
0100
0100
0100
0000
,  // measure 33
0010
0000
0000
0000
,  // measure 34
0000
0000
0000
0000
,  // measure 35
1000
0000
0000
0000
,  // measure 36
0010
0000
0000
0000
,  // measure 37
0100
0000
0001
0000
,  // measure 38
0100
0000
0000
0000
,  // measure 39
0001
0000
0000
0000
,  // measure 40
1000
0000
0000
0000
,  // measure 41
0010
0000
1000
0000
,  // measure 42
0001
0000
0000
0000
,  // measure 43
0100
0000
0000
0000
,  // measure 44
0100
0000
0000
0000
,  // measure 45
0010
0000
0000
0000
,  // measure 46
0010
0000
0000
0000
,  // measure 47
1000
0000
0001
0000
,  // measure 48
1000
0000
0000
0000
,  // measure 49
0001
0000
0000
0000
,  // measure 50
1000
0000
0000
0000
,  // measure 51
0010
0000
0000
0000
,  // measure 52
0000
0000
0000
0000
,  // measure 53
1001
0000
0000
0000
,  // measure 54
0000
0000
0000
0000
,  // measure 55
0100
0000
0000
0000
,  // measure 56
0000
0000
0000
0000
,  // measure 57
0110
0000
0000
0000
,  // measure 58
0000
0000
0000
0000
,  // measure 59
1000
0000
0000
0000
,  // measure 60
1000
0000
0000
0000
,  // measure 61
0001
0000
0000
0000
,  // measure 62
0001
0000
0000
0000
,  // measure 63
0100
0000
0000
0000
,  // measure 64
0010
0000
0000
0000
,  // measure 65
1000
0000
0001
0000
,  // measure 66
0100
0000
0000
0000
,  // measure 67
0010
0000
0010
0000
,  // measure 68
0100
0000
0000
0000
,  // measure 69
0001
0000
1000
0000
,  // measure 70
0001
0000
1000
1000
,  // measure 71
0001
0000
1000
0000
,  // measure 72
0010
0010
0010
0000
,  // measure 73
0100
0000
0010
0000
,  // measure 74
1000
0000
0000
0000
,  // measure 75
0001
0000
0000
0000
,  // measure 76
0100
0000
0000
0000
,  // measure 77
0010
0000
1000
0000
,  // measure 78
0010
0000
0000
0000
,  // measure 79
1000
0000
0000
0000
,  // measure 80
0001
0000
0000
0000
,  // measure 81
0100
0000
0001
0000
,  // measure 82
0010
0000
0000
0000
;
