#VERSION:0.82;
#TITLE:Nuclear Tactics;
#SUBTITLE:;
#ARTIST:Nush vs. Tanchiky;
#TITLETRANSLIT:;
#SUBTITLETRANSLIT:;
#ARTISTTRANSLIT:;
#GENRE:;
#ORIGIN:;
#CREDIT:;
#BANNER:Nuclear Tactics.png;
#BACKGROUND:Nuclear Tactics-bg.png;
#PREVIEWVID:;
#JACKET:Nuclear Tactics-jacket.png;
#CDIMAGE:;
#DISCIMAGE:;
#LYRICSPATH:;
#CDTITLE:;
#MUSIC:Nuclear Tactics.ogg;
#OFFSET:-0.903000;
#SAMPLESTART:58.512001;
#SAMPLELENGTH:15.000000;
#SELECTABLE:YES;
#BPMS:0.000=100.000,
96.000=200.000,
160.000=100.000,
208.000=200.000;
#STOPS:;
#DELAYS:;
#WARPS:;
#TIMESIGNATURES:0.000=4=4;
#TICKCOUNTS:0.000=4;
#COMBOS:0.000=1;
#SPEEDS:0.000=1.000=0.000=0;
#SCROLLS:0.000=1.000;
#FAKES:;
#LABELS:0.000=Song Start;
#BGCHANGES:;
#KEYSOUNDS:;
#ATTACKS:
;

//---------------dance-single - ----------------
#NOTEDATA:;
#CHARTNAME:;
#STEPSTYPE:dance-single;
#DESCRIPTION:;
#CHARTSTYLE:;
#DIFFICULTY:Hard;
#METER:9;
#RADARVALUES:0.575389,0.591377,0.257587,0.281004,0.320032,447.000000,33.000000,36.000000,0.000000,0.000000,0.000000,0.000000,0.000000,0.575389,0.591377,0.257587,0.281004,0.320032,447.000000,33.000000,36.000000,0.000000,0.000000,0.000000,0.000000,0.000000;
#CREDIT:;
#NOTES:
// measure 0
0000
0000
0000
0000
,  // measure 1
0000
0000
0000
0000
,  // measure 2
0000
0000
0000
0000
,  // measure 3
0000
0000
0000
0000
,  // measure 4
1000
0000
1000
0100
1000
0000
0000
0200
0000
0000
0310
0100
0010
0000
0000
0001
,  // measure 5
0000
0000
0001
0100
0001
0000
0000
0020
0000
0000
0130
0010
0100
0000
0000
0000
,  // measure 6
1000
0000
1000
0001
0100
0000
0000
0002
0000
0000
0103
0010
1000
0000
0000
1000
,  // measure 7
0000
0000
0001
1000
0010
0000
0000
2000
0000
0000
3010
0100
0001
0000
0001
0000
,  // measure 8
1000
0100
0000
0000
0101
0000
0000
1100
0000
0000
0101
0000
0000
0011
0000
0000
,  // measure 9
0001
0100
0000
0000
1100
0000
0000
0101
0000
0000
0011
0000
0000
1010
0000
0000
,  // measure 10
1000
0010
0000
0000
1001
0000
0001
0100
0000
0100
0010
0000
0010
1000
0000
0000
,  // measure 11
0001
0100
0000
0000
0110
0000
1000
0100
0000
0100
0010
0000
0010
0001
0000
0000
,  // measure 12
0001
0100
0001
0000
0001
0000
0100
0010
0000
0010
1000
0000
0000
1100
0000
0000
,  // measure 13
1000
0100
1000
0000
1000
0000
0001
0100
0000
0100
0010
0000
0000
1010
0000
0000
,  // measure 14
0010
0100
0001
0000
0010
0000
0100
1000
0000
0010
0100
0000
0000
0101
0000
0000
,  // measure 15
0100
0010
0000
0000
0110
0000
0002
2000
0000
0000
0000
0000
0000
0000
3003
0000
,  // measure 16
1000
0100
1000
0010
0100
0010
0100
0001
,  // measure 17
0100
0001
0010
0001
0010
0100
0010
0100
,  // measure 18
1000
0001
0100
0001
1000
0100
1000
0001
,  // measure 19
0010
0001
1000
0010
1000
0100
0020
0000
,  // measure 20
0031
0000
0100
0001
0010
0000
0001
0000
1000
0000
0010
1000
0100
0000
0010
0000
,  // measure 21
0001
0000
1000
0001
0010
0000
0001
0000
0100
0000
0001
1000
0010
0000
0010
0000
,  // measure 22
1000
0000
0100
1000
0000
1000
0010
0100
0001
0000
0100
0001
0000
0001
0010
0100
,  // measure 23
1000
0000
1100
0000
1001
0000
0010
0001
0200
0000
0000
0000
0000
0000
0300
0000
,  // measure 24
0001
0000
0001
1000
0010
0000
0010
0100
,  // measure 25
0000
0100
0001
0000
1000
0100
1000
0010
,  // measure 26
0200
0000
0310
0000
0200
0000
0310
1000
,  // measure 27
0000
0001
0010
0000
0001
1000
0010
0000
,  // measure 28
1000
0000
1000
0001
0010
0000
0100
1000
,  // measure 29
0000
1000
0001
0000
0100
0020
0000
0000
,  // measure 30
2030
0000
3001
0000
0002
0000
1003
0010
,  // measure 31
0100
0001
0010
0200
0000
0000
0310
0000
,  // measure 32
0001
0100
0010
0000
0010
1000
0100
0000
,  // measure 33
0100
0010
0001
0100
0000
0100
0010
0000
,  // measure 34
1000
0001
0010
0000
0100
1000
0010
0000
,  // measure 35
0010
1000
0001
0010
0000
0010
0100
0000
,  // measure 36
1000
0001
1000
0000
2001
0000
0100
3002
,  // measure 37
0000
0100
2003
0000
0010
3001
0000
0001
,  // measure 38
0100
0000
0001
1000
0010
0000
1000
0100
,  // measure 39
0000
0100
1000
0010
0100
0002
0000
0000
,  // measure 40
0013
0000
0001
0000
0010
0000
0100
1000
0000
0000
0100
0000
1000
0000
0010
0100
,  // measure 41
0000
0000
0001
0000
0100
0000
0001
0010
0000
0000
0001
0000
0010
0100
1000
0000
,  // measure 42
0001
0000
0100
0000
1000
0000
0100
0001
0000
0000
0010
0000
1000
0000
0010
0001
,  // measure 43
0000
0000
0100
0000
0010
0000
1000
0100
0000
0000
1000
0000
0010
0100
0001
0000
,  // measure 44
0100
0010
0000
0000
1001
0000
0000
0120
0000
0000
1000
0000
0000
0031
0000
0000
,  // measure 45
1000
0100
0000
0000
0011
0000
0000
2100
0000
0000
0001
0000
0000
3010
0000
0000
,  // measure 46
0001
0100
0000
0000
1001
0000
0000
0201
0000
0000
1000
0000
0000
0301
0000
0000
,  // measure 47
1000
0100
0000
0000
1001
0000
0200
0020
0000
0000
0000
0000
0000
0000
0330
0000
,  // measure 48
0001
0000
1000
0010
0100
0000
0100
0000
0001
0000
0010
0100
1000
0000
0001
0000
,  // measure 49
1000
0000
0001
0100
0010
0000
0010
0000
1000
0000
0100
0010
0001
0000
1000
0000
,  // measure 50
1100
0000
0000
0101
0000
0000
1100
0000
0110
0000
0000
0011
0000
0000
1010
0000
,  // measure 51
0010
1000
0001
0100
0001
0010
0100
1000
0020
0000
0000
0000
0000
0000
0030
0000
,  // measure 52
0100
0000
0100
0001
0020
0000
0031
0020
,  // measure 53
0000
0130
0020
0000
1030
0010
0001
0100
,  // measure 54
0010
1000
0010
0000
1010
0000
0001
0100
,  // measure 55
0000
0010
0000
1000
0010
0200
0000
0000
,  // measure 56
0301
0000
0001
1000
0200
0000
0310
0200
,  // measure 57
0000
0301
0200
0000
1300
0100
0010
0001
,  // measure 58
0010
0000
0010
0001
0100
0000
0001
1000
,  // measure 59
0100
1000
0001
0020
0000
0000
0130
0000
,  // measure 60
1000
0100
1000
0000
1000
0001
0100
0001
,  // measure 61
0010
0001
0100
0000
0001
0100
0001
1000
,  // measure 62
0100
1000
0010
0000
0010
0100
0001
0100
,  // measure 63
0010
1000
0100
0020
0000
0000
0130
0000
,  // measure 64
1000
0001
0100
0000
0210
0000
0001
0320
,  // measure 65
0000
1000
0230
0000
0301
0010
0100
1000
,  // measure 66
0001
0000
1000
0001
0010
0001
1000
0010
,  // measure 67
0100
0001
0010
0100
0000
0100
1000
0010
,  // measure 68
0100
1000
0100
0001
0100
0000
0000
1001
;

//---------------dance-single - ----------------
#NOTEDATA:;
#CHARTNAME:;
#STEPSTYPE:dance-single;
#DESCRIPTION:;
#CHARTSTYLE:;
#DIFFICULTY:Beginner;
#METER:2;
#RADARVALUES:0.126006,0.134404,0.015611,0.000000,0.000000,111.000000,2.000000,0.000000,0.000000,0.000000,0.000000,0.000000,0.000000,0.126006,0.134404,0.015611,0.000000,0.000000,111.000000,2.000000,0.000000,0.000000,0.000000,0.000000,0.000000,0.000000;
#CREDIT:;
#NOTES:
0000
0000
0000
0000
,
0000
0000
0000
0000
,
0000
0000
0000
0000
,
0000
0000
0000
0000
,
1000
0000
1000
0000
,
0001
0000
0001
0000
,
0100
0000
0100
0000
,
0010
0000
0010
0000
,
1000
1000
0000
0000
,
0100
0100
0000
0000
,
0001
0001
0000
0000
,
0010
0010
0000
0000
,
0001
0001
0000
0000
,
0100
0100
0000
0000
,
1000
1000
0000
0000
,
0010
0010
0000
0000
,
1000
0000
1000
0000
,
0001
0000
0001
0000
,
1000
0000
1000
0000
,
0001
0000
0001
0000
,
1000
0000
0100
0000
,
0001
0000
0100
0000
,
1000
0000
0100
0000
,
0001
0000
0010
0000
,
0001
0000
0000
0000
,
0001
0000
0000
0000
,
0100
0000
0100
0000
,
0100
0000
0100
0000
,
0001
0000
0000
0000
,
0001
0000
0000
0000
,
0010
0000
0010
0000
,
0010
0000
0000
0000
,
1000
0000
1000
0000
,
0001
0000
0001
0000
,
1000
0000
1000
0000
,
0010
0000
0000
0000
,
0001
0000
0000
0000
,
1000
0000
0000
0000
,
0100
0000
0100
0000
,
0100
0000
0000
0000
,
1000
1000
0000
0001
,
0000
1000
0000
0001
,
0000
0100
0000
0010
,
0000
0100
0000
0010
,
0000
0001
0000
1000
,
0000
0001
0000
1000
,
0000
0100
0000
0010
,
0000
0100
0100
0000
,
1000
0000
0000
0000
,
0001
0000
0000
0000
,
1000
0000
0001
0000
,
1000
0000
1001
0000
,
1000
0000
0000
0000
,
1000
0000
0000
0000
,
0100
0000
0100
0000
,
0100
0000
0100
0000
,
0001
0000
0000
0000
,
0001
0000
0000
0000
,
0010
0000
0010
0000
,
0010
0000
0000
0000
,
0001
0000
0001
0000
,
1000
0000
1000
0000
,
0001
0000
0001
0000
,
0010
0000
0000
0000
,
1000
0000
0000
0000
,
0001
0000
0000
0000
,
0100
0000
0100
0000
,
0100
0000
0000
0000
,
0010
0000
0000
0000
0000
0000
0000
1001
;

//---------------dance-single - ----------------
#NOTEDATA:;
#CHARTNAME:;
#STEPSTYPE:dance-single;
#DESCRIPTION:;
#CHARTSTYLE:;
#DIFFICULTY:Easy;
#METER:4;
#RADARVALUES:0.234170,0.268808,0.031223,0.085862,0.015611,195.000000,4.000000,11.000000,0.000000,0.000000,0.000000,0.000000,0.000000,0.234170,0.268808,0.031223,0.085862,0.015611,195.000000,4.000000,11.000000,0.000000,0.000000,0.000000,0.000000,0.000000;
#CREDIT:;
#NOTES:
0000
0000
0000
0000
,
0000
0000
0000
0000
,
0000
0000
0000
0000
,
0000
0000
0000
0000
,
1000
0100
1000
0100
,
1000
0001
1000
0001
,
0100
0001
0100
0001
,
0100
0010
0100
0010
,
1000
1000
1000
0000
,
0001
0001
0001
0000
,
0100
0100
0100
0000
,
0010
0010
0010
0000
,
0001
0001
0001
0000
,
1000
1000
1000
0000
,
0100
0100
0100
0000
,
0010
0010
0010
0000
,
0001
0100
0001
1000
,
0001
0010
0001
1000
,
1000
0001
1000
0100
,
1000
0001
1000
0010
,
0100
0001
0100
0010
,
1000
0100
1000
0001
,
0010
0001
0010
0100
,
1000
0000
0001
0000
0200
0000
0000
0300
,
0001
0000
0010
0000
0001
0000
0000
0001
,
0000
0002
0000
0003
,
1000
0000
0100
0000
,
1000
0000
0010
0000
,
1000
0000
0100
0000
1000
0000
0000
1000
,
0000
0000
2000
0000
0000
3000
0000
0000
,
0001
0000
0100
0000
,
0020
0000
0000
0030
,
0001
0100
0001
0000
,
0100
0010
0100
0000
,
1000
0010
1000
0000
,
0100
1000
0100
0010
,
0001
0000
0000
0000
1000
0000
0000
0001
,
0000
0000
1000
0000
0000
0001
0000
0000
,
0100
0000
0000
0000
0100
0000
0000
0020
,
0000
0000
0000
0030
,
1000
1000
0100
0100
,
0001
0001
0100
0100
,
1000
1000
0010
0010
,
0001
0001
0010
0010
,
1000
0000
0000
0000
0001
0000
0000
2000
0000
0000
0000
0000
0000
3000
0000
0000
,
0001
0000
0000
0000
0100
0000
0000
0020
0000
0000
0000
0000
0000
0030
0000
0000
,
1000
0000
0000
0000
0001
0000
0000
0200
0000
0000
0000
0000
0000
0300
0000
0000
,
0010
0000
0000
0000
1000
0000
0000
0001
0000
0000
0000
0000
0000
0000
0000
0000
,
0100
0001
0100
0010
,
1000
0100
1000
0001
,
0010
0100
1000
0001
,
0100
0000
0010
0000
0220
0000
0000
0330
,
0001
0000
0000
0000
1000
0000
0000
0001
,
0000
1000
0100
0000
,
1000
1000
0100
0000
,
0001
0001
0100
0000
,
1000
0000
0000
0000
0001
0000
0000
1000
,
0000
0001
0010
0000
,
0001
0001
0100
0000
,
1000
0000
1000
0020
0000
0000
0030
0000
,
0000
1000
0000
0100
,
0000
1000
0000
1001
,
0000
0001
0000
0100
,
0000
0010
0000
0110
,
0010
0000
0000
0000
0100
0000
0000
0001
,
0000
0010
0100
0000
,
0010
0000
0000
0000
0100
0000
0000
1000
,
0000
0010
0100
0000
,
0001
0000
0000
0000
1000
0000
0000
1001
;

//---------------dance-single - ----------------
#NOTEDATA:;
#CHARTNAME:;
#STEPSTYPE:dance-single;
#DESCRIPTION:;
#CHARTSTYLE:;
#DIFFICULTY:Medium;
#METER:6;
#RADARVALUES:0.421506,0.430092,0.273198,0.171725,0.199045,321.000000,35.000000,22.000000,0.000000,0.000000,0.000000,0.000000,0.000000,0.421506,0.430092,0.273198,0.171725,0.199045,321.000000,35.000000,22.000000,0.000000,0.000000,0.000000,0.000000,0.000000;
#CREDIT:;
#NOTES:
0000
0000
0000
0000
,
0000
0000
0000
0000
,
0000
0000
0000
0000
,
0000
0000
0000
0000
,
1000
0000
0100
0000
1000
0000
0000
0001
0000
0000
1000
0000
0010
0000
0000
0000
,
0100
0000
0001
0000
0100
0000
0000
0010
0000
0000
0100
0000
0001
0000
0000
0000
,
0010
0000
0001
0000
0010
0000
0000
0100
0000
0000
1000
0000
0010
0000
0000
0000
,
0100
0000
0010
0000
0100
0000
0010
1000
0000
0000
0010
0000
0100
0000
0100
0000
,
0001
0100
0000
0000
0001
0000
0000
0101
0000
0000
0100
0000
0000
0001
0000
0000
,
1000
0100
0000
0000
1000
0000
0000
1100
0000
0000
0100
0000
0000
0010
0000
0000
,
0001
0010
0000
0000
0001
0000
0000
0011
0000
0000
0010
0000
0000
0001
0000
0000
,
1000
0010
0000
0000
1000
0000
0000
1010
0000
0000
0100
0000
0000
0100
0000
0000
,
0001
0100
0000
0000
0001
0000
0000
1001
0000
0000
1000
0000
0000
0010
0000
0000
,
1000
0100
0000
0000
0010
0000
0000
0110
0000
0000
1000
0000
0000
0010
0000
0000
,
1000
0001
0000
0000
0101
0000
0000
1100
0000
0000
0100
0000
0000
0010
0000
0000
,
0100
1000
0000
0001
0100
0000
0000
0200
0000
0000
0000
0000
0000
0000
0300
0000
,
0001
0000
1000
0100
0010
0000
0010
0001
,
0100
0000
0100
0010
1000
0000
1000
0001
,
0100
0000
0100
0001
0010
0000
0010
0100
,
1000
0000
0100
0010
0001
0000
1000
0010
,
0100
0000
0000
0101
0000
0000
0000
0000
1000
0000
0000
1100
0000
0000
0000
0000
,
0001
0000
0000
0011
0000
0000
0000
0000
0010
0000
0000
0110
0000
0000
0100
0000
,
1000
0001
1000
0001
0100
0010
0100
0010
,
1000
0001
1000
0100
0020
0000
0000
0030
,
0001
0000
0100
0000
0010
0000
0000
1010
,
0000
0011
0000
1000
,
0020
0000
1030
0000
0020
0000
1030
0100
,
0000
0100
0010
0001
,
1000
0000
0100
0000
0010
0000
0000
0011
,
0000
1010
0000
0001
,
0020
0000
0031
0000
0020
0000
0031
0100
,
0000
0100
0001
0020
0000
0000
0030
0000
,
0001
0100
1000
0100
,
0001
0010
1000
0010
,
0001
0002
1003
2000
,
3010
0020
0130
0200
,
0301
0000
1000
0000
0010
0000
0000
0110
,
0000
0000
1001
0000
0000
0110
0000
0000
,
0001
0000
1000
0000
0010
0000
1000
0001
,
0000
0010
0100
1000
,
1000
0000
1000
0000
0100
0000
0010
0001
0000
0000
1000
0000
0010
0000
1000
0001
,
0000
0000
0010
0000
0100
0000
0010
0001
0000
0000
1000
0000
0100
0000
1000
0000
,
0001
0000
0001
0000
0100
0000
0010
1000
0000
0000
0010
0000
0100
0000
0001
1000
,
0000
0000
0100
0000
0010
0000
0001
1000
0000
0000
1000
0000
0100
0000
0100
0000
,
0010
0001
0000
0000
0011
0000
0000
1001
0000
0000
1000
0000
0000
0100
0000
0000
,
1000
0010
0000
0000
1010
0000
0000
0110
0000
0000
0100
0000
0000
0001
0000
0000
,
1000
0100
0000
0000
1100
0000
0000
1001
0000
0000
0010
0000
0000
0001
0000
0000
,
0100
0001
0000
0000
0101
0000
0000
2002
0000
0000
0000
0000
0000
0000
3003
0000
,
1000
0000
0001
0100
0001
0000
1000
0100
,
1000
0000
0001
0010
0001
0000
1000
0010
,
0100
0000
0000
0110
0000
0000
0010
0000
0100
0000
0000
0110
0000
0000
0010
0000
,
0100
0100
0010
2000
0002
0000
0000
3003
,
0001
0000
0100
0010
2000
0000
0000
0001
,
0000
0100
3001
0100
,
0010
0000
1000
0000
0010
0000
0000
0010
,
0000
0001
0010
0000
,
1000
0000
0100
0010
0002
0000
0000
1000
,
0000
0010
1003
0010
,
0100
0001
0100
0000
,
0001
0000
1000
0020
0000
0000
0030
0000
,
1000
0010
1000
0100
,
0010
0001
0100
0001
,
1000
0000
0010
0000
0100
0001
0100
0000
,
0001
0000
1000
0000
0100
0010
0100
0000
,
1000
0000
0100
0010
0001
0000
0000
0011
,
0000
0000
1010
0000
0000
1001
0000
0000
,
0220
0330
2002
3003
,
0001
0100
0010
1000
0100
0010
0001
0000
,
1000
1000
0000
0100
0010
0000
0000
0110
;
