#TITLE:Little Lion Man;
#SUBTITLE:;
#ARTIST:Tonight Alive;
#TITLETRANSLIT:;
#SUBTITLETRANSLIT:;
#ARTISTTRANSLIT:;
#GENRE:;
#CREDIT:;
#BANNER:[Round A] - Little Lion Man.png;
#BACKGROUND:[Round A] - Little Lion Man-bg.png;
#LYRICSPATH:;
#CDTITLE:;
#MUSIC:[Round A] - Little Lion Man.ogg;
#OFFSET:0.000000;
#SAMPLESTART:102.595001;
#SAMPLELENGTH:14.769000;
#SELECTABLE:YES;
#BPMS:0.000000=130.000000
;
#STOPS:
;
#BGCHANGES:;
#KEYSOUNDS:;
#ATTACKS:;

//---------------dance-single - ----------------
#NOTES:
     dance-single:
     Telperion:
     Challenge:
     12:
     0.767112,1.056499,0.345143,0.200665,0.963190,669.000000,623.000000,43.000000,25.000000,8.000000,4.000000,0.767112,1.056499,0.345143,0.200665,0.963190,669.000000,623.000000,43.000000,25.000000,8.000000,4.000000:
0000
0000
0000
0000
,
0000
0000
0000
0000
,
0000
0000
0000
0000
,
0000
0000
0000
0000
,
0000
0000
0000
0000
,
0000
0000
0000
0000
,
0000
0000
0000
0000
,
0000
0000
0000
0000
,
1000
0010
1000
0010
0100
0001
0100
0001
,
1000
0100
1000
0100
0010
0001
1000
0001
,
0100
0010
0100
0001
0100
0010
0100
0001
,
1000
0100
1000
0001
1000
0100
0010
0001
,
1000
0010
1000
0010
0100
0001
0100
0001
,
1000
0100
1000
0100
0010
0001
0010
0001
,
1000
0010
0100
0001
1000
0001
0100
0010
,
1000
0001
0010
0100
1000
0100
0010
0001
,
2000
0000
3020
0000
,
0230
0000
0000
0000
,
0302
0000
0023
0000
,
0230
0000
0000
0000
,
0302
0000
0203
0000
,
2300
0000
0000
0000
,
3002
0000
0003
0000
0000
0000
0000
0000
0000
0000
0000
0000
0000
0000
0000
0000
0000
0000
0000
0000
0000
0000
0000
0000
0200
0000
0000
0000
0300
0000
0000
0000
0000
0000
0000
0000
0000
0000
0000
0000
0000
0000
0000
0000
0000
0000
0000
0000
0002
0000
0000
0000
0000
0000
0003
0000
0000
0000
0000
0000
0000
0000
0000
0000
0000
0000
0000
0000
0000
0000
0000
0000
2000
0000
0000
0000
0000
0000
0000
0000
3000
0000
0000
0000
0000
0000
0000
0000
0000
0000
0000
0000
0000
0000
0000
0000
0002
0000
0000
0000
0000
0000
0000
0000
0000
0000
0003
0000
0000
0000
0000
0000
0000
0000
0000
0000
0000
0000
0000
0000
0020
0000
0000
0000
0000
0000
0000
0000
0000
0000
0000
0000
0030
0000
0000
0000
0000
0000
0000
0000
0000
0000
0000
0000
0002
0000
0000
0000
0000
0000
0000
0000
0000
0000
0000
0000
0000
0000
0003
0000
0000
0000
0000
0000
0000
0000
0000
0000
2000
0000
0000
0000
0000
0000
0000
0000
0000
0000
0000
0000
0000
0000
0000
0000
3000
0000
0000
0000
0000
0000
0000
0000
,
0002
0000
0000
0000
0000
0000
0000
0000
0000
0000
0000
0000
0000
0000
0000
0000
0000
0000
0003
0000
0000
0000
0000
0000
0200
0000
0000
0000
0000
0000
0000
0000
0000
0000
0000
0000
0000
0000
0000
0000
0000
0000
0000
0000
0300
0000
0000
0000
0020
0000
0000
0000
0000
0000
0000
0000
0000
0000
0000
0000
0000
0000
0000
0000
0000
0000
0000
0000
0000
0000
0030
0000
2000
0000
0000
0000
0000
0000
0000
0000
0000
0000
0000
0000
0000
0000
0000
0000
0000
0000
0000
0000
0000
0000
0000
0000
3001
0000
0000
0000
0000
0000
0000
0000
0000
0000
0000
0000
0000
0000
0000
0000
0000
0000
0000
0000
0000
0000
0000
0000
0000
0000
0000
0000
0000
0000
0000
0000
0000
0000
0000
0000
0000
0000
0000
0000
0000
0000
0000
0000
0000
0000
0000
0000
0000
0000
0000
0000
0000
0000
0000
0000
0000
0000
0000
0000
0000
0000
0000
0000
0000
0000
0000
0000
0000
0000
0000
0000
0000
0000
0000
0000
0000
0000
0000
0000
0000
0000
0000
0000
0000
0000
0000
0000
0000
0000
0000
0000
0000
0000
0000
0000
,
1000
0100
0100
0001
0100
0100
1000
0010
0010
0001
0010
0010
1000
0001
0100
0001
,
1000
0100
0100
0001
0100
0100
1000
0010
1000
0001
0010
0001
1000
0100
1000
0100
,
0010
0100
0100
0001
0100
0100
0010
0100
1000
0001
0100
0100
1000
0001
1000
0100
,
0010
0000
0100
0000
0100
0000
0001
0000
0100
0000
0100
0000
0010
0000
0001
0000
1000
0000
0001
0100
0001
0000
1000
0000
0100
0000
0010
0000
0100
0000
0010
0000
,
0001
0100
0100
1000
0100
0100
0001
0010
0010
1000
0010
0010
0001
1000
0100
0010
,
0001
0100
0100
1000
0100
0100
0001
0010
0100
1000
0010
1000
0001
0100
0010
1000
,
0001
0100
0100
1000
0100
0100
0010
0100
0001
1000
0100
0100
0001
1000
0001
0100
,
0010
0100
0100
1000
0100
0100
0010
1000
0001
0100
0001
0010
0100
1000
0001
1000
,
0010
0000
0100
0001
0100
0010
0100
0000
0001
1000
0001
0100
0010
0001
0010
1000
,
0001
0000
0010
0100
1000
0001
0100
0010
0001
0000
0010
0100
0001
1000
0100
0010
,
0001
0000
1000
0100
1000
0001
0100
0010
0100
0001
1000
0100
0010
1000
0010
0001
,
1000
0000
0010
0100
0001
1000
0001
0010
0001
1000
0010
0100
1000
0100
0001
0000
,
0010
0000
0100
1000
0100
0010
0001
1000
0010
1000
0001
0010
0100
0001
0100
1000
,
0001
0000
0010
0100
1000
0001
0100
0010
0001
0010
0100
0010
1000
0001
1000
0100
,
0010
0000
0001
0010
0100
1000
0001
1000
0010
1000
0001
0010
0100
0001
0100
1000
,
0001
0000
0010
0100
1000
0001
0100
0010
0001
0010
0100
0001
1000
0100
0010
0000
,
0001
0100
0100
1000
0010
1000
0100
0010
0001
0100
0100
1000
0001
0100
0010
0000
,
1000
0100
0100
0001
0010
0001
0100
0010
1000
0100
0100
0001
0010
0100
1000
0000
,
0001
0100
0100
1000
0010
1000
0100
0010
0000
0001
1000
0001
0010
0000
0110
0000
,
1000
0100
0100
0001
0010
0001
0100
0010
0000
1000
0010
1000
0001
0000
0101
0000
,
1000
0100
0100
0001
0010
0001
0100
0010
1000
0100
0100
0001
1000
0100
0010
0000
,
0001
0100
0100
1000
0010
1000
0100
0010
0001
0100
0100
1000
0010
0100
0001
0000
,
1000
0100
0100
0001
0010
0001
0100
0010
0000
1000
0001
1000
0010
0000
0100
0000
,
0011
1100
0011
1100
0000
M101
1M10
01M1
,
000M
0000
00M0
0000
0M00
0000
0M00
M000
,
0011
0000
1000
0010
0100
0001
1000
0010
0000
0010
0001
0000
1000
0010
1000
0010
,
0100
0000
0001
0010
0100
0001
0100
1000
0001
0000
1000
0010
0100
1000
0100
0001
,
1000
0000
0001
0010
0100
1000
0001
0010
0000
0010
1000
0000
0010
1000
0001
1000
,
0001
0100
0100
1000
0010
0010
0001
0010
0010
1000
0100
0100
0001
0010
0100
1000
,
0000
1000
0001
0000
1100
0000
0001
1000
0010
0100
0001
0100
0000
0100
1000
0000
,
0101
0000
1000
0001
0100
0001
1000
0010
0000
0010
0001
0000
1000
0010
1000
0010
,
0100
0000
0000
0000
0001
0000
1000
0000
0100
0000
1000
0000
0001
0000
0010
0000
0001
0000
0000
0000
1000
0000
0001
0100
0001
0000
1000
0000
0010
0000
0100
0000
,
0011
1000
0001
0100
0011
0000
1000
0000
1100
0001
1000
0010
1100
0000
0001
0000
,
0101
1000
0100
0010
0101
0000
1000
0000
1010
0001
0010
0100
1010
0100
1000
0000
,
0011
1000
0001
1000
0101
0000
1000
0000
1100
0001
1000
0001
1010
0000
0001
0000
,
0101
1000
0001
0100
0011
0000
1000
0000
1010
0001
1000
0010
1100
0001
1000
0100
,
1010
0000
1000
0000
1101
0000
0001
0000
1011
0000
1000
0001
1100
0000
0001
0000
,
1011
0000
0001
1000
0101
0000
0010
0000
0101
1000
0000
0001
1010
0000
0101
1000
,
0001
0000
0000
0100
0000
0000
0010
0000
0000
0100
0000
0000
0011
0000
0000
1100
0000
0000
0001
0000
1000
0000
0100
0000
0010
0000
0000
0100
0000
0000
1000
0000
0000
0001
0000
0000
1010
0000
0000
0101
0000
0000
1000
0000
0000
0001
0000
0000
,
0100
0022
2200
0000
0000
0000
0000
0000
,
0000
0000
0000
0000
,
0000
0000
0000
0000
,
0000
0000
0000
0000
,
0000
0000
3333
0000
;

//---------------dance-single - ----------------
#NOTES:
     dance-single:
     Telperion:
     Hard:
     9:
     0.540074,0.704333,0.288957,0.353170,0.369223,471.000000,435.000000,36.000000,44.000000,0.000000,0.000000,0.540074,0.704333,0.288957,0.353170,0.369223,471.000000,435.000000,36.000000,44.000000,0.000000,0.000000:
0000
0000
0000
0000
,
0000
0000
0000
0000
,
0000
0000
0000
0000
,
0000
0000
0000
0000
,
0000
0000
0000
0000
,
0000
0000
0000
0000
,
0000
0000
0000
0000
,
0000
0000
0000
0000
,
1000
0010
1000
0001
0010
0100
1000
0000
,
0001
0000
0010
0000
0001
0000
1000
0000
0010
0100
0000
0001
0000
0000
1000
0000
,
0100
1000
0100
1000
0001
0100
0001
0100
,
0010
1000
0010
1000
0001
0010
0001
0010
,
0200
0000
0000
2300
0000
0000
3001
0000
1000
0000
0010
0000
0100
0000
0010
0000
,
0001
0010
1000
0001
0010
0100
1000
0001
,
0100
0001
0100
0001
1000
0100
1000
0100
,
0010
0001
0010
0001
1000
0010
0100
0001
,
2000
0000
3200
0000
,
0320
0000
0000
0000
,
0032
0000
0203
0000
,
0320
0000
0000
0000
,
0032
0000
0023
0000
,
2030
0000
0000
0000
,
3002
0000
0003
0000
0000
0000
0000
0000
0000
0000
0000
0000
0000
0000
0000
0000
0000
0000
0000
0000
0000
0000
0000
0000
0200
0000
0000
0000
0300
0000
0000
0000
0000
0000
0000
0000
0000
0000
0000
0000
0000
0000
0000
0000
0000
0000
0000
0000
0002
0000
0000
0000
0000
0000
0003
0000
0000
0000
0000
0000
0000
0000
0000
0000
0000
0000
0000
0000
0000
0000
0000
0000
2000
0000
0000
0000
0000
0000
0000
0000
3000
0000
0000
0000
0000
0000
0000
0000
0000
0000
0000
0000
0000
0000
0000
0000
0002
0000
0000
0000
0000
0000
0000
0000
0000
0000
0003
0000
0000
0000
0000
0000
0000
0000
0000
0000
0000
0000
0000
0000
0020
0000
0000
0000
0000
0000
0000
0000
0000
0000
0000
0000
0030
0000
0000
0000
0000
0000
0000
0000
0000
0000
0000
0000
0002
0000
0000
0000
0000
0000
0000
0000
0000
0000
0000
0000
0000
0000
0003
0000
0000
0000
0000
0000
0000
0000
0000
0000
2000
0000
0000
0000
0000
0000
0000
0000
0000
0000
0000
0000
0000
0000
0000
0000
3000
0000
0000
0000
0000
0000
0000
0000
,
0020
0000
0000
0000
0000
0000
0000
0000
0000
0000
0000
0000
0000
0000
0000
0000
0000
0000
0030
0000
0000
0000
0000
0000
0200
0000
0000
0000
0000
0000
0000
0000
0000
0000
0000
0000
0000
0000
0000
0000
0000
0000
0000
0000
0300
0000
0000
0000
0002
0000
0000
0000
0000
0000
0000
0000
0000
0000
0000
0000
0000
0000
0000
0000
0000
0000
0000
0000
0000
0000
0003
0000
2000
0000
0000
0000
0000
0000
0000
0000
0000
0000
0000
0000
0000
0000
0000
0000
0000
0000
0000
0000
0000
0000
0000
0000
3000
0000
0000
0000
0000
0000
0000
0000
0000
0000
0000
0000
0000
0000
0000
0000
0000
0000
0000
0000
0000
0000
0000
0000
0000
0000
0000
0000
0000
0000
0000
0000
0000
0000
0000
0000
0000
0000
0000
0000
0000
0000
0000
0000
0000
0000
0000
0000
0000
0000
0000
0000
0000
0000
0000
0000
0000
0000
0000
0000
0000
0000
0000
0000
0000
0000
0000
0000
0000
0000
0000
0000
0000
0000
0000
0000
0000
0000
0000
0000
0000
0000
0000
0000
0000
0000
0000
0000
0000
0000
0000
0000
0000
0000
0000
0000
,
0001
0000
0100
0001
0000
0000
2010
0000
0000
3001
1000
0000
0100
0000
0010
0000
,
0001
0000
0100
0001
0000
0000
1020
0000
0000
0130
0010
0000
1000
0001
1000
0001
,
0010
0000
0100
0010
0000
0000
0012
0000
0000
1003
0001
0000
0100
0000
0010
0000
,
1000
0000
0001
1000
0000
0000
0011
0000
4000
0000
0000
0000
3010
0100
0010
0100
,
0001
0000
0010
0001
0000
0000
2100
0000
0000
3001
1000
0000
0010
0000
0100
0000
,
0001
0000
0010
0001
0000
0000
1200
0000
0000
0310
0100
0000
1000
0001
1000
0001
,
0100
0000
0010
0100
0000
0000
0102
0000
0000
1003
0001
0000
0010
0000
0100
0000
,
1000
0000
0001
1000
0000
0000
0101
0000
0100
0010
0100
0010
1000
0001
1000
0001
,
0010
0000
0100
0000
1000
0000
0001
0000
0010
0000
0100
0000
1000
0001
1000
0001
,
0100
0000
0010
0000
1000
0000
0001
0000
0100
0000
0010
0000
1000
0001
1000
0001
,
0010
0000
0100
0000
0001
0000
1000
0000
0010
0000
0001
0000
0100
0000
0010
1000
,
0010
0100
1000
0001
0010
1000
0100
0010
,
0011
0000
1000
0000
0001
0000
0100
0001
0100
0000
0010
0000
1000
0001
1000
0001
,
0010
0000
0001
0000
1000
0000
0100
1000
0100
0000
0010
0000
0001
1000
0001
1000
,
0010
0110
0000
0101
0000
1100
1000
0001
,
0020
0100
0000
0100
0032
1000
0000
0100
,
1003
0001
1000
0000
0010
0100
0000
0001
0000
0000
1000
0000
0100
0000
0020
0000
,
0031
1000
0001
0000
0010
0100
0000
1000
0000
0000
0010
0000
0100
0000
0001
0000
,
1000
0100
1000
0000
0001
1000
0000
0010
0000
0000
0100
0000
0010
0000
2000
0000
,
3001
0100
0001
0000
1000
0100
0000
0010
0000
0000
0001
0000
1000
0000
0100
0000
,
0010
0001
0010
0000
0100
1000
0000
0010
0000
0000
0001
0000
0010
0000
2000
0000
,
3100
1000
0100
0000
0010
0001
0000
0100
0000
0000
0100
0000
0010
0000
1000
0000
,
0001
0100
0001
0000
1000
0100
0000
0010
0000
0000
1000
0000
0010
0000
0002
0000
,
0100
1000
0100
1003
0000
1100
1100
1100
,
0002
0000
0023
0000
0230
0000
2300
3002
,
0103
0000
0001
1000
0000
0001
0100
0001
0000
0000
0101
0000
1000
0000
0100
0000
,
0011
0000
0110
0000
1100
0000
1000
0001
,
0100
0000
0010
1000
0000
0010
0100
0001
0000
0000
0101
0000
1000
0000
0001
0000
,
0010
0100
1000
0000
0001
0100
0001
1000
0000
0100
0010
0000
0001
1000
0010
1000
,
0000
0001
0010
0000
0100
0000
1000
0000
0001
1000
0002
0000
0000
0000
0203
0000
,
0000
0000
0310
1000
0000
1000
0001
1000
0000
0000
1100
0000
0001
0000
0010
0000
,
0100
0000
0010
0001
0000
0010
0100
0000
1100
0000
1000
0000
0001
0000
0100
0000
,
0110
0000
1000
0010
1000
0000
0001
0000
0011
0000
1000
0100
1000
0000
0001
0000
,
0101
0000
1000
0010
1000
0000
0001
0000
0011
0000
1000
0000
0100
0000
0010
0000
,
0110
0000
0001
0000
0011
0000
1000
0000
1010
0000
0001
0100
0001
0000
1000
0000
,
1100
0000
0001
0010
0001
0000
1000
0000
1010
0000
0010
0000
0100
0000
1000
0000
,
0110
0000
0000
0000
1010
0000
1000
0000
0001
0000
0010
0100
1000
0000
0001
0000
,
0101
0000
1000
0100
0010
0000
0001
0000
1000
0010
1000
0000
0001
0000
0100
0001
,
0100
0000
0010
1000
0010
0100
0001
0000
1000
0100
1000
0000
0001
0010
0100
1000
,
0100
1100
2002
0000
0000
0000
0000
0000
,
0000
0000
0000
0000
,
0000
0000
0000
0000
,
0000
0000
0000
0000
,
0000
0000
3003
0000
;

//---------------dance-single - ----------------
#NOTES:
     dance-single:
     Telperion:
     Medium:
     6:
     0.327943,0.541794,0.120399,0.232771,0.156518,286.000000,271.000000,15.000000,29.000000,0.000000,0.000000,0.327943,0.541794,0.120399,0.232771,0.156518,286.000000,271.000000,15.000000,29.000000,0.000000,0.000000:
// measure 0
0000
0000
0000
0000
,  // measure 1
0000
0000
0000
0000
,  // measure 2
0000
0000
0000
0000
,  // measure 3
0000
0000
0000
0000
,  // measure 4
0000
0000
0000
0000
,  // measure 5
0000
0000
0000
0000
,  // measure 6
0000
0000
0000
0000
,  // measure 7
0000
0000
0000
0000
,  // measure 8
0000
0000
0000
0000
,  // measure 9
0000
0000
0000
0000
,  // measure 10
0000
0000
0000
0000
,  // measure 11
0000
0000
0000
0000
,  // measure 12
0000
0000
0000
0000
,  // measure 13
0000
0000
0000
0000
,  // measure 14
0000
0000
0000
0000
,  // measure 15
0000
0000
0000
0000
,  // measure 16
2000
0000
3002
0000
,  // measure 17
0203
0000
0000
0000
,  // measure 18
0302
0000
2003
0000
,  // measure 19
3200
0000
0000
0000
,  // measure 20
0320
0000
0032
0000
,  // measure 21
2003
0000
0000
0000
,  // measure 22
3001
1000
0001
1000
,  // measure 23
0001
1000
0001
0000
,  // measure 24
0100
0000
0000
0010
0000
0000
1000
0000
0000
0010
0000
0000
0100
0000
0001
0000
,  // measure 25
0010
0000
0000
0100
0000
0000
1000
0000
0000
0100
0000
0000
0010
0000
0010
0000
,  // measure 26
0001
0000
0000
0001
0000
0000
1000
0000
0000
1000
0000
0000
0001
0000
0100
0000
,  // measure 27
0010
0000
0000
0010
0000
0000
0100
0000
0001
0000
0000
0000
1001
0000
1000
0000
,  // measure 28
0100
0000
0000
0010
0000
0000
0001
0000
0000
0010
0000
0000
0100
0000
1000
0000
,  // measure 29
0010
0000
0000
0100
0000
0000
0001
0000
0000
0100
0000
0000
0010
0000
0010
0000
,  // measure 30
1000
0000
0000
1000
0000
0000
0001
0000
0000
0001
0000
0000
1000
0000
0100
0000
,  // measure 31
0010
0000
0000
0010
0000
0000
0100
0000
1000
0000
0010
0000
1000
0000
0001
0000
,  // measure 32
0010
0100
0000
1000
0100
0001
0000
0100
,  // measure 33
0020
0001
0000
0130
2000
0001
0000
0010
,  // measure 34
3100
0010
1000
0000
0001
0100
0010
1000
,  // measure 35
0001
0010
0100
0000
0100
1000
0100
0010
,  // measure 36
0001
0100
0000
0010
0100
1000
0000
0100
,  // measure 37
0020
0100
0000
1030
0002
1000
0000
0013
,  // measure 38
0100
0010
0001
0000
1000
0100
0001
0100
,  // measure 39
0020
0001
0000
0130
2000
0010
0000
3001
,  // measure 40
1000
0000
1000
0000
0010
0000
0000
0001
0000
0000
0010
0000
1000
0000
0002
0000
,  // measure 41
0003
0000
0001
0000
0010
0000
0000
1000
0000
0000
0010
0000
0100
0000
2000
0000
,  // measure 42
3000
0000
0001
0000
0100
0000
0000
1000
0000
0000
0100
0000
0001
0000
2000
0000
,  // measure 43
3000
0000
1000
0000
0100
0000
0000
0001
0000
0000
0100
0000
0010
0000
0002
0000
,  // measure 44
1003
0000
1000
0000
0100
0000
0000
0001
0000
0000
0100
0000
1000
0000
0002
0000
,  // measure 45
0003
0000
0001
0000
0100
0000
0000
1000
0000
0000
0100
0000
0010
0000
2000
0000
,  // measure 46
3000
0000
0001
0000
0010
0000
0000
1000
0000
0000
0010
0000
0001
0000
1000
0000
,  // measure 47
0010
0010
0010
0010
0000
0100
0100
0200
,  // measure 48
0300
0000
0000
0000
,  // measure 49
0001
0000
1000
0001
0000
0001
0200
0000
0000
0000
0310
0000
0100
0000
0001
0000
,  // measure 50
1000
0000
0001
0100
0000
0000
0001
0100
0000
0000
0001
0000
0010
0000
0100
0000
,  // measure 51
1000
0000
0001
1000
0000
1000
0200
0000
0000
0000
0310
0000
0100
0000
1000
0000
,  // measure 52
0001
0000
0100
0000
0010
1000
0000
0010
1000
0000
0100
0000
0010
0001
0000
0010
,  // measure 53
0001
0000
1000
0000
0001
0100
0000
0010
0100
0000
0001
0000
0001
0000
0010
0000
,  // measure 54
0001
0000
1000
0100
0000
0000
1000
0100
0000
0000
1000
0000
0001
0000
0100
0000
,  // measure 55
0010
0000
1000
0001
0000
0001
0020
0000
0000
0000
0130
0000
1000
0000
0001
0000
,  // measure 56
0101
0000
0101
0000
1100
0000
1100
2000
,  // measure 57
0000
3001
0100
0001
1000
0001
0100
0010
,  // measure 58
1010
0000
1010
0000
0011
0000
0011
0002
,  // measure 59
0000
1003
0010
1000
0001
1000
0100
0010
,  // measure 60
0110
1001
0110
1001
,  // measure 61
0001
0000
0100
0001
0100
0000
0000
0000
0010
0000
0000
0000
1000
0000
0100
1000
,  // measure 62
0100
0000
0010
0001
0010
0100
1000
0001
,  // measure 63
0000
0101
2002
0000
0000
0000
0000
0000
,  // measure 64
0000
0000
0000
0000
,  // measure 65
0000
0000
0000
0000
,  // measure 66
0000
0000
0000
0000
,  // measure 67
0000
0000
3003
0000
;

//---------------dance-single - ----------------
#NOTES:
     dance-single:
     Telperion:
     Easy:
     4:
     0.194931,0.325077,0.080266,0.056186,0.313037,170.000000,160.000000,10.000000,7.000000,305.000000,0.000000,0.194931,0.325077,0.080266,0.056186,0.313037,170.000000,160.000000,10.000000,7.000000,305.000000,0.000000:
// measure 0
M000
M000
M000
M000
M000
M000
M000
M000
M000
M000
M000
M000
MMMM
0000
0000
0000
,  // measure 1
MMMM
0MM0
0MM0
0MM0
0MM0
0MM0
0MM0
0MM0
0MM0
0MM0
0MM0
0MM0
MMMM
0000
0000
0000
,  // measure 2
MMMM
0MM0
0MM0
0MM0
0MM0
0MM0
0MM0
0MM0
0MM0
0MM0
0MM0
0MM0
0MM0
0000
0000
0000
,  // measure 3
MMMM
0MM0
0MM0
0MM0
0MM0
0MM0
0MM0
0MM0
0MM0
0MM0
0MM0
0MM0
0MM0
0000
0000
0000
,  // measure 4
M000
M000
M000
M000
M000
M000
M000
M000
M000
M000
M000
M000
MMMM
0000
0000
0000
,  // measure 5
MMMM
M000
M000
M000
M000
M000
MMM0
M000
M000
M000
M000
M000
MMMM
0000
0000
0000
,  // measure 6
0000
0000
0000
0000
,  // measure 7
M000
M000
M000
M000
M000
M000
M000
M000
M000
M000
M000
M000
MMMM
0000
0000
0000
,  // measure 8
MMMM
0MM0
0MM0
0MM0
0MM0
0MM0
0MM0
0MM0
0MM0
0MM0
0MM0
0MM0
MMMM
0000
0000
0000
,  // measure 9
0MM0
0M0M
M00M
M00M
M00M
M00M
M00M
M00M
M00M
M00M
M00M
M0M0
0MM0
0000
0000
0000
,  // measure 10
00MM
00MM
0M0M
0M0M
M00M
M00M
M00M
M00M
M00M
M00M
M00M
M00M
M00M
0000
0000
0000
,  // measure 11
0000
0000
0000
0000
,  // measure 12
00MM
0M00
0M00
M000
M000
M000
M0MM
M00M
M00M
M00M
0M0M
0M0M
00MM
0000
0000
0000
,  // measure 13
M00M
M00M
M00M
M00M
M00M
M00M
M00M
M00M
M00M
M00M
M00M
M00M
0MM0
0000
0000
0000
,  // measure 14
M00M
M00M
M00M
M00M
M00M
0M0M
0MM0
00M0
00M0
00M0
00M0
00M0
00M0
0000
0000
0000
,  // measure 15
0000
0000
0000
0000
,  // measure 16
1000
0000
0100
0000
,  // measure 17
0010
0000
0000
0000
,  // measure 18
1000
0000
0100
0000
,  // measure 19
0010
0000
0000
0000
,  // measure 20
1000
0000
0100
0000
,  // measure 21
0010
0000
0000
0000
,  // measure 22
0001
0100
0001
0100
,  // measure 23
0001
0100
0001
0000
,  // measure 24
1000
1000
0100
1000
,  // measure 25
0001
0001
0100
0001
,  // measure 26
0010
0010
0100
0010
,  // measure 27
0001
0010
0100
1000
,  // measure 28
0001
0001
0100
0001
,  // measure 29
1000
1000
0100
1000
,  // measure 30
0010
0010
0100
0010
,  // measure 31
1000
0010
0100
0000
,  // measure 32
0001
0100
0001
0100
,  // measure 33
0020
0000
2030
0000
,  // measure 34
3100
0010
0100
0010
,  // measure 35
0001
0001
0100
0010
,  // measure 36
1000
0100
1000
0100
,  // measure 37
0020
0000
0032
0000
,  // measure 38
1003
0010
1000
0010
,  // measure 39
0100
0001
0200
0300
,  // measure 40
0010
0010
1000
0001
,  // measure 41
0010
0010
0001
1000
,  // measure 42
0010
0100
0001
0000
,  // measure 43
0010
0100
1000
0000
,  // measure 44
0001
0100
0001
0010
,  // measure 45
1000
0100
1000
0010
,  // measure 46
0001
0100
0010
0000
,  // measure 47
1000
1000
1000
1000
0000
0001
0001
0002
,  // measure 48
0003
0000
0000
0000
,  // measure 49
1000
0010
0000
0110
,  // measure 50
0001
0010
0000
0110
,  // measure 51
1000
0010
0000
0110
,  // measure 52
0001
1000
0001
1000
,  // measure 53
0100
0110
0000
1000
,  // measure 54
0010
0010
0100
0100
,  // measure 55
0001
0001
1000
0100
,  // measure 56
0010
0110
0001
1000
,  // measure 57
0100
0110
1000
0001
,  // measure 58
0100
0110
0001
1000
,  // measure 59
0100
0110
1000
0001
,  // measure 60
0100
1001
0001
1000
,  // measure 61
0100
1001
1000
0001
,  // measure 62
0100
0100
0010
0010
,  // measure 63
0000
1000
2000
0000
0000
0000
0000
0000
,  // measure 64
0000
0000
0000
0000
,  // measure 65
0000
0000
0000
0000
,  // measure 66
0000
0000
0000
0000
,  // measure 67
0000
0000
3000
0000
;

//---------------dance-single - ----------------
#NOTES:
     dance-single:
     Telperion:
     Beginner:
     2:
     0.080266,0.568884,0.144479,0.064213,0.028093,70.000000,52.000000,18.000000,8.000000,0.000000,0.000000,0.080266,0.568884,0.144479,0.064213,0.028093,70.000000,52.000000,18.000000,8.000000,0.000000,0.000000:
// measure 0
0000
0000
0000
0000
,  // measure 1
0000
0000
0000
0000
,  // measure 2
0000
0000
0000
0000
,  // measure 3
0000
0000
0000
0000
,  // measure 4
0000
0000
0000
0000
,  // measure 5
0000
0000
0000
0000
,  // measure 6
0000
0000
0000
0000
,  // measure 7
0000
0000
0000
0000
,  // measure 8
0000
0000
0000
0000
,  // measure 9
0000
0000
0000
0000
,  // measure 10
0000
0000
0000
0000
,  // measure 11
0000
0000
0000
0000
,  // measure 12
0000
0000
0000
0000
,  // measure 13
0000
0000
0000
0000
,  // measure 14
0000
0000
0000
0000
,  // measure 15
0000
0000
0000
0000
,  // measure 16
0000
0000
0000
0000
,  // measure 17
0000
0000
0000
0000
,  // measure 18
0000
0000
0000
0000
,  // measure 19
0000
0000
0000
0000
,  // measure 20
0000
0000
0000
0000
,  // measure 21
0000
0000
0000
0000
,  // measure 22
0000
0000
0000
0000
,  // measure 23
0000
0000
0000
0000
,  // measure 24
1001
0110
0000
0000
0000
0000
0000
0000
0000
0000
0000
0000
0000
0000
0000
0000
0000
0000
0000
0000
0000
0000
0000
0000
0000
0000
0000
0000
0000
0000
0000
0000
0000
0000
0000
0000
0000
0000
0000
0000
0000
0000
0000
0000
0000
0000
0000
0000
0000
0000
0000
0000
0000
0000
0000
0000
0000
0000
0000
0000
0000
0000
0000
0000
0000
0000
0000
0000
0000
0000
0000
0000
0000
0000
0000
0000
0000
0000
0000
0000
0000
0000
0000
0000
0000
0000
0000
0000
0000
0000
0000
0000
0000
0000
0000
0000
0000
0000
0000
0000
0000
0000
0000
0000
0000
0000
0000
0000
0000
0000
0000
0000
0000
0000
0000
0000
0000
0000
0000
0000
0000
0000
0000
0000
0000
0000
0000
0000
0000
0000
0000
0000
0000
0000
0000
0000
0000
0000
0000
0000
0000
0000
0000
0000
0000
0000
0000
0000
0000
0000
0000
0000
0000
0000
0000
0000
0000
0000
0000
0000
0000
0000
0000
0000
0000
0000
0000
0000
0000
0000
0000
0000
0000
0000
0000
0000
0000
0000
0000
0000
0000
0000
0000
0000
0000
0000
0000
0000
0000
0000
0000
0000
,  // measure 25
0010
0000
0000
0000
,  // measure 26
1001
0110
0000
0000
0000
0000
0000
0000
0000
0000
0000
0000
0000
0000
0000
0000
0000
0000
0000
0000
0000
0000
0000
0000
0000
0000
0000
0000
0000
0000
0000
0000
0000
0000
0000
0000
0000
0000
0000
0000
0000
0000
0000
0000
0000
0000
0000
0000
0000
0000
0000
0000
0000
0000
0000
0000
0000
0000
0000
0000
0000
0000
0000
0000
0000
0000
0000
0000
0000
0000
0000
0000
0000
0000
0000
0000
0000
0000
0000
0000
0000
0000
0000
0000
0000
0000
0000
0000
0000
0000
0000
0000
0000
0000
0000
0000
0000
0000
0000
0000
0000
0000
0000
0000
0000
0000
0000
0000
0000
0000
0000
0000
0000
0000
0000
0000
0000
0000
0000
0000
0000
0000
0000
0000
0000
0000
0000
0000
0000
0000
0000
0000
0000
0000
0000
0000
0000
0000
0000
0000
0000
0000
0000
0000
0000
0000
0000
0000
0000
0000
0000
0000
0000
0000
0000
0000
0000
0000
0000
0000
0000
0000
0000
0000
0000
0000
0000
0000
0000
0000
0000
0000
0000
0000
0000
0000
0000
0000
0000
0000
0000
0000
0000
0000
0000
0000
0000
0000
0000
0000
0000
0000
,  // measure 27
0100
0000
0000
0000
,  // measure 28
1001
0110
0000
0000
0000
0000
0000
0000
0000
0000
0000
0000
0000
0000
0000
0000
0000
0000
0000
0000
0000
0000
0000
0000
0000
0000
0000
0000
0000
0000
0000
0000
0000
0000
0000
0000
0000
0000
0000
0000
0000
0000
0000
0000
0000
0000
0000
0000
0000
0000
0000
0000
0000
0000
0000
0000
0000
0000
0000
0000
0000
0000
0000
0000
0000
0000
0000
0000
0000
0000
0000
0000
0000
0000
0000
0000
0000
0000
0000
0000
0000
0000
0000
0000
0000
0000
0000
0000
0000
0000
0000
0000
0000
0000
0000
0000
0000
0000
0000
0000
0000
0000
0000
0000
0000
0000
0000
0000
0000
0000
0000
0000
0000
0000
0000
0000
0000
0000
0000
0000
0000
0000
0000
0000
0000
0000
0000
0000
0000
0000
0000
0000
0000
0000
0000
0000
0000
0000
0000
0000
0000
0000
0000
0000
0000
0000
0000
0000
0000
0000
0000
0000
0000
0000
0000
0000
0000
0000
0000
0000
0000
0000
0000
0000
0000
0000
0000
0000
0000
0000
0000
0000
0000
0000
0000
0000
0000
0000
0000
0000
0000
0000
0000
0000
0000
0000
0000
0000
0000
0000
0000
0000
,  // measure 29
0001
0000
0000
0000
,  // measure 30
1001
0110
0000
0000
0000
0000
0000
0000
0000
0000
0000
0000
0000
0000
0000
0000
0000
0000
0000
0000
0000
0000
0000
0000
0000
0000
0000
0000
0000
0000
0000
0000
0000
0000
0000
0000
0000
0000
0000
0000
0000
0000
0000
0000
0000
0000
0000
0000
0000
0000
0000
0000
0000
0000
0000
0000
0000
0000
0000
0000
0000
0000
0000
0000
0000
0000
0000
0000
0000
0000
0000
0000
0000
0000
0000
0000
0000
0000
0000
0000
0000
0000
0000
0000
0000
0000
0000
0000
0000
0000
0000
0000
0000
0000
0000
0000
0000
0000
0000
0000
0000
0000
0000
0000
0000
0000
0000
0000
0000
0000
0000
0000
0000
0000
0000
0000
0000
0000
0000
0000
0000
0000
0000
0000
0000
0000
0000
0000
0000
0000
0000
0000
0000
0000
0000
0000
0000
0000
0000
0000
0000
0000
0000
0000
0000
0000
0000
0000
0000
0000
0000
0000
0000
0000
0000
0000
0000
0000
0000
0000
0000
0000
0000
0000
0000
0000
0000
0000
0000
0000
0000
0000
0000
0000
0000
0000
0000
0000
0000
0000
0000
0000
0000
0000
0000
0000
0000
0000
0000
0000
0000
0000
,  // measure 31
1000
0000
0000
0000
,  // measure 32
0002
0000
0000
0000
,  // measure 33
2003
0000
0000
0000
,  // measure 34
3200
0000
0000
0000
,  // measure 35
0000
0000
0000
0000
,  // measure 36
2300
0000
0000
0000
,  // measure 37
3002
0000
0000
0000
,  // measure 38
0203
0000
0000
0000
,  // measure 39
0300
0000
0200
0000
,  // measure 40
0310
0000
0000
0000
,  // measure 41
0010
0000
0000
0000
,  // measure 42
0010
0000
0000
0000
,  // measure 43
0010
0000
0000
0000
,  // measure 44
1000
0000
0000
0000
,  // measure 45
0001
0000
0000
0000
,  // measure 46
1000
0000
0000
0000
,  // measure 47
1001
0000
0000
0000
0000
0000
0000
0000
0000
0000
0000
0000
0000
0000
0000
0000
0000
0000
0000
0000
0000
0000
0000
0000
1001
0000
0000
0000
0000
0000
0000
0000
0000
0000
0000
0000
0000
0000
0000
0000
0000
0000
0000
0000
0000
0000
0000
0000
1001
0000
0000
0000
0000
0000
0000
0000
0000
0000
0000
0000
0000
0000
0000
0000
0000
0000
0000
0000
0000
0000
0000
0000
1001
0000
0000
0000
0000
0000
0000
0000
0000
0000
0000
0000
0000
0000
0000
0000
0000
0000
0000
0000
0000
0000
0000
0000
0000
0000
0000
0000
0000
0000
0000
0000
0000
0000
0000
0000
0000
0000
0000
0000
0000
0000
0000
0000
0000
0000
0000
0000
0110
1001
0000
0000
0000
0000
0000
0000
0000
0000
0000
0000
0000
0000
0000
0000
0000
0000
0000
0000
0000
0000
0000
0000
0110
1001
0000
0000
0000
0000
0000
0000
0000
0000
0000
0000
0000
0000
0000
0000
0000
0000
0000
0000
0000
0000
0000
0000
0110
1001
0000
0000
0000
0000
0000
0000
0000
0000
0000
0000
0000
0000
0000
0000
0000
0000
0000
0000
0000
0000
0000
0000
,  // measure 48
0000
0000
0000
0000
,  // measure 49
1000
0000
0000
0000
,  // measure 50
0001
0000
0000
0000
,  // measure 51
0100
0000
0000
0000
,  // measure 52
0010
0000
0000
0000
,  // measure 53
0001
0000
0000
0000
,  // measure 54
0010
0000
0000
0000
,  // measure 55
0100
0000
0000
0000
,  // measure 56
1000
0000
0000
0000
,  // measure 57
0001
0000
0000
0000
,  // measure 58
1000
0000
0000
0000
,  // measure 59
0100
0000
0000
0000
,  // measure 60
0010
0000
0000
0000
,  // measure 61
1000
0000
0000
0000
,  // measure 62
0010
0000
0000
0000
,  // measure 63
0000
0100
0200
0000
0000
0000
0000
0000
,  // measure 64
0000
0000
0000
0000
,  // measure 65
0000
0000
0000
0000
,  // measure 66
0000
0000
0000
0000
,  // measure 67
0000
0000
0300
0000
;
