#VERSION:0.83;
#TITLE:異空間ギミック;
#SUBTITLE:;
#ARTIST:t+pazolite feat. Yukacco;
#TITLETRANSLIT:Ikukan Gimmick;
#SUBTITLETRANSLIT:;
#ARTISTTRANSLIT:;
#GENRE:Future Pop;
#ORIGIN:;
#CREDIT:Birdwards;
#BANNER:[Round A] - Ikukan Gimmick.png;
#BACKGROUND:[Round A] - Ikukan Gimmick-bg.png;
#PREVIEWVID:;
#JACKET:[Round A] - Ikukan Gimmick-jacket.png;
#CDIMAGE:;
#DISCIMAGE:;
#LYRICSPATH:;
#CDTITLE:;
#MUSIC:[Round A] - Ikukan Gimmick.ogg;
#OFFSET:-0.052971;
#SAMPLESTART:41.431488;
#SAMPLELENGTH:13.241379;
#SELECTABLE:YES;
#DISPLAYBPM:145.000000;
#BPMS:0.000=145.000,
48.000=580.000,
52.000=145.000,
64.000=580.000,
68.000=72.500,
76.000=145.000,
300.000=72.500,
308.000=145.000;
#STOPS:48.000=0.310,
49.000=0.310,
50.000=0.310,
51.000=0.310,
64.000=0.310,
65.000=0.310,
66.000=0.310,
67.000=0.310,
106.938=0.052,
122.938=0.052,
138.938=0.052,
154.938=0.052,
170.938=0.052,
186.938=0.052,
202.938=0.052,
218.938=0.052,
342.938=0.052,
358.938=0.052,
374.938=0.052,
390.938=0.052,
406.938=0.052,
422.938=0.052,
438.938=0.052,
454.938=0.052;
#DELAYS:;
#WARPS:90.000=16.938,
106.938=16.000,
122.938=16.000,
138.938=16.000,
154.938=16.000,
170.938=16.000,
186.938=16.000,
202.938=16.000,
218.938=16.063,
326.000=16.938,
342.938=16.000,
358.938=16.000,
374.938=16.000,
390.938=16.000,
406.938=16.000,
422.938=16.000,
438.938=16.000,
454.938=16.063;
#TIMESIGNATURES:0.000=4=4;
#TICKCOUNTS:0.000=4;
#COMBOS:0.000=1;
#SPEEDS:0.000=1.000=0.000=0;
#SCROLLS:0.000=1.000;
#FAKES:;
#LABELS:0.000=Song Start,
4.000=Intro,
36.000=Verse,
68.000=Chorus 1A,
236.000=Chorus 1B,
268.000=Instrumental,
300.000=Chorus 2A,
472.000=Chorus 2B,
504.000=Outtro,
535.500=Song End;
#BGCHANGES:;
#KEYSOUNDS:;
#ATTACKS:
;

//---------------dance-single - ----------------
#NOTEDATA:;
#CHARTNAME:;
#STEPSTYPE:dance-single;
#DESCRIPTION:;
#CHARTSTYLE:;
#DIFFICULTY:Challenge;
#METER:10;
#RADARVALUES:0.731383,1.963378,0.151102,0.275538,2.057650,576.000000,559.000000,17.000000,31.000000,1.000000,0.000000,0.000000,0.000000,326.000000,0.731383,1.963378,0.151102,0.275538,2.057650,576.000000,559.000000,17.000000,31.000000,1.000000,0.000000,0.000000,0.000000,326.000000;
#CREDIT:Birdwards;
#DISPLAYBPM:145.000000;
#NOTES:
// measure 0
0000
0000
0000
0000
,  // measure 1
0010
0000
0100
0001
0000
0001
0000
0010
0100
0000
0010
0001
0000
0001
0000
0100
,  // measure 2
0010
0000
0100
0001
0000
0001
0000
0010
0100
0000
0010
0000
0011
0000
0001
0000
,  // measure 3
0100
0000
0010
1000
0000
1000
0000
0100
0010
0000
0100
1000
0000
1000
0000
0010
,  // measure 4
0100
0010
0100
0010
0100
0000
0001
0000
0010
0000
0100
0010
0100
1000
0001
0010
,  // measure 5
0100
0000
1000
0010
0000
0010
0000
0100
0001
0000
1000
0100
0000
0100
0000
0010
,  // measure 6
0100
0000
1000
0010
0000
0010
0000
0100
0001
0000
0010
0000
0011
0000
0001
0000
,  // measure 7
0100
0000
0010
1000
0100
0000
0010
0001
0100
0000
0010
0000
1000
0001
1000
0001
,  // measure 8
1000
0010
1000
0010
1000
0000
0001
0000
0010
0000
0001
0100
0000
0000
0010
0000
,  // measure 9
0110
0000
1000
0000
0010
1000
0000
1000
0001
0000
0010
0000
0100
0000
2000
0000
,  // measure 10
0001
0000
0001
0000
3010
0000
0100
0010
0100
0000
0000
0000
0101
0000
0100
0000
,  // measure 11
0001
0000
0010
0000
0100
0010
0000
0010
0001
0000
0100
0000
0010
0000
1000
0000
,  // measure 12
0101
1010
1100
0011
,  // measure 13
0010
0000
0001
0000
0100
0001
0000
0001
1000
0000
0100
0000
0010
0000
0002
0000
,  // measure 14
1000
0000
1000
0000
0103
0000
0010
0100
0010
0000
0000
0000
1000
0000
1000
0000
,  // measure 15
0002
0000
0010
0000
0103
1000
0100
0010
,  // measure 16
1001
0110
1001
0110
,  // measure 17
2001
0000
0000
0000
0100
0000
0000
0000
3100
0000
0001
0000
0100
0000
1000
0000
0001
0100
0001
0100
0000
0000
0001
0000
0010
0000
0100
0000
1000
0000
0010
1000
,  // measure 18
0020
0000
0000
0000
0100
0000
0000
0000
0001
0000
0000
0000
0130
0000
0001
0000
0010
0001
0010
0001
0000
0000
0001
0000
0100
0000
0010
0000
1000
0000
0100
1000
,  // measure 19
0100
0000
0000
0100
0010
0000
0001
0000
0010
0000
1000
0000
0001
0000
0100
0000
,  // measure 20
1000
0000
0000
1000
0001
0000
0100
0000
0010
0000
0000
0010
1000
0000
1000
0000
,  // measure 21
0100
0100
0010
0010
0001
0001
1000
1000
,  // measure 22
0010
1000
0010
1000
0010
0001
0010
0001
0010
0000
1000
0000
0100
0000
0000
0000
,  // measure 23
0110
0000
1000
0000
0000
0001
1000
0001
0200
0000
0000
0000
0010
0000
1300
0000
,  // measure 24
0000
0000
0100
0001
0000
0000
0000
0000
0101
0000
0000
0000
0001
0010
0000
0010
,  // measure 25
0000
0000
0000
0000
,  // measure 26
0000
0000
0000
0000
0000
0000
0000
0000
0000
0000
0000
0000
0000
0000
0000
0000
0000
0000
0000
0000
0000
0000
0000
0000
0000
0000
0000
0000
0000
0000
0000
0000
0000
0000
0000
0000
0000
0000
0000
0000
0000
0000
0000
0000
0000
0000
0000
0010
0000
0000
0000
0000
0000
0000
0000
1000
0000
0000
0000
0000
0000
0000
0000
0100
,  // measure 27
0000
0000
0000
0000
0000
0000
0000
0000
0000
0000
0000
0000
0000
0000
0000
0110
0000
0000
0000
0000
0000
0000
0000
1000
0000
0000
0000
0000
0000
0000
0000
0000
0000
0000
0000
0001
0000
0000
0000
1000
0000
0000
0000
0001
0000
0000
0000
0200
0000
0000
0000
0000
0000
0000
0000
0000
0000
0000
0000
0000
0000
0000
0000
0010
,  // measure 28
0000
0000
0000
0000
0000
0000
0000
1300
0000
0000
0000
0000
0000
0000
0000
0000
0000
0000
0000
0000
0000
0000
0000
0100
0000
0000
0000
0001
0000
0000
0000
0000
0000
0000
0000
0000
0000
0000
0000
0000
0000
0000
0000
0000
0000
0000
0000
0101
0000
0000
0000
0000
0000
0000
0000
0000
0000
0000
0000
0000
0000
0000
0000
0001
,  // measure 29
0000
0000
0000
0010
0000
0000
0000
0000
0000
0000
0000
0010
0000
0000
0000
0000
0000
0000
0000
0000
0000
0000
0000
0000
0000
0000
0000
0000
0000
0000
0000
0000
0000
0000
0000
0000
0000
0000
0000
0000
0000
0000
0000
0000
0000
0000
0000
0000
0000
0000
0000
0000
0000
0000
0000
0000
0000
0000
0000
0000
0000
0000
0000
0000
,  // measure 30
0000
0000
0000
0000
0000
0000
0000
0000
0000
0000
0000
0000
0000
0000
0000
0000
0000
0000
0000
0000
0000
0000
0000
0000
0000
0000
0000
0000
0000
0000
0000
0000
0000
0000
0000
0000
0000
0000
0000
0000
0000
0000
0000
0000
0000
0000
0000
0000
0000
0000
0000
0000
0000
0000
0000
0000
0000
1000
0000
0000
0000
0000
0000
0000
,  // measure 31
0000
0100
0000
0000
0000
0000
0000
0000
0000
0000
0000
0000
0000
0010
0000
0000
0000
0100
0000
0000
0000
0000
0000
0000
0000
1000
0000
0000
0000
0000
0000
0000
0000
0001
0000
0000
0000
0000
0000
0000
0000
1001
0000
0000
0000
0000
0000
0000
0000
0200
0000
0000
0000
0000
0000
0000
0000
0000
0000
0000
0000
0010
0000
0000
,  // measure 32
0000
0000
0000
0000
0000
0000
0000
0000
0000
1300
0000
0000
0000
0000
0000
0000
0000
0000
0000
0000
0000
0000
0000
0000
0000
0101
0000
0000
0000
0000
0000
0000
0000
0000
0000
0000
0000
0000
0000
0000
0000
0000
0000
0000
0000
0001
0000
0000
0000
0100
0000
0000
0000
0000
0000
0000
0000
0000
0000
0000
0000
0001
0000
0000
,  // measure 33
0000
0010
0000
0000
0000
0000
0000
0000
0000
0010
0000
0000
0000
0000
0000
0000
0000
0000
0000
0000
0000
0000
0000
0000
0000
0000
0000
0000
0000
0000
0000
0000
0000
0000
0000
0000
0000
0000
0000
0000
0000
0000
0000
0000
0000
0000
0000
0000
0000
0000
0000
0000
0000
0000
0000
0000
0000
0000
0000
0000
0000
0000
0000
0000
,  // measure 34
0000
0000
0000
0000
0000
0000
0000
0000
0000
0000
0000
0000
0000
0000
0000
0000
0000
0000
0000
0000
0000
0000
0000
0000
0000
0000
0000
0000
0000
0000
0000
0000
0000
0000
0000
0000
0000
0000
0000
0000
0000
0000
0000
0000
0000
0000
0000
0000
0000
0000
0000
0000
0000
0000
0000
0000
0000
0000
0000
1000
0000
0000
0000
0000
,  // measure 35
0000
0000
0000
0100
0000
0000
0000
0000
0000
0000
0000
0010
0000
0000
0000
0000
0000
0000
0000
0100
0000
0000
0000
0000
0000
0000
0000
1000
0000
0000
0000
0001
0000
0000
0000
0000
0000
0000
0000
0001
0000
0000
0000
1000
0000
0000
0000
0000
0000
0000
0000
0200
0000
0000
0000
0000
0000
0000
0000
0010
0000
0000
0000
0000
,  // measure 36
0000
0000
0000
0000
0000
0000
0000
0000
0000
0000
0000
1300
0000
0000
0000
0000
0000
0000
0000
0000
0000
0000
0000
0001
0000
0000
0000
0100
0000
0000
0000
0000
0000
0000
0000
0000
0000
0000
0000
0000
0000
0000
0000
0001
0000
0000
0000
0000
0000
0000
0000
0100
0000
0000
0000
0000
0000
0000
0000
0001
0000
0000
0000
0010
,  // measure 37
0000
0000
0000
0000
0000
0000
0000
0010
0000
0000
0000
0000
0000
0000
0000
0000
0000
0000
0000
0000
0000
0000
0000
0000
0000
0000
0000
0000
0000
0000
0000
0000
0000
0000
0000
0000
0000
0000
0000
0000
0000
0000
0000
0000
0000
0000
0000
0000
0000
0000
0000
0000
0000
0000
0000
0000
0000
0000
0000
0000
0000
0000
0000
0000
,  // measure 38
0000
0000
0000
0000
0000
0000
0000
0000
0000
0000
0000
0000
0000
0000
0000
0000
0000
0000
0000
0000
0000
0000
0000
0000
0000
0000
0000
0000
0000
0000
0000
0000
0000
0000
0000
0000
0000
0000
0000
0000
0000
0000
0000
0000
0000
0000
0000
0000
0000
0000
0000
0000
0000
0000
0000
0000
0000
0000
0000
0000
0000
1000
0000
0000
,  // measure 39
0000
0000
0000
0000
0000
0100
0000
0000
0000
0010
0000
0000
0000
0000
0000
0000
0000
0000
0000
0000
0000
0100
0000
0000
0000
0000
0000
0000
0000
1001
0000
0000
0000
0000
0000
0000
0000
0001
0000
0000
0000
0000
0000
0000
0000
1000
0000
0000
0000
0000
0000
0000
0000
0200
0000
0000
0000
0010
0000
0000
0000
0000
0000
0000
,  // measure 40
0000
0000
0000
0000
0000
0000
0000
0000
0000
0000
0000
0000
0000
1300
0000
0000
0000
0000
0000
0000
0000
0001
0000
0000
0000
0000
0000
0000
0000
0100
0000
0000
0000
0000
0000
0000
0000
0000
0000
0000
0000
0001
0000
0000
0000
0000
0000
0000
0000
0000
0000
0000
0000
0100
0000
0000
0000
0001
0000
0000
0000
0010
0000
0000
,  // measure 41
0000
0000
0000
0000
0000
0010
0000
0000
0000
0000
0000
0000
0000
0000
0000
0000
0000
0000
0000
0000
0000
0000
0000
0000
0000
0000
0000
0000
0000
0000
0000
0000
0000
0000
0000
0000
0000
0000
0000
0000
0000
0000
0000
0000
0000
0000
0000
0000
0000
0000
0000
0000
0000
0000
0000
0000
0000
0000
0000
0000
0000
0000
0000
0000
,  // measure 42
0000
0000
0000
0000
0000
0000
0000
0000
0000
0000
0000
0000
0000
0000
0000
0000
0000
0000
0000
0000
0000
0000
0000
0000
0000
0000
0000
0000
0000
0000
0000
0000
0000
0000
0000
0000
0000
0000
0000
0000
0000
0000
0000
0000
0000
0000
0000
0000
0000
0000
0000
0000
0000
0000
0000
0000
0000
0000
0000
0000
0000
0000
0000
1000
,  // measure 43
0000
0000
0000
0000
0000
0000
0000
0110
0000
0000
0000
0000
0000
0000
0000
0000
0000
0000
0000
0000
0000
0000
0000
0100
0000
0000
0000
0001
0000
0000
0000
1000
0000
0000
0000
0001
0000
0000
0000
0000
0000
0000
0000
0000
0000
0000
0000
1000
0000
0000
0000
0000
0000
0000
0000
0210
0000
0000
0000
0000
0000
0000
0000
0000
,  // measure 44
0000
0000
0000
0000
0000
0000
0000
0000
0000
0000
0000
0000
0000
0000
0000
1300
0000
0000
0000
0001
0000
0000
0000
0000
0000
0000
0000
0000
0000
0000
0000
0100
0000
0000
0000
0000
0000
0000
0000
0001
0000
0000
0000
0000
0000
0000
0000
0000
0000
0000
0000
0000
0000
0000
0000
0101
0000
0000
0000
0010
0000
0000
0000
0000
,  // measure 45
0000
0000
0000
0010
0000
0000
0000
0000
0000
0000
0000
0000
0000
0000
0000
0000
0000
0000
0000
0000
0000
0000
0000
0000
0000
0000
0000
0000
0000
0000
0000
0000
0000
0000
0000
0000
0000
0000
0000
0000
0000
0000
0000
0000
0000
0000
0000
0000
0000
0000
0000
0000
0000
0000
0000
0000
0000
0000
0000
0000
0000
0000
0000
0000
,  // measure 46
0000
0000
0000
0000
,  // measure 47
0000
1000
0000
0000
0000
0010
0000
0000
0000
0100
0000
0000
0000
0000
0000
0000
0000
0000
0000
0000
0000
0000
0000
0000
0000
0101
0000
0000
0000
0000
0000
0000
0000
1001
0000
0000
0000
0000
0000
0000
0000
0000
0000
0000
0000
0000
0000
0000
0000
1000
0000
0000
0000
0010
0000
0000
0000
0200
0000
0000
0000
0000
0000
0000
,  // measure 48
0000
0000
0000
0000
0000
0000
0000
0000
0000
0000
0000
0000
0000
0000
0000
0000
0000
1301
0000
0000
0000
0000
0000
0000
0000
0000
0000
0000
0000
0000
0000
0000
0000
0100
0000
0000
0000
0001
0000
0000
0000
0000
0000
0000
0000
0000
0000
0000
0000
0000
0000
0000
0000
0001
0000
0000
0000
0110
0000
0000
0000
0000
0000
0000
,  // measure 49
0000
0010
0000
0000
0000
0000
0000
0000
0000
0000
0000
0000
0000
0000
0000
0000
0000
0000
0000
0000
0000
0000
0000
0000
0000
0000
0000
0000
0000
0000
0000
0000
0000
0000
0000
0000
0000
0000
0000
0000
0000
0000
0000
0000
0000
0000
0000
0000
0000
0000
0000
0000
0000
0000
0000
0000
0000
0000
0000
0000
0000
0000
0000
0000
,  // measure 50
0000
0000
0000
0000
,  // measure 51
0000
0000
0000
1010
0000
0000
0000
0000
0000
0000
0000
0100
0000
0000
0000
0000
0000
0000
0000
0000
0000
0000
0000
0001
0000
0000
0000
0100
0000
0000
0000
0001
0000
0000
0000
1000
0000
0000
0000
0000
0000
0000
0000
0000
0000
0000
0000
0000
0000
0000
0000
1010
0000
0000
0000
0000
0000
0000
0000
0200
0000
0000
0000
0000
,  // measure 52
0000
0000
0000
0000
0000
0000
0000
0000
0000
0000
0000
0000
0000
0000
0000
0001
0000
0000
0000
1300
0000
0000
0000
0000
0000
0000
0000
0000
0000
0000
0000
0000
0000
0000
0000
0101
0000
0000
0000
0000
0000
0000
0000
0000
0000
0000
0000
0000
0000
0000
0000
0001
0000
0000
0000
0010
0000
0000
0000
0100
0000
0000
0000
0010
,  // measure 53
0000
0000
0000
0000
,  // measure 54
0000
0000
0000
0000
,  // measure 55
0000
0010
0000
0000
0000
1000
0000
0000
0000
0000
0000
0000
0000
0100
0000
0000
0000
0000
0000
0000
0000
0001
0000
0000
0000
0000
0000
0000
0000
0101
0000
0000
0000
0000
0000
0000
0000
1000
0000
0000
0000
0000
0000
0000
0000
0000
0000
0000
0000
0010
0000
0000
0000
1000
0000
0000
0000
0000
0000
0000
0000
0200
0000
0000
,  // measure 56
0000
0000
0000
0000
0000
0000
0000
0000
0000
0000
0000
0000
0000
0001
0000
0000
0000
0000
0000
0000
0000
1300
0000
0000
0000
0000
0000
0000
0000
0000
0000
0000
0000
0001
0000
0000
0000
0100
0000
0000
0000
0000
0000
0000
0000
0000
0000
0000
0000
0001
0000
0000
0000
0010
0000
0000
0000
0000
0000
0000
0000
0110
0000
0000
,  // measure 57
0000
0000
0000
0000
,  // measure 58
0000
0000
0000
0000
,  // measure 59
0010
0000
1000
0000
0100
0001
0000
0001
0100
0000
1000
0000
0010
0000
1000
0000
,  // measure 60
0200
0000
0000
0001
0000
0000
1300
0000
0001
0000
0100
0000
0001
0010
0000
0010
,  // measure 61
0100
0000
1000
0000
0010
0001
0000
0001
0010
0000
1000
0000
0100
0000
1000
0000
,  // measure 62
0020
0000
0000
0001
0000
0000
1030
0000
0001
0000
0010
0000
0001
0100
0000
0M00
,  // measure 63
0010
0000
0001
0000
0100
1000
0000
1000
0100
0000
0001
0000
0010
0000
0001
0000
,  // measure 64
0200
0000
0000
1000
0000
0000
0301
0000
1000
0000
0100
0000
1000
0010
0000
0010
,  // measure 65
0100
0000
0001
0000
0010
1000
0000
1000
0010
0000
0001
0000
0100
1000
0000
1000
,  // measure 66
0200
0000
0000
0001
0000
0000
0000
0000
0310
0000
1000
0000
0001
0010
0100
1000
,  // measure 67
0020
0000
0000
1000
0000
0000
0230
0000
0001
0000
0000
0320
0000
0000
0001
0000
,  // measure 68
2030
0000
0000
0100
0000
0000
0010
0000
3002
0000
1000
0000
0013
0100
1000
0001
,  // measure 69
0020
0000
0000
0001
0000
0000
0230
0000
1000
0000
0000
0320
0000
0000
1000
0000
,  // measure 70
0032
0000
0000
0100
0000
0000
0010
0000
1003
0000
0001
0010
0100
0000
0000
0100
,  // measure 71
0020
0000
0000
1000
0000
0000
0230
0000
0001
0000
0000
0320
0000
0000
0001
0000
,  // measure 72
1030
0100
0010
0100
0000
0100
0020
0000
0001
0000
0100
0000
0130
0000
1000
0000
,  // measure 73
0020
0000
0000
0001
0000
0000
0230
0000
1000
0000
0000
0310
0000
0000
0002
0000
,  // measure 74
1000
0000
0000
0100
0000
0000
0000
0000
0013
0000
0001
0000
0100
0010
0000
0000
,  // measure 75
2001
0000
0000
0000
0010
0000
0000
0000
3010
0000
0001
0000
0010
0000
1000
0000
0001
0010
0001
0010
0000
0000
0001
0000
0100
0000
0010
0000
1000
0000
0100
1000
,  // measure 76
0200
0000
0000
0000
0010
0000
0000
0000
0001
0000
0000
0000
0310
0000
0001
0000
0100
0001
0100
0001
0000
0000
0001
0000
0010
0000
0100
0000
1000
0000
0010
1000
,  // measure 77
0010
0000
0000
0010
0100
0000
0001
0000
0100
0000
1000
0000
0001
0000
0010
0000
,  // measure 78
1000
0000
0000
1000
0001
0000
0010
0000
0100
0000
0000
0100
1000
0000
1000
0000
,  // measure 79
0010
0010
0100
0100
0001
0001
1000
1000
,  // measure 80
0100
1000
0100
1000
0100
0001
0100
0001
0100
0010
0100
0010
0001
0010
0001
0010
,  // measure 81
0001
1000
0001
1000
0010
1000
0010
1000
0010
0000
1000
0000
0010
0000
0000
0000
,  // measure 82
0110
0000
1000
0000
0000
0001
1000
0001
0020
0000
0000
0000
0100
0000
1030
0000
,  // measure 83
0000
0000
0010
0001
0000
0000
0000
0000
0011
0000
0000
0000
0001
0100
0000
0100
,  // measure 84
0000
0000
0000
0000
,  // measure 85
0000
0000
0000
0000
0000
0000
0000
0000
0000
0000
0000
0000
0000
0000
0000
0000
0000
0000
0000
0000
0000
0000
0000
0000
0000
0000
0000
0000
0000
0000
0000
0000
0000
0000
0000
0000
0000
0000
0000
0000
0000
0000
0000
0000
0000
0000
0000
0100
0000
0000
0000
0000
0000
0000
0000
1000
0000
0000
0000
0000
0000
0000
0000
0010
,  // measure 86
0000
0000
0000
0000
0000
0000
0000
0000
0000
0000
0000
0000
0000
0000
0000
0110
0000
0000
0000
0000
0000
0000
0000
1000
0000
0000
0000
0000
0000
0000
0000
0000
0000
0000
0000
0001
0000
0000
0000
1000
0000
0000
0000
0001
0000
0000
0000
0020
0000
0000
0000
0000
0000
0000
0000
0000
0000
0000
0000
0000
0000
0000
0000
0100
,  // measure 87
0000
0000
0000
0000
0000
0000
0000
1030
0000
0000
0000
0000
0000
0000
0000
0000
0000
0000
0000
0000
0000
0000
0000
0010
0000
0000
0000
0001
0000
0000
0000
0000
0000
0000
0000
0000
0000
0000
0000
0000
0000
0000
0000
0000
0000
0000
0000
0011
0000
0000
0000
0000
0000
0000
0000
0000
0000
0000
0000
0000
0000
0000
0000
0001
,  // measure 88
0000
0000
0000
0100
0000
0000
0000
0000
0000
0000
0000
0100
0000
0000
0000
0000
0000
0000
0000
0000
0000
0000
0000
0000
0000
0000
0000
0000
0000
0000
0000
0000
0000
0000
0000
0000
0000
0000
0000
0000
0000
0000
0000
0000
0000
0000
0000
0000
0000
0000
0000
0000
0000
0000
0000
0000
0000
0000
0000
0000
0000
0000
0000
0000
,  // measure 89
0000
0000
0000
0000
0000
0000
0000
0000
0000
0000
0000
0000
0000
0000
0000
0000
0000
0000
0000
0000
0000
0000
0000
0000
0000
0000
0000
0000
0000
0000
0000
0000
0000
0000
0000
0000
0000
0000
0000
0000
0000
0000
0000
0000
0000
0000
0000
0000
0000
0000
0000
0000
0000
0000
0000
0000
0000
1000
0000
0000
0000
0000
0000
0000
,  // measure 90
0000
0010
0000
0000
0000
0000
0000
0000
0000
0000
0000
0000
0000
0100
0000
0000
0000
0010
0000
0000
0000
0000
0000
0000
0000
1000
0000
0000
0000
0000
0000
0000
0000
0001
0000
0000
0000
0000
0000
0000
0000
1001
0000
0000
0000
0000
0000
0000
0000
0020
0000
0000
0000
0000
0000
0000
0000
0000
0000
0000
0000
0100
0000
0000
,  // measure 91
0000
0000
0000
0000
0000
0000
0000
0000
0000
1030
0000
0000
0000
0000
0000
0000
0000
0000
0000
0000
0000
0000
0000
0000
0000
0011
0000
0000
0000
0000
0000
0000
0000
0000
0000
0000
0000
0000
0000
0000
0000
0000
0000
0000
0000
0001
0000
0000
0000
0010
0000
0000
0000
0000
0000
0000
0000
0000
0000
0000
0000
0001
0000
0000
,  // measure 92
0000
0100
0000
0000
0000
0000
0000
0000
0000
0100
0000
0000
0000
0000
0000
0000
0000
0000
0000
0000
0000
0000
0000
0000
0000
0000
0000
0000
0000
0000
0000
0000
0000
0000
0000
0000
0000
0000
0000
0000
0000
0000
0000
0000
0000
0000
0000
0000
0000
0000
0000
0000
0000
0000
0000
0000
0000
0000
0000
0000
0000
0000
0000
0000
,  // measure 93
0000
0000
0000
0000
0000
0000
0000
0000
0000
0000
0000
0000
0000
0000
0000
0000
0000
0000
0000
0000
0000
0000
0000
0000
0000
0000
0000
0000
0000
0000
0000
0000
0000
0000
0000
0000
0000
0000
0000
0000
0000
0000
0000
0000
0000
0000
0000
0000
0000
0000
0000
0000
0000
0000
0000
0000
0000
0000
0000
1000
0000
0000
0000
0000
,  // measure 94
0000
0000
0000
0010
0000
0000
0000
0000
0000
0000
0000
0100
0000
0000
0000
0000
0000
0000
0000
0010
0000
0000
0000
0000
0000
0000
0000
1000
0000
0000
0000
0001
0000
0000
0000
0000
0000
0000
0000
0001
0000
0000
0000
1000
0000
0000
0000
0000
0000
0000
0000
0020
0000
0000
0000
0000
0000
0000
0000
0100
0000
0000
0000
0000
,  // measure 95
0000
0000
0000
0000
0000
0000
0000
0000
0000
0000
0000
1030
0000
0000
0000
0000
0000
0000
0000
0000
0000
0000
0000
0001
0000
0000
0000
0010
0000
0000
0000
0000
0000
0000
0000
0000
0000
0000
0000
0000
0000
0000
0000
0001
0000
0000
0000
0000
0000
0000
0000
0010
0000
0000
0000
0000
0000
0000
0000
0001
0000
0000
0000
0100
,  // measure 96
0000
0000
0000
0000
0000
0000
0000
0100
0000
0000
0000
0000
0000
0000
0000
0000
0000
0000
0000
0000
0000
0000
0000
0000
0000
0000
0000
0000
0000
0000
0000
0000
0000
0000
0000
0000
0000
0000
0000
0000
0000
0000
0000
0000
0000
0000
0000
0000
0000
0000
0000
0000
0000
0000
0000
0000
0000
0000
0000
0000
0000
0000
0000
0000
,  // measure 97
0000
0000
0000
0000
0000
0000
0000
0000
0000
0000
0000
0000
0000
0000
0000
0000
0000
0000
0000
0000
0000
0000
0000
0000
0000
0000
0000
0000
0000
0000
0000
0000
0000
0000
0000
0000
0000
0000
0000
0000
0000
0000
0000
0000
0000
0000
0000
0000
0000
0000
0000
0000
0000
0000
0000
0000
0000
0000
0000
0000
0000
1000
0000
0000
,  // measure 98
0000
0000
0000
0000
0000
0010
0000
0000
0000
0100
0000
0000
0000
0000
0000
0000
0000
0000
0000
0000
0000
0010
0000
0000
0000
0000
0000
0000
0000
1001
0000
0000
0000
0000
0000
0000
0000
0001
0000
0000
0000
0000
0000
0000
0000
1000
0000
0000
0000
0000
0000
0000
0000
0020
0000
0000
0000
0100
0000
0000
0000
0000
0000
0000
,  // measure 99
0000
0000
0000
0000
0000
0000
0000
0000
0000
0000
0000
0000
0000
1030
0000
0000
0000
0000
0000
0000
0000
0001
0000
0000
0000
0000
0000
0000
0000
0010
0000
0000
0000
0000
0000
0000
0000
0000
0000
0000
0000
0001
0000
0000
0000
0000
0000
0000
0000
0000
0000
0000
0000
0010
0000
0000
0000
0001
0000
0000
0000
0100
0000
0000
,  // measure 100
0000
0000
0000
0000
0000
0100
0000
0000
0000
0000
0000
0000
0000
0000
0000
0000
0000
0000
0000
0000
0000
0000
0000
0000
0000
0000
0000
0000
0000
0000
0000
0000
0000
0000
0000
0000
0000
0000
0000
0000
0000
0000
0000
0000
0000
0000
0000
0000
0000
0000
0000
0000
0000
0000
0000
0000
0000
0000
0000
0000
0000
0000
0000
0000
,  // measure 101
0000
0000
0000
0000
0000
0000
0000
0000
0000
0000
0000
0000
0000
0000
0000
0000
0000
0000
0000
0000
0000
0000
0000
0000
0000
0000
0000
0000
0000
0000
0000
0000
0000
0000
0000
0000
0000
0000
0000
0000
0000
0000
0000
0000
0000
0000
0000
0000
0000
0000
0000
0000
0000
0000
0000
0000
0000
0000
0000
0000
0000
0000
0000
1000
,  // measure 102
0000
0000
0000
0000
0000
0000
0000
0110
0000
0000
0000
0000
0000
0000
0000
0000
0000
0000
0000
0000
0000
0000
0000
0010
0000
0000
0000
0001
0000
0000
0000
1000
0000
0000
0000
0001
0000
0000
0000
0000
0000
0000
0000
0000
0000
0000
0000
1000
0000
0000
0000
0000
0000
0000
0000
0120
0000
0000
0000
0000
0000
0000
0000
0000
,  // measure 103
0000
0000
0000
0000
0000
0000
0000
0000
0000
0000
0000
0000
0000
0000
0000
1030
0000
0000
0000
0001
0000
0000
0000
0000
0000
0000
0000
0000
0000
0000
0000
0010
0000
0000
0000
0000
0000
0000
0000
0001
0000
0000
0000
0000
0000
0000
0000
0000
0000
0000
0000
0000
0000
0000
0000
0011
0000
0000
0000
0100
0000
0000
0000
0000
,  // measure 104
0000
0000
0000
0100
0000
0000
0000
0000
0000
0000
0000
0000
0000
0000
0000
0000
0000
0000
0000
0000
0000
0000
0000
0000
0000
0000
0000
0000
0000
0000
0000
0000
0000
0000
0000
0000
0000
0000
0000
0000
0000
0000
0000
0000
0000
0000
0000
0000
0000
0000
0000
0000
0000
0000
0000
0000
0000
0000
0000
0000
0000
0000
0000
0000
,  // measure 105
0000
0000
0000
0000
,  // measure 106
0000
1000
0000
0000
0000
0100
0000
0000
0000
0010
0000
0000
0000
0000
0000
0000
0000
0000
0000
0000
0000
0000
0000
0000
0000
0011
0000
0000
0000
0000
0000
0000
0000
1001
0000
0000
0000
0000
0000
0000
0000
0000
0000
0000
0000
0000
0000
0000
0000
1000
0000
0000
0000
0100
0000
0000
0000
0020
0000
0000
0000
0000
0000
0000
,  // measure 107
0000
0000
0000
0000
0000
0000
0000
0000
0000
0000
0000
0000
0000
0000
0000
0000
0000
1031
0000
0000
0000
0000
0000
0000
0000
0000
0000
0000
0000
0000
0000
0000
0000
0010
0000
0000
0000
0001
0000
0000
0000
0000
0000
0000
0000
0000
0000
0000
0000
0000
0000
0000
0000
0001
0000
0000
0000
0110
0000
0000
0000
0000
0000
0000
,  // measure 108
0000
0100
0000
0000
0000
0000
0000
0000
0000
0000
0000
0000
0000
0000
0000
0000
0000
0000
0000
0000
0000
0000
0000
0000
0000
0000
0000
0000
0000
0000
0000
0000
0000
0000
0000
0000
0000
0000
0000
0000
0000
0000
0000
0000
0000
0000
0000
0000
0000
0000
0000
0000
0000
0000
0000
0000
0000
0000
0000
0000
0000
0000
0000
0000
,  // measure 109
0000
0000
0000
0000
,  // measure 110
0000
0000
0000
1100
0000
0000
0000
0000
0000
0000
0000
0010
0000
0000
0000
0000
0000
0000
0000
0000
0000
0000
0000
0001
0000
0000
0000
0010
0000
0000
0000
0001
0000
0000
0000
1000
0000
0000
0000
0000
0000
0000
0000
0000
0000
0000
0000
0000
0000
0000
0000
1100
0000
0000
0000
0000
0000
0000
0000
0020
0000
0000
0000
0000
,  // measure 111
0000
0000
0000
0000
0000
0000
0000
0000
0000
0000
0000
0000
0000
0000
0000
0001
0000
0000
0000
1030
0000
0000
0000
0000
0000
0000
0000
0000
0000
0000
0000
0000
0000
0000
0000
0011
0000
0000
0000
0000
0000
0000
0000
0000
0000
0000
0000
0000
0000
0000
0000
0001
0000
0000
0000
0100
0000
0000
0000
0010
0000
0000
0000
0100
,  // measure 112
0000
0000
0000
0000
,  // measure 113
0000
0000
0000
0000
,  // measure 114
0000
0100
0000
0000
0000
1000
0000
0000
0000
0000
0000
0000
0000
0010
0000
0000
0000
0000
0000
0000
0000
0001
0000
0000
0000
0000
0000
0000
0000
0011
0000
0000
0000
0000
0000
0000
0000
1000
0000
0000
0000
0000
0000
0000
0000
0000
0000
0000
0000
0100
0000
0000
0000
1000
0000
0000
0000
0000
0000
0000
0000
0020
0000
0000
,  // measure 115
0000
0000
0000
0000
0000
0000
0000
0000
0000
0000
0000
0000
0000
0001
0000
0000
0000
0000
0000
0000
0000
1030
0000
0000
0000
0000
0000
0000
0000
0000
0000
0000
0000
0001
0000
0000
0000
0010
0000
0000
0000
0000
0000
0000
0000
0000
0000
0000
0000
0001
0000
0000
0000
0100
0000
0000
0000
0000
0000
0000
0000
0110
0000
0000
,  // measure 116
0000
0000
0000
0000
,  // measure 117
0000
0000
0000
0000
,  // measure 118
0100
0000
1000
0000
0010
0001
0000
0001
0010
0000
1000
0000
0100
0000
1000
0000
,  // measure 119
0020
0000
0000
0001
0000
0000
1030
0000
0001
0000
0010
0000
0001
0100
0000
0100
,  // measure 120
0010
0000
1000
0000
0100
0001
0000
0001
0100
0000
1000
0000
0010
0000
1000
0000
,  // measure 121
0200
0000
0000
0001
0000
0000
1300
0000
0001
0000
0100
0000
0001
0010
0000
0010
,  // measure 122
0100
0000
1000
0000
0010
0001
0000
0001
0010
0000
1000
0000
0100
0000
1000
0000
,  // measure 123
0020
0000
0000
0001
0000
0000
1030
0000
0001
0000
0010
0000
0001
0100
0000
0100
,  // measure 124
0010
0000
1000
0000
0100
0001
0000
0001
0100
0000
1000
0000
0010
0001
0000
0001
,  // measure 125
0020
0000
0000
0000
1000
0000
0000
0000
0130
0000
0001
0000
1000
0001
0000
0000
,  // measure 126
0100
0000
0010
1000
0000
1000
0000
0100
0010
0000
0100
1000
0000
1000
0000
0010
,  // measure 127
0100
0000
0010
1000
0000
1000
0000
0100
0010
0000
0100
0000
1100
0000
1000
0000
,  // measure 128
0010
0000
0100
0001
0000
0001
0000
0010
0100
0000
0010
0001
0000
0001
0000
0100
,  // measure 129
0010
0100
0010
0100
0010
0000
1000
0000
0100
0000
0010
0100
0010
0001
1000
0100
,  // measure 130
0010
0000
0001
0100
0000
0100
0000
0010
1000
0000
0001
0010
0000
0010
0000
0100
,  // measure 131
0010
0000
0001
0100
0000
0100
0000
0010
1000
0000
0100
0000
1100
0000
1000
0000
,  // measure 132
0010
0000
0100
0001
0010
0000
0100
1000
0010
0000
0100
0000
0001
1000
0001
1000
,  // measure 133
0001
0100
0001
0100
0001
0000
1000
0000
0100
0000
1000
0010
0000
0000
0110
0000
;
