#TITLE:IN THE NAME OF LOVE;
#SUBTITLE:;
#ARTIST:LUANA SMART;
#TITLETRANSLIT:;
#SUBTITLETRANSLIT:;
#ARTISTTRANSLIT:;
#GENRE:DANCEMANIA;
#CREDIT:;
#MENUCOLOR:#e45270;
#METERTYPE:DDR;
#BANNER:IN THE NAME OF LOVE-bn.png;
#BACKGROUND:IN THE NAME OF LOVE-bg.png;
#LYRICSPATH:;
#CDTITLE:Dance Mania 17.png;
#MUSIC:IN THE NAME OF LOVE.ogg;
#OFFSET:-1.728;
#SAMPLESTART:41.871;
#SAMPLELENGTH:12.000;
#SELECTABLE:YES;
#LISTSORT:;
#BPMS:0.000=139.000;
#STOPS:;
#BGCHANGES:;
#ATTACKS:;

//---------------dance-single - Heavy----------------
#NOTES:
     dance-single:
     Heavy:
     Hard:
     9:
     0.698,0.726,0.140,0.093,0.645:
1000
0010
0001
0010
1000
0000
0010
0100
0010
0000
0001
0000
0100
0010
0100
0000
,
1000
0001
0100
0001
1000
0000
1000
0100
1000
0000
0001
0000
0100
0010
0100
0000
,
1000
0100
0001
0100
1000
0000
0001
1000
0001
0000
0100
0000
0010
0100
0010
0000
,
0001
0010
0100
0010
0001
0000
1000
0100
1000
0000
0010
0000
1000
0001
0100
0010
,
1000
0010
1000
0010
1000
0000
0100
0001
0100
0000
1000
0000
0001
0010
0100
0000
,
0001
1000
0100
1000
0001
0000
1000
0100
1000
0000
0001
0000
1000
0100
0010
0000
,
1000
0001
0100
0010
1000
0000
0010
0001
0010
0000
1000
0000
0001
0010
0001
0000
,
1000
0100
0010
0001
0010
0000
1000
0100
1000
0000
0001
0000
0001
1000
0001
0000
,
1001
0000
0110
0000
1000
0010
2000
3000
,
0001
0000
0100
0000
1000
0000
0010
0100
0010
0000
1000
0000
0001
0000
0000
0000
,
1100
0000
0000
0000
0011
0000
0000
0000
0001
0000
0010
0000
0100
0000
1000
0001
,
1000
0001
0100
0000
1000
0010
0100
0010
,
1100
0000
0011
0000
0010
0100
0020
0030
,
0001
0000
0010
0000
0100
0000
1000
0001
1000
0000
0001
0000
0100
0000
1000
0010
,
2000
3000
0002
0003
0100
1000
0010
0000
,
1000
0100
1000
0000
0100
0010
0100
0000
0010
0001
0010
0000
1000
0000
0001
0000
,
1100
0000
0110
0000
1000
0001
2000
3000
,
0010
0000
1000
0000
0010
0000
0001
0100
0001
0000
0001
0000
0100
0000
0000
0000
,
1010
0000
0000
0000
0101
0000
0000
0000
0100
0000
0001
0000
0100
0000
1000
0010
,
1000
0010
0100
0000
0001
0100
1000
0000
,
1001
0000
0110
0000
0100
0001
0200
0300
,
0010
0000
1000
0000
0100
0000
0001
1000
0001
0000
0100
0000
1000
0000
0010
1000
,
0010
0100
0001
0000
0100
0001
0100
0000
,
1000
0000
0100
0010
0001
0000
0100
1000
,
0001
0000
0000
0100
0000
0000
0010
0000
0000
0010
0000
0000
1000
0000
0100
0000
,
1000
0000
0000
0010
0000
0000
0100
0000
0000
0001
0000
0000
1000
0000
0010
0000
,
1000
0000
0000
0010
0000
0000
1000
0000
0000
0001
0000
0000
0100
0000
1000
0000
,
0010
0000
0000
0100
0000
0000
0001
0000
0000
0100
0000
0000
1000
0000
0010
0000
,
0100
0000
0000
1000
0000
0000
0001
0000
0000
0100
0000
0000
0010
0000
1000
0000
,
0001
0000
0000
0100
0000
0000
0010
0000
0000
0100
0000
0000
0001
0000
0100
0000
,
1000
0000
0000
0010
0000
0000
0100
0000
0000
0001
0000
0000
1000
0000
0001
0000
,
1000
0000
0000
0100
0000
0000
0010
0000
0000
1000
0000
0000
0001
0000
0100
0000
,
1000
0000
0000
0010
0000
0000
0100
0000
0000
0010
0000
0000
0001
0000
0100
0000
,
1000
0000
0000
0001
0000
0000
0100
0000
0000
0010
0000
0000
1000
0000
0001
0000
,
1000
0000
0000
0100
0000
0000
1000
0000
0000
0010
0000
0000
0100
0000
0001
0000
,
0100
0000
0000
1000
0000
0000
0010
0000
0000
0100
0000
0000
0001
0000
0100
0000
,
1000
0000
0000
0001
0000
0000
0100
0000
0000
0010
0000
0000
1000
0000
0001
0000
,
1000
0000
0000
0010
0000
0000
0100
0000
0000
0001
0000
0000
1000
0000
0100
0000
,
0001
0000
0000
1000
0000
0000
0100
0000
0000
1000
0000
0000
0010
0000
0100
0000
,
0001
0000
0000
0100
0000
0000
1000
0000
0000
0010
0000
0000
0100
0000
0001
0000
,
1000
0100
0010
0100
1000
0000
0001
0100
0001
0000
0010
0000
1000
0001
1000
0000
,
0001
0010
0100
0010
0001
0000
1000
0100
1000
0000
0001
0000
0100
0010
0100
0000
,
1000
0001
0100
0010
1000
0000
0010
0001
0010
0000
1000
0000
0001
0010
0001
0000
,
1000
0010
0001
0010
0000
0000
1000
0001
1000
0010
1000
0010
0001
0020
0000
0030
,
1000
0001
0100
0001
1000
0000
1000
0100
1000
0000
0001
0000
0100
0010
0100
0000
,
1000
0010
0001
0010
1000
0000
0100
0010
0100
0000
0010
0000
1000
0001
1000
0000
,
0001
1000
0100
1000
0001
0000
0100
0010
0100
0000
1000
0000
0001
0100
0001
0000
,
1000
0100
0010
0100
1000
0000
0100
0010
0100
0000
1000
0100
0001
0200
0000
0000
,
0300
0000
0000
0000
;

//---------------dance-single - Standard----------------
#NOTES:
     dance-single:
     Standard:
     Medium:
     7:
     0.573,0.586,0.151,0.070,0.378:
1000
0000
0001
0100
0001
0000
0100
0000
1000
0000
0010
0000
1000
0000
0000
0000
,
1000
0000
0001
0100
0001
0000
0100
0000
1000
0000
0010
0000
0100
0000
0000
0000
,
1000
0000
0010
0100
0010
0000
0001
0000
0100
0000
1000
0000
0010
0000
0000
0000
,
1000
0001
1000
0100
0000
0000
0010
0000
0100
0000
0010
0000
0001
1000
0000
0000
,
1000
0000
0010
1000
0010
0000
0100
0000
0001
0000
0100
0000
0010
0000
0000
0000
,
1000
0000
0100
1000
0100
0000
0010
0000
0001
0000
0100
0000
0010
0000
0000
0000
,
1000
0000
0010
0100
0010
0000
0001
0000
0010
0000
0001
0000
0100
0000
0000
0000
,
1000
0000
0010
0100
0010
0000
1000
0000
0001
0000
1000
0100
0010
0200
0000
0300
,
1100
0000
0011
0000
0100
0010
0200
0300
,
1000
0000
0100
0000
0010
0000
0001
0100
0001
0000
0100
0000
0010
0000
0000
0000
,
1100
0000
0000
0000
0011
0000
0000
0000
0100
0000
0010
0000
1000
0000
0010
1000
,
0010
0100
0100
0010
,
1010
0000
0101
0000
0100
0010
0200
0300
,
1000
0000
0001
0000
0100
0000
1000
0010
1000
0000
0010
0000
0100
0000
0001
1000
,
0001
0100
1000
0001
,
0100
0010
1000
0001
,
1001
0000
0110
0000
0100
0001
0200
0300
,
1000
0000
0010
0000
0100
0000
0001
1000
0001
0000
1000
0000
0100
0000
0000
0000
,
0011
0000
0000
0000
1100
0000
0000
0000
0001
0000
0100
0000
1000
0000
0001
0100
,
0001
0100
0010
1000
,
0101
0000
0110
0000
0010
0100
0020
0030
,
1000
0000
0100
0000
0001
0000
0001
1000
0001
0000
0100
0000
1000
0000
0010
1000
,
0010
0100
0001
0100
,
1010
0000
0001
0100
0001
0000
0001
0100
,
1000
0000
0000
0010
0000
0000
0100
0000
0000
0001
0000
0000
1000
0000
0100
0000
,
0001
0000
0000
0100
0000
0000
1000
0000
0000
0010
0000
0000
0100
0000
0001
0000
,
0100
0000
0000
1000
0000
0000
0010
0000
0000
0100
0000
0000
0001
0000
0100
0000
,
1000
0000
0000
0001
0000
0000
0100
0000
0000
0010
0000
0000
1000
0000
0100
0000
,
0001
0000
0000
0100
0000
0000
1000
0000
0000
0010
0000
0000
0100
0000
0001
0000
,
0100
0000
0000
1000
0000
0000
0010
0000
0000
0100
0000
0000
0001
0000
0100
0000
,
0001
0000
0000
0100
0000
0000
0010
0000
0000
1000
0000
0000
0001
0000
0100
0000
,
1000
0000
0000
0010
0000
0000
0100
0000
0000
0001
0000
0000
0100
0000
1000
0000
,
0001
0000
0000
0100
0000
0000
0010
0000
0000
0100
0000
0000
0001
0000
0100
0000
,
1000
0000
0000
0010
0000
0000
0100
0000
0000
0001
0000
0000
1000
0000
0001
0000
,
1000
0000
0000
0100
0000
0000
0010
0000
0000
0001
0000
0000
1000
0000
0001
0000
,
1000
0000
0000
0100
0000
0000
0010
0000
0000
0001
0000
0000
0100
0000
1000
0000
,
0001
0000
0000
0100
0000
0000
0010
0000
0000
1000
0000
0000
0001
0000
0100
0000
,
0001
0000
0000
0100
0000
0000
0010
0000
0000
0100
0000
0000
1000
0000
0001
0000
,
0100
0000
0000
0010
0000
0000
0100
0000
0000
0001
0000
0000
0100
0000
0010
0000
,
1000
0000
0000
0001
0000
0000
0100
0000
0000
1000
0000
0000
0010
0000
0000
0000
,
1000
0000
0001
0100
0001
0000
0010
0000
1000
0000
0001
0000
0100
0000
0000
0000
,
1000
0000
0010
0100
0010
0000
0001
0000
0100
0000
1000
0000
0001
0000
0000
0000
,
1000
0000
0010
0100
0010
0000
0001
0000
0100
0000
1000
0000
0010
0000
0000
0000
,
1000
0001
1000
0100
0000
0000
1000
0000
0010
0000
0100
0000
0010
1000
0000
0000
,
0100
0000
1000
0010
1000
0000
0100
0000
0010
0000
0001
0000
0100
0000
0000
0000
,
1000
0000
0001
0100
0001
0000
0100
0000
0010
0000
1000
0000
0001
0000
0000
0000
,
1000
0000
0010
0100
0010
0000
0001
0000
0100
0000
1000
0000
0001
0100
0000
0000
,
0010
0000
1000
0010
0100
0000
0001
0000
0100
0000
1000
0001
1000
0002
0000
0000
,
0003
0000
0000
0000
;

//---------------dance-single - Light----------------
#NOTES:
     dance-single:
     Light:
     Easy:
     3:
     0.332,0.363,0.023,0.012,0.006: // measure 1
1000
0000
0001
0000
0100
0010
0100
0000
,  // measure 2
1000
0000
0001
0000
1000
0100
1000
0000
,  // measure 3
0010
0000
0100
0000
0001
1000
0001
0000
,  // measure 4
0100
0000
1000
0000
0010
0100
0001
0100
,  // measure 5
1000
0000
0010
0000
0100
0001
0100
0000
,  // measure 6
1000
0000
0001
0000
0100
0010
0100
0000
,  // measure 7
1000
0000
0001
0000
0100
0010
0100
0000
,  // measure 8
1000
0001
0100
0000
1000
0010
0001
0100
,  // measure 9
1000
0000
0010
0000
0100
0010
0100
0000
,  // measure 10
0001
0100
1000
0000
0010
0100
0010
0000
,  // measure 11
1010
0000
0101
0000
0001
1000
0001
0000
,  // measure 12
0100
0010
0100
0000
1000
0000
0001
0000
,  // measure 13
0100
0000
0010
0000
0001
0010
0100
0000
,  // measure 14
1000
0100
1000
0000
0010
0100
0001
0000
,  // measure 15
0100
1000
0010
0100
,  // measure 16
0001
0000
0100
0000
,  // measure 17
1000
0000
0010
0000
0100
0001
0100
0000
,  // measure 18
1000
0000
0010
0000
0001
0100
0001
0000
,  // measure 19
0100
0000
0010
0000
1000
0010
1000
0000
,  // measure 20
0100
0001
0100
0000
0100
0000
0010
0000
,  // measure 21
1000
0000
0001
0000
0100
0010
0100
0000
,  // measure 22
1000
0000
0001
0000
0100
0010
1000
0000
,  // measure 23
0001
0100
1000
0000
0010
0000
0100
0000
,  // measure 24
0001
0000
0100
1000
0010
0000
0100
0010
,  // measure 25
1000
0000
0001
0000
,  // measure 26
0100
0000
0010
0000
,  // measure 27
1000
0000
0100
0000
,  // measure 28
1000
0000
0001
0000
,  // measure 29
0100
0000
0010
0000
,  // measure 30
0100
0000
0001
0000
,  // measure 31
0010
0000
1000
0000
,  // measure 32
0001
0000
0100
0000
,  // measure 33
1000
0000
0100
0000
,  // measure 34
1000
0000
0010
0000
,  // measure 35
0001
0000
0100
0000
,  // measure 36
0001
0000
0010
0000
,  // measure 37
1000
0000
0001
0000
,  // measure 38
0100
0000
0010
0000
,  // measure 39
1000
0000
0001
0000
,  // measure 40
0100
0000
0010
0000
,  // measure 41
1000
0000
0001
0000
0100
0010
0100
0000
,  // measure 42
1000
0000
0001
0000
0100
0001
0100
0000
,  // measure 43
1000
0000
0010
0000
0001
0100
0001
0000
,  // measure 44
0100
0000
1000
0000
0010
0100
0001
0100
,  // measure 45
1000
0000
0001
0000
1000
0100
1000
0000
,  // measure 46
0010
0000
0100
0000
0001
0100
1000
0000
,  // measure 47
0010
0000
0100
0000
0010
1000
0010
0000
,  // measure 48
0100
0000
0001
0000
0100
0000
0000
0000
1000
0000
0010
0000
0100
0020
0000
0000
,  // measure 49
0030
0000
0000
0000
;
