#TITLE:DNA;
#SUBTITLE:;
#ARTIST:BTS;
#TITLETRANSLIT:;
#SUBTITLETRANSLIT:;
#ARTISTTRANSLIT:;
#CREDIT:;
#BANNER:DNA.png;
#BACKGROUND:DNA-bg.png;
#LYRICSPATH:;
#CDTITLE:;
#MUSIC:DNA.ogg;
#OFFSET:-0.040;
#SAMPLESTART:45.500;
#SAMPLELENGTH:22.580;
#SELECTABLE:YES;
#BPMS:0.000=130.050;
#STOPS:;
#BGCHANGES:;

//---------------dance-single - ----------------
#NOTES:
     dance-single:
     :
     Hard:
     8:
     0.501,0.502,0.136,0.241,0.293:
0000
0000
0000
0000
,
0000
0000
0000
0000
,
0000
0000
0000
0000
,
0000
0000
0000
0000
,
0000
0000
0000
0000
,
1000
0000
0100
0000
0001
0100
1000
0000
,
0010
0000
1000
0000
0100
1000
0010
0000
,
0001
0000
0010
0000
1000
0010
0001
0000
,
0010
0000
1000
0000
0100
1000
0010
0000
,
1000
0100
0001
0100
1000
0010
1000
0100
,
0010
0000
0000
0001
0000
0000
0000
0000
0000
0000
0001
0000
0100
0000
0001
0000
,
1000
0000
0100
0000
0010
0000
0001
1000
0000
0000
0010
0000
0100
0000
0001
1000
,
0000
0000
0100
0000
0001
0100
1000
0100
,
0010
0001
0100
1000
0100
0001
0010
0100
,
1000
0000
0000
0000
0000
0001
0100
0001
,
0010
0000
0000
0000
0000
0000
0100
0000
0000
0000
0000
0000
1000
0000
0000
0000
0001
0000
0000
0000
0100
0000
0000
0000
0000
0000
0000
0000
0000
0000
0001
0000
0000
0100
0000
0000
0001
0000
0000
0000
0000
0000
1000
0000
0000
0100
0000
0000
,
0000
0000
0000
0000
0001
0000
0000
0000
0100
0000
1000
0001
1000
0000
0100
0000
,
0020
0000
0031
0100
0020
1000
1030
0100
,
0002
0000
0103
1000
0020
0001
0031
0010
,
1000
0000
0002
0000
0000
0000
0013
0000
0100
0000
1000
0001
1000
0000
0100
0000
,
1000
0000
0000
0000
0000
0000
0001
0000
0000
1000
0000
0000
0001
0000
0000
0000
0000
0000
0100
0000
0000
0000
0000
0000
0001
0000
0000
0000
0000
0000
0000
0000
0000
0000
0000
0000
1000
0000
0000
0000
0100
0000
0000
0000
1000
0000
0000
0000
,
0001
0000
0000
0001
0100
0001
1000
0000
0000
1001
0000
0000
,
0001
1000
0001
1000
0010
0100
0010
0000
0000
1001
0000
0000
,
1000
0001
0000
1000
0001
0000
1000
0000
0001
1000
0001
0100
,
0010
0000
1000
0000
0001
0000
1000
0000
0100
0000
0010
0000
0001
0000
0000
0000
0000
0000
0001
0000
0000
0100
0000
0000
,
0020
1000
1030
0000
2000
0001
3001
0100
,
0001
0000
1000
0000
0100
0000
1000
0000
1000
0000
0001
0100
0001
0000
1000
0000
,
0001
0000
0000
0100
0000
0000
0010
0000
1000
0000
0000
0100
0000
0000
0010
0000
,
0001
0000
0100
0000
1000
0000
0100
0000
0001
0000
0010
0100
0010
0000
0100
0000
,
2000
0100
3100
0000
0002
0100
0103
0000
,
2000
0001
3001
1000
0001
0100
0010
1000
,
1000
0000
0000
0100
0000
0000
0010
0000
0002
0000
0000
0203
0000
0000
0320
0000
,
1030
0000
0001
1000
0000
0000
1000
0000
0000
0001
1000
0001
0000
0000
1000
0000
,
1000
0000
0000
1000
0100
0000
0010
0000
0001
0000
0000
0001
0100
0000
0010
0000
,
1000
0001
0000
0000
0100
0000
0000
0000
0010
0000
0000
0000
1000
0000
1000
0000
,
0100
0000
0000
0100
0010
0000
0001
0000
0100
0000
0000
0100
0010
0000
1000
0000
,
0100
0010
0000
0000
0001
0000
0000
0000
0100
0000
0000
0000
0010
0000
0000
0000
,
1000
0100
1000
0100
0010
0002
0000
0000
0000
1003
0000
0000
,
0001
0100
0001
0100
0010
2000
0000
0000
0000
3001
0000
0000
,
0001
0000
0000
0001
0100
0000
0010
0000
1000
0000
0000
1000
0100
0000
0010
0000
,
0002
0000
0000
0000
0000
0000
0000
0003
MMMM
0000
0001
0000
1000
0000
0001
0000
,
0011
1000
0010
0000
0110
0001
0010
0100
,
2200
0000
0000
0000
3300
0000
1000
0100
,
0110
0000
0000
0010
0001
0000
0100
0000
0110
0000
0000
0010
1000
0000
0100
0000
,
0220
0000
0000
0000
0330
0010
0100
0010
,
0110
0001
0100
0000
0101
1000
0001
0010
,
0022
0000
0000
0000
0033
0001
0100
0010
,
1001
0000
0000
1000
0100
0000
0010
0000
1001
0000
0000
0001
0100
0000
0010
0000
,
1000
1000
0100
0100
0001
0001
0100
2000
,
0000
0000
0000
0000
,
0000
0000
3000
0000
;

//---------------dance-single - ----------------
#NOTES:
     dance-single:
     :
     Medium:
     5:
     0.357,0.423,0.241,0.230,0.073:
0000
0000
0000
0000
,
0000
0000
0000
0000
,
0000
0000
0000
0000
,
0000
0000
0000
0000
,
0000
0000
0000
0000
,
1000
0000
0100
0000
0001
0010
1000
0000
,
0010
0000
0001
0000
0100
1000
0010
0000
,
0001
0000
0100
0000
1000
0010
0001
0000
,
0010
0000
1000
0000
0100
0001
0010
0000
,
1000
0100
1000
0000
0010
0000
0001
0000
,
0010
0000
0010
0000
1000
0100
1000
0000
,
0100
0000
0001
0000
0010
0000
1000
0100
,
1000
0010
0100
0001
,
1000
0000
0010
0000
0001
0100
0001
0000
,
0100
0000
1000
1000
,
0010
0001
0010
0000
1000
0000
0100
0001
,
0100
0000
0100
0000
1000
0000
0001
0100
,
0010
0000
1000
0100
0010
0000
0010
0100
,
1000
0000
0010
0100
0001
0000
0001
1000
,
0010
0000
0010
1000
0001
0000
1000
0001
,
0010
0000
0010
0001
1000
0000
0010
0000
,
0110
0101
1002
0013
,
0110
1100
2001
3010
,
0110
1001
0110
0001
,
1000
0100
0010
0001
,
0012
0000
0000
2000
0000
0000
3003
0000
,
1000
1000
0001
0001
,
0100
0010
1000
0001
,
2000
0000
3000
1100
,
0002
0000
0000
0020
0000
0000
0033
0000
,
0010
0100
0000
1000
,
0100
0001
0100
0010
,
0011
0000
0001
0100
0000
0100
0010
0000
,
1000
0000
0000
1000
0000
0000
0100
0000
0010
0000
0000
0010
0000
0000
0001
0000
,
0200
0300
0000
0000
0010
0000
0000
0000
1000
0000
0000
0000
0001
0000
0000
0000
,
0010
0000
0000
0010
0000
0000
0100
0000
1000
0000
0000
1000
0000
0000
0001
0000
,
0200
0300
0000
0000
0100
0000
0000
0000
0100
0000
0000
0000
0010
0000
0000
0000
,
1000
0100
0000
0100
0010
0000
0002
0000
0000
1003
0000
0000
,
0001
0100
0000
0100
0010
0000
2000
0000
0000
3001
0000
0000
,
0010
0000
0000
0001
0000
0000
0100
0000
1000
0000
0000
0100
0000
0000
0010
0000
,
2000
0000
0000
3000
MMMM
0000
0001
0000
,
1002
0013
2001
3100
,
0110
0001
0100
0010
,
1010
0000
0000
1000
0000
0000
0010
0000
0110
0000
0000
0100
0000
0000
0001
0000
,
2002
0000
3003
0000
,
0012
0103
2010
3100
,
0220
0000
0000
0000
0000
0330
0001
0000
,
0011
0000
0000
0001
0000
0000
0100
0000
0110
0000
0000
0010
0000
0000
1000
0000
,
0002
0000
0000
0000
0003
1000
0001
0020
,
0000
0000
0000
0000
,
0000
0000
0030
0000
;

//---------------dance-single - ----------------
#NOTES:
     dance-single:
     :
     Beginner:
     1:
     0.099,0.176,0.063,0.000,0.000: // measure 1
0000
0000
0000
0000
,  // measure 2
0000
0000
0000
0000
,  // measure 3
0000
0000
0000
0000
,  // measure 4
0000
0000
0000
0000
,  // measure 5
0000
0000
0000
0000
,  // measure 6
1000
0000
0000
0000
,  // measure 7
0000
0000
0000
0000
,  // measure 8
0001
0000
0000
0000
,  // measure 9
0000
0000
0000
0000
,  // measure 10
1000
0000
0100
0000
,  // measure 11
0010
0000
0000
0000
,  // measure 12
0010
0000
0001
0000
,  // measure 13
0100
0000
0000
0000
,  // measure 14
0001
0000
0100
0000
,  // measure 15
0010
0000
0000
0000
,  // measure 16
0010
0000
1000
0000
,  // measure 17
0100
0000
0000
0000
,  // measure 18
1000
0000
0000
0000
,  // measure 19
0100
0000
0000
0000
,  // measure 20
0010
0000
0000
0000
,  // measure 21
0001
0000
0000
0000
,  // measure 22
0001
0000
0100
0000
,  // measure 23
1000
0000
0100
0000
,  // measure 24
0001
0001
0001
0000
,  // measure 25
1000
0000
0100
0000
,  // measure 26
0010
0000
0000
0000
,  // measure 27
0000
0000
0000
0000
,  // measure 28
0001
0000
0001
0000
,  // measure 29
0100
0000
0000
0000
,  // measure 30
0010
0000
0000
0000
,  // measure 31
0000
0000
0000
0000
,  // measure 32
1000
0000
1000
0000
,  // measure 33
0100
0000
0000
0000
,  // measure 34
1000
0000
0001
0000
,  // measure 35
0010
0000
0000
0000
,  // measure 36
0001
0000
1000
0000
,  // measure 37
0010
0000
0000
0000
,  // measure 38
1000
1000
0000
0000
,  // measure 39
0001
0001
0000
0000
,  // measure 40
0100
0000
0010
0000
,  // measure 41
1000
0000
0000
0000
,  // measure 42
1001
0000
1001
0000
,  // measure 43
0110
0000
0000
0000
,  // measure 44
1000
0000
0100
0000
,  // measure 45
0001
0000
0000
0000
,  // measure 46
1001
0000
1001
0000
,  // measure 47
0110
0000
0000
0000
,  // measure 48
0001
0000
0100
0000
,  // measure 49
1000
0000
0000
0000
;

//---------------dance-single - ----------------
#NOTES:
     dance-single:
     :
     Easy:
     3:
     0.227,0.307,0.136,0.262,0.000: // measure 1
0000
0000
0000
0000
,  // measure 2
0000
0000
0000
0000
,  // measure 3
0000
0000
0000
0000
,  // measure 4
0000
0000
0000
0000
,  // measure 5
0000
0000
0000
0000
,  // measure 6
1001
0000
0001
0100
,  // measure 7
0001
0000
0000
0000
,  // measure 8
1001
0000
1000
0100
,  // measure 9
1000
0000
0000
0000
,  // measure 10
0001
0100
1000
0100
,  // measure 11
0010
0000
0000
0000
,  // measure 12
0010
1000
0100
0001
,  // measure 13
0100
0000
0000
0000
,  // measure 14
1000
0100
0001
0100
,  // measure 15
0010
0000
0000
0000
,  // measure 16
0010
0001
0100
1000
,  // measure 17
0100
0000
0000
0100
,  // measure 18
0101
0001
1000
0100
,  // measure 19
1000
0000
0000
0100
,  // measure 20
1100
1000
0001
0100
,  // measure 21
0001
0000
0000
1000
,  // measure 22
0100
0010
0002
0003
,  // measure 23
0100
0010
2000
3000
,  // measure 24
1001
1001
1000
0100
,  // measure 25
0010
0100
1000
0010
,  // measure 26
0200
0000
0000
0000
0002
0000
0000
0303
,  // measure 27
0000
0000
0000
0001
,  // measure 28
1000
1000
0100
1000
,  // measure 29
0010
0000
0000
1000
,  // measure 30
0020
0000
0000
0000
2000
0000
0000
3000
,  // measure 31
0000
0030
0000
0000
0000
0000
0010
0000
,  // measure 32
0100
0001
0010
0100
,  // measure 33
1000
0000
0000
1000
0000
0000
1000
0000
,  // measure 34
1001
0001
0100
0100
,  // measure 35
0020
0030
0000
0010
,  // measure 36
1000
1000
0100
0100
,  // measure 37
0020
0030
0000
0000
,  // measure 38
0010
0001
0200
0300
,  // measure 39
0010
1000
0200
0300
,  // measure 40
0010
0001
0100
0010
,  // measure 41
2000
3000
MMMM
0000
,  // measure 42
2002
3003
0220
0330
,  // measure 43
2002
0000
0000
3003
,  // measure 44
1000
0100
0001
0100
,  // measure 45
0020
0000
0030
0000
,  // measure 46
2002
3003
0220
0330
,  // measure 47
2002
0000
3003
0001
,  // measure 48
0100
1000
0100
0001
,  // measure 49
2000
0000
0000
0000
0000
0000
0000
3001
;
