#VERSION:0.83;
#TITLE:BABYBABYの夢;
#SUBTITLE:;
#ARTIST:TANUKI;
#TITLETRANSLIT:BABYBABY NO YUME;
#SUBTITLETRANSLIT:;
#ARTISTTRANSLIT:;
#GENRE:Future Funk;
#ORIGIN:;
#CREDIT:;
#BANNER:[Round A] - BABYBABY NO YUME-bn.png;
#BACKGROUND:[Round A] - BABYBABY NO YUME-bg.png;
#PREVIEWVID:;
#JACKET:[Round A] - BABYBABY NO YUME-jacket.png;
#CDIMAGE:;
#DISCIMAGE:;
#LYRICSPATH:;
#CDTITLE:cdtitle.png;
#MUSIC:[Round A] - BABYBABY NO YUME.ogg;
#OFFSET:-0.003000;
#SAMPLESTART:55.750999;
#SAMPLELENGTH:15.000000;
#SELECTABLE:YES;
#BPMS:0.000=120.000;
#STOPS:;
#DELAYS:;
#WARPS:;
#TIMESIGNATURES:0.000=4=4;
#TICKCOUNTS:0.000=4;
#COMBOS:0.000=1;
#SPEEDS:0.000=1.000=0.000=0;
#SCROLLS:0.000=1.000;
#FAKES:;
#LABELS:0.000=Song Start;
#BGCHANGES:;
#KEYSOUNDS:;
#ATTACKS:
;

//---------------dance-single - ----------------
#NOTEDATA:;
#CHARTNAME:;
#STEPSTYPE:dance-single;
#DESCRIPTION:;
#CHARTSTYLE:;
#DIFFICULTY:Challenge;
#METER:7;
#RADARVALUES:0.394923,0.430618,0.044302,0.248093,0.039872,312.000000,307.000000,5.000000,28.000000,0.000000,0.000000,0.000000,0.000000,0.000000,0.394923,0.430618,0.044302,0.248093,0.039872,312.000000,307.000000,5.000000,28.000000,0.000000,0.000000,0.000000,0.000000,0.000000;
#CREDIT:;
#NOTES:
// measure 0
0000
0000
0000
0000
,  // measure 1
0000
0000
0000
0000
,  // measure 2
0000
0000
0000
0000
,  // measure 3
0000
0000
0000
0000
,  // measure 4
2000
0000
3020
0000
1030
0100
1000
0000
,  // measure 5
0002
0000
0023
0000
0031
0100
0001
0000
,  // measure 6
2000
0000
3010
0100
0002
0000
0103
0010
,  // measure 7
2000
0000
3001
0010
0001
0100
1000
0100
,  // measure 8
0002
0000
0203
0000
0301
0010
0001
0000
,  // measure 9
2000
0000
3020
0000
1030
0100
1000
0000
,  // measure 10
0002
0000
0103
0010
2000
0000
3010
0100
,  // measure 11
0002
0000
1003
0100
0010
0010
0100
0100
,  // measure 12
1000
0100
0010
0100
1000
0000
1100
1000
,  // measure 13
0001
0010
0100
0010
0002
0000
0203
0000
,  // measure 14
0310
1000
0100
1000
0010
0000
1010
1000
,  // measure 15
0100
0000
0010
0000
0001
0000
0010
0000
0100
0000
0000
0000
1000
0000
1000
0001
,  // measure 16
1000
0010
0001
0010
1000
0000
1001
1000
,  // measure 17
0001
0010
1000
0010
0001
1000
0010
0200
,  // measure 18
0000
0310
2000
0000
3001
0000
1000
0001
,  // measure 19
1000
0100
0010
0001
1000
0010
0100
0001
,  // measure 20
0100
1000
0100
0001
1000
0000
1000
1000
,  // measure 21
0100
0001
0100
1000
0002
0000
2003
0000
,  // measure 22
3001
0010
1000
0010
0100
0001
0100
1000
,  // measure 23
0000
1100
0000
0001
0000
0101
0000
1000
,  // measure 24
0010
0100
0010
1000
0001
0010
0100
0010
,  // measure 25
0000
0010
0100
1000
0100
0010
0001
0020
,  // measure 26
0200
0000
0000
0330
,  // measure 27
0010
0000
0010
0000
0100
0000
0100
0000
1000
0000
1000
0000
0001
0000
0001
0100
,  // measure 28
0001
0010
0100
0010
0001
0000
0001
0000
,  // measure 29
1000
0000
0010
0000
0100
0000
0010
0000
1000
0000
0000
1000
0000
0000
1000
0000
,  // measure 30
0100
0001
0100
1000
0100
0000
0100
0000
,  // measure 31
0010
0001
0010
1000
0020
0000
0032
0000
,  // measure 32
1003
0100
0010
0100
1000
0000
1000
0000
,  // measure 33
0001
0100
0010
0100
0001
0000
1000
0010
,  // measure 34
0100
0000
1000
0000
0100
0000
0010
0000
1000
0000
0000
1000
0000
0000
0001
0000
,  // measure 35
0010
0100
0001
0100
0010
0001
1000
0010
,  // measure 36
0100
0000
0001
0000
1000
0000
0100
0000
0010
0000
0000
0010
0000
0000
0100
0000
,  // measure 37
1000
0010
1000
0010
0001
0010
0001
0020
,  // measure 38
0200
0000
0000
0030
0300
0001
1000
0001
,  // measure 39
0000
0010
0000
1000
0000
0100
0000
0001
,  // measure 40
1000
0001
0010
0100
1000
0000
1000
0001
,  // measure 41
1000
0010
1000
0010
0001
0010
0001
0020
,  // measure 42
0200
0000
0000
0030
0300
0001
1000
0001
,  // measure 43
0000
0100
0000
1000
0000
0010
0000
0001
,  // measure 44
1000
0010
0100
0001
1000
0100
0010
0100
,  // measure 45
1000
0000
0000
0000
0000
0000
0000
0001
,  // measure 46
0100
0000
0000
1000
0010
0000
0000
0001
,  // measure 47
0010
0000
1000
0000
0010
0000
0001
0000
0010
0000
0000
0100
0000
0000
1000
0000
,  // measure 48
0000
0000
0000
0010
0100
0000
0000
1000
,  // measure 49
0001
0100
1000
0100
0001
0000
0010
0000
,  // measure 50
0100
0000
0000
1000
0010
0000
0000
0001
,  // measure 51
0100
0000
1000
0000
0010
0000
0001
0000
1000
0000
0000
0010
0000
0000
1000
0000
,  // measure 52
0100
0000
0001
0000
0100
0000
1000
0000
0010
0000
0000
0100
0000
0000
0001
0000
,  // measure 53
0010
0000
1000
0000
0100
0000
0001
0000
0010
0000
0000
0100
0000
0000
1000
0000
,  // measure 54
0001
0000
0000
0000
;
