#VERSION:0.83;
#TITLE:Axis;
#SUBTITLE:;
#ARTIST:銀座P5;
#TITLETRANSLIT:;
#SUBTITLETRANSLIT:;
#ARTISTTRANSLIT:Ginza P5;
#GENRE:;
#ORIGIN:;
#CREDIT:;
#BANNER:Axis.png;
#BACKGROUND:Axis-bg.png;
#PREVIEWVID:;
#JACKET:;
#CDIMAGE:;
#DISCIMAGE:;
#LYRICSPATH:;
#CDTITLE:;
#MUSIC:Axis.ogg;
#OFFSET:-3.040000;
#SAMPLESTART:79.527000;
#SAMPLELENGTH:12.000000;
#SELECTABLE:YES;
#BPMS:0.000=160.000,
129.000=80.000,
145.000=120.000,
169.000=40.000,
171.000=160.000;
#STOPS:64.000=1.125;
#DELAYS:;
#WARPS:;
#TIMESIGNATURES:0.000=4=4;
#TICKCOUNTS:0.000=4;
#COMBOS:0.000=1;
#SPEEDS:0.000=1.000=0.000=0;
#SCROLLS:0.000=1.000;
#FAKES:;
#LABELS:0.000=Song Start;
#BGCHANGES:;
#KEYSOUNDS:;
#ATTACKS:
;

//---------------dance-single - ----------------
#NOTEDATA:;
#CHARTNAME:;
#STEPSTYPE:dance-single;
#DESCRIPTION:;
#CHARTSTYLE:;
#DIFFICULTY:Hard;
#METER:8;
#RADARVALUES:0.452829,0.642596,0.260086,0.276342,0.195065,390.000000,358.000000,32.000000,34.000000,0.000000,0.000000,0.000000,0.000000,0.000000,0.452829,0.642596,0.260086,0.276342,0.195065,390.000000,358.000000,32.000000,34.000000,0.000000,0.000000,0.000000,0.000000,0.000000;
#CREDIT:;
#NOTES:
// measure 0
0202
0000
0000
0000
,  // measure 1
0000
0000
0000
0003
,  // measure 2
2000
0000
0000
0300
,  // measure 3
0020
0000
3000
1030
,  // measure 4
2002
0000
0000
3000
,  // measure 5
0200
0000
0000
0003
,  // measure 6
0020
0000
0330
0001
,  // measure 7
2000
0010
0100
3100
,  // measure 8
0010
0000
0001
0010
0000
0100
0010
0100
,  // measure 9
0000
1000
0000
0100
0000
0010
0000
1000
,  // measure 10
0001
0000
0100
0001
0000
0100
1000
0100
,  // measure 11
0010
0000
0100
0000
0010
0001
0100
0010
,  // measure 12
0011
0000
0001
0000
0100
1000
0010
0100
,  // measure 13
0000
0001
0010
0001
0000
1000
0000
0010
,  // measure 14
1010
0000
0100
0001
0101
0000
0010
0000
,  // measure 15
0110
0000
0000
0001
0000
1000
0000
0000
0011
0000
0000
0010
0000
0000
1100
0000
,  // measure 16
1001
0020
0001
1000
,  // measure 17
1000
0000
0130
0000
0001
0000
0001
0010
,  // measure 18
0100
2000
0010
0001
,  // measure 19
0100
0000
3100
0000
0010
0100
0010
0001
,  // measure 20
0010
0200
1000
0010
,  // measure 21
0001
0000
0301
0010
0010
0000
0100
1000
,  // measure 22
0100
0010
0002
0000
0100
0000
0010
0100
,  // measure 23
0013
1000
2001
0000
0000
0000
0010
0000
,  // measure 24
3010
0000
0000
0000
0100
0000
0001
0000
0100
0000
0000
0000
0010
0000
0000
0100
,  // measure 25
0000
0000
0010
0000
1000
0000
0001
0000
1000
0000
0000
0000
0001
0000
0000
1000
,  // measure 26
0000
0000
0001
0000
0010
0000
1000
0000
0010
0000
0000
0000
1000
0000
0000
0010
,  // measure 27
0000
0000
1000
0000
0100
0000
0010
0000
0100
0000
0000
0000
0001
0000
0000
0100
,  // measure 28
0000
0000
0001
0000
0010
0000
1000
0000
0100
0000
0000
0000
0010
0000
0000
0001
,  // measure 29
0000
0000
0010
0000
1000
0000
0100
0000
0010
0000
0000
0000
1000
0000
0000
0010
,  // measure 30
0000
1000
0001
0010
1000
0000
0001
0010
,  // measure 31
0001
0100
0120
0000
1000
0000
0001
0000
,  // measure 32
1030
0000
0000
0000
0201
0000
0000
0002
0300
0000
0010
0000
1000
0000
0100
0000
,  // measure 33
1003
0000
1000
0000
0021
0000
0000
0002
0030
0000
0103
0000
0200
0000
0010
0000
,  // measure 34
0301
0000
0010
0000
0210
0000
0000
0020
0300
0000
1000
0000
0001
0000
0001
0000
,  // measure 35
0130
0000
1000
0000
0102
0000
0000
0200
0003
0000
0310
0000
2200
0000
3300
0000
,  // measure 36
2002
0000
0000
0000
0000
0000
0000
0000
3003
0000
0000
0000
0000
0000
0000
0000
0010
0000
0000
0000
0000
0000
0100
0000
0000
0000
0000
0000
0010
0000
0000
0000
0000
0000
0000
0000
0000
0000
0000
0000
1000
0000
0000
0000
0000
0000
0000
0000
0000
1000
0000
0000
0000
0000
0000
0000
0000
0000
1000
0000
0000
0000
0000
0000
,  // measure 37
0001
0000
0000
0000
0000
0000
0100
0000
0000
0000
0000
0000
0001
0000
0000
0000
0000
0000
0000
0000
0000
0000
0000
0000
0010
0000
0000
0000
0000
0000
0000
0000
0000
0010
0000
0000
0000
0000
0000
0000
0000
0000
0010
0000
0000
0000
0000
0000
0100
0000
0000
0000
0000
0000
1000
0000
0000
0000
0000
0000
0100
0000
0000
0000
,  // measure 38
0000
0000
0000
0000
0000
0000
0000
0000
0001
0000
0000
0000
0000
0000
0000
0000
0000
0001
0000
0000
0000
0000
0000
0000
0000
0000
0001
0000
0000
0000
0000
0000
0010
0000
0000
0000
0000
0000
0001
0000
0000
0000
0000
0000
0010
0000
0000
0000
0000
0000
0000
0000
0000
0000
0000
0000
0100
0000
0000
0000
0000
0000
0000
0000
,  // measure 39
0000
0100
0000
0000
0000
0000
0000
0000
0000
0000
0100
0000
0000
0000
0000
0000
1100
0000
0000
0000
0000
0000
0001
0000
0000
0000
0000
0000
0100
0000
0000
0000
0000
0000
0000
0000
0000
0000
0000
0000
0010
0000
0000
0000
0000
0000
0001
0000
0000
0000
0000
0000
0010
0000
0000
0000
0000
0000
0001
0000
0000
0000
0000
0000
,  // measure 40
1010
0000
0000
0100
0000
0000
0001
0000
0000
0000
0000
0000
1000
0000
0000
0100
0000
0000
1000
0000
0000
0100
0000
0000
0110
0000
0000
0010
0000
0000
0001
0000
,  // measure 41
0000
0000
0000
0000
0000
0000
0000
0000
1001
0000
0000
0000
0000
0000
1000
0000
0000
0000
0000
0000
0100
0000
0000
0000
0000
0000
0000
0000
0000
0000
0000
0000
0011
0000
0000
0000
0000
0000
0000
0000
0000
0010
0000
0000
0000
0000
0000
0001
0000
0000
0000
0000
0000
0000
0000
0000
0110
0000
0000
0000
0000
0000
0000
0000
,  // measure 42
0000
1000
0000
0000
0100
0000
0000
0000
0000
0000
1000
0000
0000
0000
0000
0000
2002
0000
0000
0000
0000
0000
0000
0000
0000
0000
0000
0000
0000
0000
0000
0000
3003
0000
0000
0000
0000
0000
0000
0000
0000
0000
0000
0000
0000
0000
0000
0000
0001
0000
0000
0000
0000
0000
0000
0000
0000
0000
0000
0000
0000
0000
0000
0000
,  // measure 43
0100
0010
0100
1000
0010
0001
0010
0000
,  // measure 44
1000
0010
0001
0100
0010
0100
0001
1000
,  // measure 45
0100
0000
0010
1000
0010
0001
0100
0010
,  // measure 46
1000
0000
1001
0000
0100
0001
1000
0000
,  // measure 47
1000
0010
0000
0010
0001
0000
0100
0000
,  // measure 48
0100
0001
0000
0001
1000
0000
0010
0000
,  // measure 49
0010
0100
0000
0100
0001
0000
1000
0100
,  // measure 50
1000
0001
0100
0001
0001
0010
0100
0000
,  // measure 51
1100
0000
1000
0000
0100
0010
1000
0000
,  // measure 52
0010
0100
0001
1000
0010
0000
0001
0000
,  // measure 53
0011
0000
1000
0001
0010
0100
0001
0000
,  // measure 54
0100
0010
0100
0001
1000
0000
1010
0000
,  // measure 55
0010
0100
0010
0001
0100
0000
0101
0000
,  // measure 56
0001
1000
0001
0010
1000
0000
1100
0000
,  // measure 57
0100
1000
0100
0010
0001
0000
0010
1000
,  // measure 58
0100
0001
0100
0010
0110
0000
2000
0000
,  // measure 59
0010
0001
0100
3100
,  // measure 60
0001
0000
0010
0000
0001
0100
0002
0000
,  // measure 61
0010
0100
1000
1003
,  // measure 62
0100
0000
0010
0000
0001
1000
0001
0000
,  // measure 63
0010
0100
0000
0001
0000
0001
0000
0010
,  // measure 64
0000
0001
0010
0000
1000
0100
1000
0000
,  // measure 65
0010
1000
0000
0100
0000
0100
0000
1000
,  // measure 66
0000
0001
1000
0000
0010
0100
0220
0000
,  // measure 67
0000
0000
0000
0000
,  // measure 68
0000
0000
0000
0330
;

//---------------dance-single - ----------------
#NOTEDATA:;
#CHARTNAME:;
#STEPSTYPE:dance-single;
#DESCRIPTION:;
#CHARTSTYLE:;
#DIFFICULTY:Medium;
#METER:5;
#RADARVALUES:0.316980,0.411465,0.186937,0.430768,0.060958,273.000000,250.000000,23.000000,53.000000,0.000000,0.000000,0.000000,0.000000,0.000000,0.316980,0.411465,0.186937,0.430768,0.060958,273.000000,250.000000,23.000000,53.000000,0.000000,0.000000,0.000000,0.000000,0.000000;
#CREDIT:;
#NOTES:
2002
0000
0000
0000
,
3003
0000
0000
0000
,
0200
0000
0000
0300
,
2000
0000
3000
0010
,
0020
0000
0000
0000
,
0030
0000
0000
0000
,
0220
0000
0330
0000
,
0020
0030
0002
0003
,
2000
0000
3100
0010
,
0010
0000
0100
0000
0010
0001
0010
0000
,
0002
0000
0013
1000
,
0020
0100
1000
1030
,
0200
0001
0010
0301
,
0020
1000
0001
1030
,
2000
3100
0002
0103
,
0020
2030
3200
0301
,
1001
0220
0330
0010
,
1000
1000
0100
1000
,
0001
0100
0001
0000
0010
0000
0010
0000
,
0100
1000
0100
0000
0010
0000
0010
0001
,
0010
0022
0033
1000
,
0010
0000
1000
0000
0010
0000
0010
0100
,
0010
1000
0001
1000
,
0100
0001
0200
0000
0000
0000
0010
0000
,
0300
0000
1000
0000
1000
0000
0010
1000
,
0010
0000
0100
0000
0100
0000
1000
0100
,
1000
0000
0010
0000
0010
0000
0100
0001
,
0100
0000
0001
0000
0001
0000
1000
0001
,
1000
0000
0110
0000
0010
0000
1000
0010
,
1000
0000
0100
0000
0100
0000
0001
0100
,
0001
0000
1010
0000
1000
0000
0010
1000
,
0010
2002
0000
0000
,
3003
0210
0001
0010
,
0010
0300
2100
0000
0100
3000
1020
0000
,
1000
0030
0012
0000
1000
0000
0010
0000
,
0010
0003
0202
0000
0000
0303
2002
0000
,
0000
0000
3003
0000
1000
0000
0000
0010
0000
0000
1000
0000
0000
1000
0000
0000
,
0010
0000
0000
0001
0000
0000
0010
0000
0000
0010
0000
0000
0100
0000
0000
0001
,
0000
0000
0100
0000
0000
0100
0000
0000
0001
0000
0000
1000
0000
0000
0001
0000
,
0000
0001
0000
0000
1001
0000
0000
0000
0000
0000
0100
0000
0000
0010
0000
0000
,
0110
0000
0000
0000
0000
0000
0100
0000
0000
1000
0000
0000
1100
0000
0000
0100
,
0000
0000
0000
0000
0101
0000
0000
0000
0000
0000
0001
0000
0000
0000
0000
0000
1000
0000
0000
0000
0000
0000
0001
0000
0000
0000
0000
0000
1000
0000
0000
0001
,
0000
1000
0000
0000
0110
0000
0000
0000
0000
0000
0000
0000
0001
0000
0000
0000
,
0100
0000
1000
0000
0100
0010
0100
0000
,
0010
0000
1000
0001
1000
0000
0010
0000
,
0001
0000
0010
0000
0100
1000
0100
0000
,
0001
1000
1000
0010
,
0001
0010
0010
0100
,
0001
0100
0100
0001
,
1000
0001
0001
0100
,
0010
0100
0110
2000
,
3100
0000
0010
0100
0010
0000
1000
0000
,
0100
0000
0010
1000
0010
0000
0002
0000
,
1003
0000
1000
0010
1000
0000
0100
0001
,
0100
0010
0100
2000
,
3100
0010
0100
0020
,
1030
0010
1000
0002
,
0103
0020
0130
2000
,
3200
0302
1003
2020
,
3030
0001
0000
1000
,
0010
0010
0001
0202
,
0303
0010
0000
0100
,
0010
0100
0100
0002
,
0000
0010
0003
0010
,
1000
0100
0100
0002
,
0003
2000
3000
0100
,
0100
0200
0300
2002
,
0000
0000
3003
0000
;

//---------------dance-single - ----------------
#NOTEDATA:;
#CHARTNAME:;
#STEPSTYPE:dance-single;
#DESCRIPTION:;
#CHARTSTYLE:;
#DIFFICULTY:Easy;
#METER:3;
#RADARVALUES:0.208998,0.298388,0.073149,0.203193,0.016255,180.000000,171.000000,9.000000,25.000000,0.000000,0.000000,0.000000,0.000000,0.000000,0.208998,0.298388,0.073149,0.203193,0.016255,180.000000,171.000000,9.000000,25.000000,0.000000,0.000000,0.000000,0.000000,0.000000;
#CREDIT:;
#NOTES:
0002
0000
0000
0000
,
0003
0000
0000
0000
,
2000
0000
0000
0000
,
3000
0000
0000
0000
,
0020
0000
0000
0000
,
0030
0000
0000
0000
,
0200
0000
0000
0000
,
0300
0000
0000
0000
,
0001
0000
1000
0000
,
0001
0010
0001
0000
,
0100
0000
0010
0000
,
0100
1000
0100
0000
,
0001
0001
1000
0000
,
0010
0010
0001
0000
,
1000
0000
0001
0000
,
0110
0000
1001
0000
,
0000
0100
0000
0001
,
0010
0001
0000
1000
,
0001
1000
0000
0010
,
0100
0010
0000
0001
,
0001
0200
0300
1000
,
0010
1000
0000
0100
,
0010
0100
0000
0001
,
0100
0002
0000
0003
,
0000
1000
0001
1000
,
1000
0010
1000
0010
,
0010
0100
0010
0100
,
0100
0001
0100
0001
,
0001
0010
0001
0010
,
0001
0100
0010
0100
,
0010
1000
0001
0100
,
0010
1000
1000
0001
,
0001
0020
0000
0030
,
0000
2002
3003
0200
,
0300
0220
0000
0330
,
0000
0020
0030
0200
,
0300
0000
1000
0000
0000
0001
0000
0000
,
1000
0000
0000
1000
0000
0000
0010
0000
,
0000
0100
0000
0000
0010
0000
0000
0010
,
0000
0000
0000
0000
0001
0000
0000
0001
0000
0000
0001
0000
0000
0000
0000
0000
,
1000
0000
0000
1000
0000
0000
1000
0000
0000
0000
0000
0000
0010
0000
0000
0010
,
0000
0000
0100
0000
0000
0100
0000
0000
0110
0000
0000
0000
0000
0000
1001
0000
,
0000
0010
0000
0100
,
0010
0010
0000
0001
,
1000
0001
1000
0010
,
0001
0001
0000
0100
,
0010
0100
0100
1000
,
0001
1000
0000
0001
,
0010
0001
0000
0010
,
0100
0010
0000
1000
,
0000
1001
0000
0010
,
0001
0002
0003
0100
,
1000
0100
1000
0010
,
0100
0200
0300
0001
,
0010
0100
0100
0002
,
0003
0010
0010
0200
,
0300
1000
1000
0020
,
0030
0200
0300
2000
,
3000
2002
3003
0010
,
0000
0100
0000
0010
,
0001
0010
0000
1000
,
0000
0010
0000
1000
,
0001
1000
0000
0020
,
0000
0030
0000
0100
,
0000
0001
0000
0200
,
0000
0300
0000
1000
,
0000
1000
0000
0110
;

//---------------dance-single - ----------------
#NOTEDATA:;
#CHARTNAME:;
#STEPSTYPE:dance-single;
#DESCRIPTION:;
#CHARTSTYLE:;
#DIFFICULTY:Beginner;
#METER:2;
#RADARVALUES:0.117271,0.187039,0.032511,0.065022,0.000000,101.000000,97.000000,4.000000,8.000000,0.000000,0.000000,0.000000,0.000000,0.000000,0.117271,0.187039,0.032511,0.065022,0.000000,101.000000,97.000000,4.000000,8.000000,0.000000,0.000000,0.000000,0.000000,0.000000;
#CREDIT:;
#NOTES:
0000
0000
0000
0000
,
0000
0000
0000
0000
,
0000
0000
0000
0000
,
0000
0000
0000
0000
,
0010
0000
0000
0000
,
0000
0000
0000
0000
,
0100
0000
0000
0000
,
0100
0000
0000
0000
,
1000
0000
0001
0000
,
1000
0000
1000
0000
,
0010
0000
0001
0000
,
0010
0000
0010
0000
,
0100
0000
0010
0000
,
0100
0000
0100
0000
,
0001
0000
0100
0000
,
0001
0000
0001
0000
,
0000
0020
0000
0030
,
0000
0100
0000
0100
,
0000
0200
0000
0300
,
0000
1000
0000
1000
,
0000
2000
0000
3000
,
0000
0001
0000
0001
,
0000
0002
0000
0003
,
0000
0010
0000
0010
,
0000
0110
0000
0000
,
0000
1000
0000
0001
,
0000
1000
0000
0000
,
0000
0100
0000
1000
,
0000
0100
0000
0000
,
0000
0010
0000
0001
,
0000
0010
0000
0000
,
0000
1001
0000
0000
,
0000
0100
0000
0000
,
0000
0100
0000
0000
,
0000
0010
0000
0000
,
0000
0001
0000
1000
,
0000
0100
0000
0000
,
0001
0000
0000
1000
,
0000
0000
0010
0000
,
0000
0000
0100
0000
0000
0100
0000
0000
,
0001
0000
0000
0001
0000
0000
1000
0000
,
0000
1000
0000
0000
0010
0000
0000
0010
,
0000
0000
0000
1000
,
0000
0001
0000
1000
,
0000
1000
0000
0001
,
0000
0010
0000
0001
,
0000
0001
0000
0010
,
0000
0100
0000
0010
,
0000
0010
0000
0100
,
0000
0001
0000
0001
,
0000
1001
0000
0010
,
0010
0010
0000
0100
,
0000
0010
0000
1000
,
1000
1000
0000
0001
,
0000
1000
0000
0001
,
0000
0001
0000
1000
,
0000
1000
0000
0010
,
0000
0100
0000
0010
,
0000
0110
0000
0200
,
0000
0000
0000
0300
,
0000
0000
0000
0002
,
0000
0000
0000
0003
,
0000
0000
0000
2000
,
0000
0000
0000
3000
,
0000
0000
0000
0020
,
0000
0000
0000
0030
;
