#TITLE:Autumn Insomnia Session;
#SUBTITLE:;
#ARTIST:The Flashbulb;
#TITLETRANSLIT:;
#SUBTITLETRANSLIT:;
#ARTISTTRANSLIT:;
#GENRE:IDM;
#CREDIT:;
#BANNER:ais.png;
#BACKGROUND:ais-bg.png;
#LYRICSPATH:;
#CDTITLE:;
#MUSIC:ais.ogg;
#OFFSET:0.009000;
#SAMPLESTART:33.099998;
#SAMPLELENGTH:16.549999;
#SELECTABLE:YES;
#DISPLAYBPM:174.000000:212.000000;
#BPMS:0.000000=174.000000
,192.000000=212.000000
;
#STOPS:
;
#BGCHANGES:;
#KEYSOUNDS:;
#ATTACKS:;

//---------------dance-single - ----------------
#NOTES:
     dance-single:
     :
     Challenge:
     12:
     0.796681,1.287137,0.165975,0.282158,1.120332,672.000000,652.000000,20.000000,34.000000,0.000000,0.000000,0.796681,1.287137,0.165975,0.282158,1.120332,672.000000,652.000000,20.000000,34.000000,0.000000,0.000000:
// measure 0
0000
0000
0000
0000
,  // measure 1
0000
0000
0000
0000
,  // measure 2
0000
0000
0000
0000
,  // measure 3
0000
0000
0000
0000
,  // measure 4
0000
0000
0000
0000
,  // measure 5
0000
0000
0000
0000
,  // measure 6
0000
0000
0000
0000
,  // measure 7
0000
0000
0000
0000
,  // measure 8
1000
0000
0010
0000
0000
0100
0001
0000
1000
0100
0000
0010
,  // measure 9
0001
0000
0100
0010
1000
0010
0100
0000
0001
1000
0010
1000
,  // measure 10
0001
0010
0001
0100
0010
0100
0001
0000
0010
0100
0010
0001
,  // measure 11
1000
0000
1000
0100
0010
0100
1000
0000
0001
0100
0010
1000
,  // measure 12
0100
0010
0100
1000
0001
1000
0010
0000
0010
0100
0001
0100
,  // measure 13
0010
1000
0010
0100
0001
0100
0001
0000
0001
1000
0001
1000
,  // measure 14
0001
0000
0000
0000
0000
0000
1000
0000
0100
0000
1000
0000
0200
0000
0000
0000
0000
0000
0000
0000
0000
0301
0000
0000
,  // measure 15
0000
0000
0000
0001
0000
0001
0100
0000
0100
1000
0000
0001
,  // measure 16
2000
0100
0001
3020
,  // measure 17
0031
0000
0000
0000
0000
0000
0010
0000
0000
1000
0000
0000
0100
0000
0000
0000
0100
0000
0010
0000
0000
0000
0010
0000
,  // measure 18
0002
0100
1000
0023
,  // measure 19
1030
0000
0000
0010
0000
0000
0100
0000
0000
0000
0000
0000
1000
0000
0001
0000
1000
0000
0010
0000
1000
0000
0100
0000
,  // measure 20
1000
0000
0000
1001
0000
1000
0010
0000
0100
0001
0000
0010
,  // measure 21
0001
0000
0000
0110
0000
0100
0001
0000
0010
0001
0100
0001
,  // measure 22
1000
0010
1000
0010
0001
0010
1000
0100
1000
0100
0001
0100
,  // measure 23
1000
0010
0100
0001
0010
0100
1000
0000
1000
0001
0000
0001
,  // measure 24
2000
0000
0000
0000
3100
1000
0010
0100
,  // measure 25
2000
0000
0000
0000
0000
0000
3100
0000
0000
0001
0000
0000
1000
0000
0000
0000
1000
0000
0001
0000
0000
1000
0000
0000
,  // measure 26
0001
0010
1000
0010
0001
0000
1001
0000
,  // measure 27
0100
0001
0100
0001
1000
0001
1000
0001
0010
0001
0010
0000
0000
0000
0010
0000
,  // measure 28
0021
0000
0030
1020
0000
0030
0012
0000
,  // measure 29
1003
1200
0000
0300
0101
0000
0100
1000
,  // measure 30
0001
0000
0000
0100
0000
0000
0010
0000
0000
0000
0000
0000
0001
0000
0010
0000
1000
0000
0100
0000
0010
0000
0001
0000
,  // measure 31
1000
0000
0000
0000
0010
0000
0000
0000
0100
0000
0000
0000
0001
0000
0000
0000
0010
0000
0000
0000
0100
0000
0000
0000
1000
0000
0000
0010
0000
0000
1000
0000
0000
0010
0000
0000
1000
0000
0001
0000
1000
0000
0001
0000
0000
0000
0000
0000
,  // measure 32
1000
0100
0010
0100
1000
0001
0100
0010
0100
0001
1000
0100
,  // measure 33
0010
0001
1000
0001
0100
0010
0100
0000
0001
1000
0000
1000
,  // measure 34
0001
0010
0100
0010
0001
1000
0001
0100
0010
0100
0001
1000
,  // measure 35
0100
0010
0100
1000
0001
1000
0010
0100
0010
2000
0000
0000
,  // measure 36
3001
0010
0100
1000
0001
1000
0001
0100
0010
1000
0001
1000
,  // measure 37
0001
0010
0100
0010
0001
1000
0100
0010
0001
1000
0001
1000
,  // measure 38
0001
0100
0001
0100
0001
0000
0010
0000
0110
0000
0010
0000
0001
0000
1001
0000
,  // measure 39
1000
0000
0000
0000
0100
0000
0000
0000
0010
0000
0000
0000
0100
0000
0000
1000
0001
0000
0000
0000
0000
0000
0000
0000
0110
0000
0000
0000
0000
0000
0000
0000
,  // measure 40
2000
0000
3200
0000
0302
0000
0000
2003
,  // measure 41
0000
0000
0000
0000
0000
0000
0000
0000
0000
3000
0000
0000
1000
0000
0000
0000
1000
0000
0010
0000
0000
0000
0010
0000
,  // measure 42
0002
0000
0203
0000
2300
0000
0000
3002
,  // measure 43
0000
0000
0000
0003
0000
0001
0010
0000
0010
1000
0000
1000
,  // measure 44
0002
0000
2000
0000
,  // measure 45
0000
0000
0000
0003
,  // measure 46
3100
0000
0000
0010
0000
0000
0001
0000
0000
0100
0000
0000
0010
0000
0000
1000
0000
0000
0001
0000
0000
0010
0000
0000
0200
0000
0000
0000
0000
0000
0000
0000
,  // measure 47
0000
0000
0000
0000
,  // measure 48
1300
0000
0000
0000
1001
0000
0000
0001
,  // measure 49
0000
0010
1000
0010
0001
0100
0010
0000
,  // measure 50
1000
0000
0001
1000
0001
0000
0100
0000
1000
0000
0100
0000
0000
0000
0001
0000
,  // measure 51
1000
0001
1000
0000
0000
1000
0001
0010
0100
0000
0000
0000
1000
0000
0000
1000
,  // measure 52
0001
0000
0000
0001
0100
0010
0100
1000
,  // measure 53
0000
0000
0000
0100
0000
0000
0001
0000
0000
1000
0000
0000
0001
0000
0000
0000
0000
0000
1000
0000
0001
0000
1000
0000
,  // measure 54
0100
0010
0100
1000
0100
0010
0001
0100
0001
0010
0100
1000
,  // measure 55
0001
0100
0001
1000
0100
1000
0010
0100
0010
1000
0100
0010
,  // measure 56
0001
0000
0000
0001
0010
1000
0010
0001
,  // measure 57
0000
0010
0100
0000
1000
0000
0100
0010
,  // measure 58
0001
1000
0001
1000
0100
0001
0100
1000
0100
1000
0001
1000
,  // measure 59
0001
0010
1000
0010
0001
1000
0001
1000
0100
0001
0100
1000
,  // measure 60
0001
0000
0000
0010
0100
0001
0100
1000
,  // measure 61
0000
0000
0100
0000
0001
0000
0000
0000
0101
0000
0000
0000
0100
1000
0100
1000
,  // measure 62
0001
0000
0000
0000
0000
0000
0110
0000
0000
1000
0001
1000
,  // measure 63
0001
0010
1000
0010
0001
2000
0000
0000
,  // measure 64
3001
0000
0000
0000
0110
0000
0000
0000
1000
0010
1000
0010
1000
0001
1000
0001
,  // measure 65
1000
0100
1000
0100
1000
0100
0010
0001
0010
0100
0010
0100
1000
0000
0001
0000
,  // measure 66
1000
0010
1000
0010
0100
0010
0100
0010
1000
0000
0100
0000
0010
0000
0001
0000
,  // measure 67
1000
0001
1000
0001
1000
0010
1000
0010
1000
0010
1000
0100
0010
0001
0010
0100
,  // measure 68
1000
0100
1000
0100
1000
0100
0010
0100
1000
0010
1000
0010
1000
0100
0010
0001
,  // measure 69
1000
0001
1000
0000
0001
0100
0000
0010
1000
0100
1000
0100
0010
0001
0010
0100
,  // measure 70
1000
0000
0000
0100
0000
0100
0000
0010
0000
0001
0000
1000
,  // measure 71
0000
0000
0000
1000
0001
0000
0000
0000
0000
0001
1000
0000
0000
0000
0000
1000
0001
0000
0000
0000
0000
0000
0001
0000
,  // measure 72
1000
0000
0000
0000
0100
0010
0100
1000
,  // measure 73
0001
0000
0010
0100
0010
0001
1000
0100
,  // measure 74
0000
0010
0001
0000
1001
0000
0110
0000
,  // measure 75
1000
0100
0010
0001
1000
0001
1000
0001
1000
0010
0100
0001
1000
0001
1000
0001
,  // measure 76
1000
0000
1001
0000
0001
0100
0010
0100
,  // measure 77
0001
0000
1000
0000
0100
0010
0001
0010
,  // measure 78
2000
3010
0012
0000
,  // measure 79
0000
0000
0000
0000
0000
0000
0000
0000
0000
0000
0000
0000
0000
0000
0000
0000
0000
0000
0000
0000
0000
0000
0000
0000
0000
0000
1003
0000
0000
0001
0000
0000
,  // measure 80
1000
0000
0010
0100
0010
1000
0010
0100
,  // measure 81
0001
0000
0000
0000
0010
0000
0100
0000
0010
0000
0000
0000
0001
1000
0001
1000
,  // measure 82
0001
0010
0001
0010
0100
0010
0100
0010
0001
0010
0001
0010
0100
0010
0100
0010
,  // measure 83
0001
0010
0001
0010
0001
1000
0001
1000
0010
1000
0010
1000
0100
1000
0100
1000
,  // measure 84
0001
0000
0000
0000
1000
0000
0100
0010
,  // measure 85
1000
0000
0010
0001
1000
0000
1001
0000
,  // measure 86
0001
1000
0002
0000
0003
0010
0100
0020
0000
0000
1030
0010
2000
0000
0000
0000
,  // measure 87
3010
0001
0020
0000
0000
0031
0100
0002
0000
0000
0000
1003
0001
1000
0001
1000
,  // measure 88
0002
0000
0000
0000
,  // measure 89
0000
0000
0000
0000
,  // measure 90
0203
0000
0000
0000
,  // measure 91
0000
0000
0000
0000
,  // measure 92
2300
0000
0000
0000
,  // measure 93
0000
0000
0000
0000
,  // measure 94
3000
0000
0000
0000
;

//---------------dance-single - ----------------
#NOTES:
     dance-single:
     :
     Hard:
     10:
     0.693539,0.975104,0.298755,0.282158,0.817427,585.000000,549.000000,36.000000,34.000000,0.000000,0.000000,0.693539,0.975104,0.298755,0.282158,0.817427,585.000000,549.000000,36.000000,34.000000,0.000000,0.000000:
// measure 0
0000
0000
0000
0000
,  // measure 1
0000
0000
0000
0000
,  // measure 2
0000
0000
0000
0000
,  // measure 3
0000
0000
0000
0000
,  // measure 4
0000
0000
0000
0000
,  // measure 5
0000
0000
0000
0000
,  // measure 6
0000
0000
0000
0000
,  // measure 7
0000
0000
0000
0000
,  // measure 8
1000
0000
0001
0000
0000
0001
0100
0000
0010
1000
0000
1000
,  // measure 9
0001
0000
0001
0010
0100
0010
0001
0000
0000
1000
0001
1000
,  // measure 10
0100
0010
0100
1000
0001
1000
0010
0000
0100
0000
0001
0000
,  // measure 11
0000
1000
0010
0000
0100
0010
1000
0000
1000
0001
0100
0001
,  // measure 12
1000
0100
1000
0010
1000
0010
0100
0000
0100
0001
1000
0001
,  // measure 13
1000
0010
1000
0001
0100
0001
1000
0000
0000
0001
1000
0001
,  // measure 14
2000
0000
3200
0000
0302
0000
0000
0103
,  // measure 15
0000
0000
0000
0100
0000
0100
1000
0000
1000
0001
0000
1000
,  // measure 16
0001
0100
0101
1200
,  // measure 17
0302
0000
0013
0100
0110
0000
1200
0000
,  // measure 18
2300
3010
1010
0021
,  // measure 19
1030
0000
0000
0100
0000
0000
0001
0000
0000
0100
0000
0000
1000
0000
0001
0000
1000
0000
0010
0000
1000
0000
0010
0000
,  // measure 20
1000
0000
0000
0010
0000
0010
1000
0000
0100
0010
0000
0000
,  // measure 21
0001
0000
0000
0010
0000
0010
0001
0000
0100
0010
1000
0010
,  // measure 22
1000
0001
1000
0010
1000
0010
1000
0001
1000
0100
0010
0100
,  // measure 23
1000
0100
0010
0001
0010
0100
1000
0000
1000
0001
0000
0001
,  // measure 24
2000
0000
0000
0000
3001
0100
0010
1000
,  // measure 25
0200
0000
0301
0100
1000
0001
1000
0010
,  // measure 26
0000
0001
0010
1000
0001
0000
1001
0000
,  // measure 27
1000
0001
1000
0001
1000
0010
1000
0010
0100
0001
0100
0000
0000
0000
0010
0000
,  // measure 28
0110
0000
0000
1010
0000
0000
0011
0000
,  // measure 29
0010
1000
0000
0000
1001
0000
1000
0100
,  // measure 30
1000
0000
0000
0001
0000
0000
1000
0000
0000
0010
0000
0000
0100
0000
0001
0000
0100
0000
0010
0000
1000
0000
0010
0000
,  // measure 31
1000
0000
0100
0000
0010
0000
0001
0000
0010
0000
0100
0000
1000
0000
0001
0000
1000
0000
0002
0000
0000
1003
0000
0000
,  // measure 32
0001
0010
0100
0010
0001
1000
0001
0100
0010
0100
0001
1000
,  // measure 33
0001
0010
0100
1000
0100
0010
0001
0000
0100
0000
0010
0000
,  // measure 34
1000
0100
0010
0100
1000
0001
1000
0010
0100
0010
1000
0001
,  // measure 35
1000
0100
0010
0001
0010
0100
1000
0000
0000
1001
0000
0000
,  // measure 36
0001
0010
0100
0010
0001
1000
0001
0100
0010
0100
0001
1000
,  // measure 37
0001
0010
0100
1000
0100
0010
0001
0000
0100
0000
0010
0000
,  // measure 38
1000
0001
1000
0001
1000
0000
0100
0000
0010
0000
0001
0000
0100
0000
1000
0000
,  // measure 39
0100
0001
0010
1000
0010
0000
0011
0000
,  // measure 40
2000
0000
3200
0000
0302
0000
0000
0203
,  // measure 41
0000
0000
0000
0000
0000
0000
1300
0000
0100
0010
0000
0010
,  // measure 42
0002
0000
0203
0000
2300
0000
0000
3200
,  // measure 43
0000
0000
0000
0300
0000
0100
0001
0000
1000
0001
0000
0001
,  // measure 44
2000
0000
0002
0000
,  // measure 45
0000
0000
0000
3000
,  // measure 46
1003
0000
0000
0001
0000
0000
1000
0000
0000
0001
0000
0000
0010
0000
0000
0100
0000
0000
1000
0000
0000
0100
0000
0000
0020
0000
0000
0000
0000
0000
0000
0000
,  // measure 47
0000
0000
0000
0000
,  // measure 48
0031
0000
0000
0000
1001
0000
0000
1000
,  // measure 49
0000
0100
0010
0100
1000
0010
0001
0000
,  // measure 50
0010
0000
1000
0001
1000
0000
0100
0000
0010
0000
0001
0000
0100
0000
0010
0000
,  // measure 51
2000
0000
0000
0000
3001
1000
0001
0000
1000
0000
0000
0000
0100
0000
0000
0010
,  // measure 52
0001
0000
0000
0001
0100
0010
1000
0100
,  // measure 53
0000
0000
0000
0001
0000
0000
0100
0000
0000
1000
0000
0000
0001
0000
0000
0000
0000
0000
1000
0000
0001
0000
1000
0000
,  // measure 54
0001
1000
0001
0100
0001
0100
0001
0010
0001
0010
0001
1000
,  // measure 55
0001
0010
0100
1000
0100
0010
0001
1000
0001
1000
0001
1000
,  // measure 56
0001
0000
0000
0010
0100
0001
0100
1000
,  // measure 57
0000
0100
0010
0000
0011
0000
0001
1000
,  // measure 58
0001
0010
0100
1000
0001
1000
0001
0010
0100
1000
0001
1000
,  // measure 59
0001
0100
0010
1000
0001
1000
0001
0100
0010
1000
0001
1000
,  // measure 60
0001
0000
0000
0001
1000
0100
0010
1000
,  // measure 61
0000
0000
0000
0010
0000
0000
0001
0000
0000
0000
0000
0000
1001
0000
0000
0000
0000
0000
0100
0000
0010
0000
0100
0000
,  // measure 62
0001
0000
0000
0000
0000
0000
0000
0000
1001
0000
0000
0000
0001
1000
0001
0000
,  // measure 63
1000
0100
0010
0001
0100
1000
0000
0000
,  // measure 64
0101
0000
0000
0000
0011
0000
0000
0000
0001
0000
0000
0100
0000
0000
0110
0000
,  // measure 65
0010
0000
0000
1000
0000
1000
0100
0000
0010
0000
0001
0000
0100
0000
0010
0000
,  // measure 66
1000
0000
0000
0100
0000
0000
0110
0000
0010
0000
0001
0000
1000
0000
0001
0000
,  // measure 67
1000
0000
0000
0100
0000
0000
0001
0000
0100
0000
0000
0000
1000
0001
1000
0000
,  // measure 68
0001
0000
0000
0100
0000
0000
0101
0000
0001
0000
0000
1000
0000
0001
0010
0000
,  // measure 69
1000
0001
1000
0000
0100
0000
0010
0000
0001
0000
0000
1000
0000
0000
0001
1000
,  // measure 70
0001
0000
0000
1000
0000
1000
0000
0100
0000
0100
0000
0010
,  // measure 71
0000
0000
0000
0011
0000
0000
0000
0000
0000
1010
0000
0000
0000
0000
0000
0011
0000
0000
0000
0000
0000
0000
1000
0000
,  // measure 72
0001
0000
0000
0000
1000
0100
0010
0100
,  // measure 73
2000
0000
3010
0001
0010
1000
0100
0001
,  // measure 74
0000
0001
0100
1000
0001
0000
1001
0000
,  // measure 75
1000
0100
0001
0100
1000
0010
0001
0010
,  // measure 76
1000
0000
1001
0000
1000
0010
0100
1000
,  // measure 77
0200
0000
0301
1000
0100
0000
0020
0000
,  // measure 78
0032
1003
2001
0000
,  // measure 79
0000
0000
0000
0000
0000
0000
0000
0000
0000
0000
0000
0000
0000
0000
0000
0000
0000
0000
0000
0000
0000
0000
0000
0000
0000
0000
3001
0000
0000
1000
0000
0000
,  // measure 80
0001
0000
0010
0100
1000
0000
0010
0001
,  // measure 81
0020
0000
1000
1000
1030
0000
1000
0010
,  // measure 82
1000
0000
0000
1100
0000
0000
0000
0110
0000
0000
0000
0101
0000
0000
1100
0000
,  // measure 83
0000
0000
1001
0000
0000
0000
0110
0000
0000
0000
1100
0000
0000
0100
0001
0000
,  // measure 84
2000
0000
0000
0000
3001
0000
0010
0100
,  // measure 85
0020
0000
1030
0010
0001
0000
1001
0000
,  // measure 86
1000
0100
0000
0000
0000
0001
0100
0000
0000
0000
1000
0010
0000
0000
0000
0000
,  // measure 87
0001
0010
0000
0000
0000
1000
0001
0000
0000
0000
0010
0000
0001
0000
0100
0000
,  // measure 88
2000
0000
0000
0000
,  // measure 89
0000
0000
0000
0000
,  // measure 90
3200
0000
0000
0000
,  // measure 91
0000
0000
0000
0000
,  // measure 92
0302
0000
0000
0000
,  // measure 93
0000
0000
0000
0000
,  // measure 94
0003
0000
0000
0000
;

//---------------dance-single - ----------------
#NOTES:
     dance-single:
     :
     Medium:
     9:
     0.553645,0.663071,0.240664,0.290456,0.435685,467.000000,438.000000,29.000000,35.000000,0.000000,0.000000,0.553645,0.663071,0.240664,0.290456,0.435685,467.000000,438.000000,29.000000,35.000000,0.000000,0.000000:
// measure 0
0000
0000
0000
0000
,  // measure 1
0000
0000
0000
0000
,  // measure 2
0000
0000
0000
0000
,  // measure 3
0000
0000
0000
0000
,  // measure 4
0000
0000
0000
0000
,  // measure 5
0000
0000
0000
0000
,  // measure 6
0000
0000
0000
0000
,  // measure 7
0000
0000
0000
0000
,  // measure 8
1000
0000
0100
0000
0000
0100
1000
0000
0010
0100
0000
0100
,  // measure 9
0010
0000
1000
0001
0000
0010
0100
0000
1000
0001
0000
1000
,  // measure 10
0001
0000
0001
1000
0000
1000
0100
0000
0100
0010
0000
0010
,  // measure 11
0001
0000
0001
1000
0000
0100
0010
0000
0100
1000
0000
1000
,  // measure 12
0001
0000
0001
1000
0000
0100
0010
0000
0010
0100
0000
1000
,  // measure 13
0001
0000
0001
0010
0000
0010
0200
0000
0000
1300
0000
0000
,  // measure 14
2001
0000
0000
0000
3002
0000
0000
1003
,  // measure 15
0000
0000
0000
1000
0000
1000
0100
0000
0100
0010
0000
0100
,  // measure 16
1000
0010
0001
0020
,  // measure 17
1030
0000
0100
1000
0001
0000
0200
0000
,  // measure 18
0310
0001
0010
2000
,  // measure 19
3100
0001
0100
0000
1100
0000
1001
0000
,  // measure 20
0201
0000
0000
0310
0000
1000
0100
0000
0100
0010
0000
0000
,  // measure 21
0011
0000
0000
0010
0000
0100
0010
0000
0001
1000
0001
1000
,  // measure 22
0002
0203
2300
3200
,  // measure 23
0302
0023
1030
0000
,  // measure 24
0012
0000
0000
0000
1003
0100
1000
0100
,  // measure 25
0002
0000
0103
1000
0001
0010
0100
1000
,  // measure 26
0000
0010
0001
0010
1000
0000
1001
0000
,  // measure 27
0001
0000
0000
1000
0000
0000
0100
0000
0010
0000
0001
0000
0000
0000
0010
0000
,  // measure 28
1000
0000
0000
0011
0000
0000
0101
0000
,  // measure 29
0100
1000
0000
0000
0101
0000
1000
0001
,  // measure 30
1000
0100
0010
0100
1000
0000
1000
0000
,  // measure 31
0100
0000
0000
0000
0000
0000
0100
0000
0000
0000
0000
0000
0001
0000
0100
0000
1000
0000
0001
0000
0000
1000
0000
0000
,  // measure 32
0001
0000
0100
0000
0010
1000
0010
0000
1000
0000
0100
0010
,  // measure 33
0100
0000
0100
0000
0000
1000
0001
0000
0000
0110
0000
0000
,  // measure 34
1000
0000
0100
0000
0010
0100
0010
0000
0001
0000
1000
0001
,  // measure 35
1000
0000
0100
0000
0000
1000
0001
0000
0000
0110
0000
0000
,  // measure 36
1000
0000
0100
0000
0010
0001
0010
0000
0001
0000
0100
0010
,  // measure 37
0100
0000
0010
1000
0000
0100
0010
0000
0000
0011
0000
0000
,  // measure 38
0001
0100
1000
0100
0001
0010
1000
0010
,  // measure 39
0001
0100
0010
1000
0100
0000
0011
0000
,  // measure 40
2000
0000
0001
0000
3200
0000
0000
0320
,  // measure 41
0000
0000
0000
0000
0000
0000
0031
0000
0001
1000
0000
1000
,  // measure 42
0002
0000
1000
0000
0023
0000
0000
0230
,  // measure 43
0000
0000
0000
0300
0000
0100
1000
0000
1000
0001
0000
0001
,  // measure 44
2000
0000
0002
0000
,  // measure 45
0000
0000
0000
3000
,  // measure 46
1003
0000
0000
0001
0000
0000
1000
0000
0000
0001
0000
0000
1000
0000
0000
0001
0000
0000
1000
0000
0000
0001
0000
0000
2000
0000
0000
0000
0000
0000
0000
0000
,  // measure 47
0000
0000
0000
0000
,  // measure 48
3001
0000
0000
0000
1001
0000
0000
1000
,  // measure 49
0000
0010
0100
0010
1000
0100
0010
0000
,  // measure 50
0001
0100
0010
0100
0001
0010
0100
0010
,  // measure 51
0100
0000
0100
1000
0001
0000
1001
0000
,  // measure 52
1100
0000
0000
0100
0001
0000
0000
0100
,  // measure 53
0000
0000
0000
1000
0000
0000
0001
0000
0000
0100
0000
0000
0001
0000
0000
0000
0000
0000
0010
0000
0000
0000
0100
0000
,  // measure 54
0000
1000
0000
0001
0000
0100
0000
0001
0000
1000
0000
0100
,  // measure 55
0000
0000
0010
0000
0000
0000
0001
0000
0000
0000
1000
0000
0000
0000
0001
0000
0000
0000
0100
0000
0000
0001
0000
0000
,  // measure 56
1000
0000
0000
0100
0010
0001
0010
0001
,  // measure 57
0000
0100
0010
0000
1010
0000
1000
0010
,  // measure 58
0100
0000
1000
0000
0100
0000
0001
0000
0010
0000
1000
0000
,  // measure 59
0010
0000
0001
0000
0100
0000
0010
0000
1000
0000
0001
0000
,  // measure 60
1000
0000
0000
0100
0010
0001
0100
0001
,  // measure 61
0000
0010
1000
0000
0011
0000
0001
1000
,  // measure 62
0002
0000
0000
0000
0103
0000
1000
0100
,  // measure 63
0001
0010
0100
1000
0001
0100
0000
0000
,  // measure 64
0101
0000
0000
0000
0110
0000
0000
0000
0100
0000
0000
0001
0000
0000
1000
0000
,  // measure 65
0100
0000
0000
0010
0000
0000
0100
0000
1000
0000
0001
0000
1000
0000
0010
0000
,  // measure 66
1000
0000
0000
0100
0000
0000
0010
0000
0001
0000
0100
0000
0001
0000
0100
0000
,  // measure 67
0010
0000
0000
1000
0000
0000
0100
0000
0000
0000
0010
0000
0001
0000
1000
0000
,  // measure 68
0001
0000
0000
0100
0000
0000
0010
0000
0100
0000
0000
0001
0000
0000
0010
0000
,  // measure 69
1000
0010
0001
0000
1000
0000
0001
0100
,  // measure 70
0010
0000
0000
1000
0000
1000
0000
0001
0000
0001
0000
0001
,  // measure 71
0000
0000
0000
1001
0000
0000
0000
0000
0000
0110
0000
0000
0000
0000
0000
1001
0000
0000
0000
0000
0000
0000
0001
0000
,  // measure 72
1000
0000
0000
0000
0100
0010
0100
0010
,  // measure 73
0002
0000
0103
1000
0100
0000
0001
0010
,  // measure 74
0000
0010
0100
1000
0100
0000
0110
0000
,  // measure 75
0010
0001
0010
0001
1000
0100
1000
0100
,  // measure 76
1000
0000
1001
0000
0001
0100
0001
0100
,  // measure 77
0020
0000
1030
0001
1000
0000
0120
0000
,  // measure 78
2030
3001
1001
0000
,  // measure 79
0000
0000
0000
0000
0000
0000
0000
0000
0000
0000
0000
0000
0000
1000
0000
0000
,  // measure 80
0001
0000
0010
0100
0010
0000
0001
1000
,  // measure 81
0001
0000
1000
0100
0001
0000
0200
0000
,  // measure 82
1300
0000
0000
0100
0000
0000
0000
0010
0000
0000
0000
0001
0000
0000
0100
0000
,  // measure 83
0000
0000
0010
0000
0000
0000
1000
0000
0000
0000
0100
0000
0000
0010
0000
0000
,  // measure 84
0002
0000
0000
0000
1003
0000
0100
0001
,  // measure 85
0200
0000
1300
0001
1000
0000
1001
0000
,  // measure 86
1000
0100
0000
0000
0000
0010
0001
0000
0000
0000
0010
0100
0000
0000
0000
0000
,  // measure 87
1000
0001
0000
0000
0000
0100
0010
0000
0000
0000
1000
0000
0001
0000
0010
0000
,  // measure 88
0002
0000
0000
0000
,  // measure 89
0000
0000
0000
0000
,  // measure 90
0023
0000
0000
0000
,  // measure 91
0000
0000
0000
0000
,  // measure 92
0230
0000
0000
0000
,  // measure 93
0000
0000
0000
0000
,  // measure 94
0300
0000
0000
0000
;

//---------------dance-single - ----------------
#NOTES:
     dance-single:
     :
     Easy:
     7:
     0.411381,0.585062,0.215768,0.390042,0.199170,347.000000,321.000000,26.000000,47.000000,0.000000,0.000000,0.411381,0.585062,0.215768,0.390042,0.199170,347.000000,321.000000,26.000000,47.000000,0.000000,0.000000:
// measure 0
0000
0000
0000
0000
,  // measure 1
0000
0000
0000
0000
,  // measure 2
0000
0000
0000
0000
,  // measure 3
0000
0000
0000
0000
,  // measure 4
0000
0000
0000
0000
,  // measure 5
0000
0000
0000
0000
,  // measure 6
0000
0000
0000
0000
,  // measure 7
0000
0000
0000
0000
,  // measure 8
1000
0000
0000
0000
0001
0000
0000
0000
0000
0000
0010
0000
0100
0000
0000
0000
1000
0000
0000
0000
0000
0001
0000
0000
,  // measure 9
0000
0000
1000
0000
0000
1000
0100
0000
0000
0010
0000
0000
,  // measure 10
0001
0000
0100
0000
0000
0010
1000
0000
0001
0000
1000
0000
,  // measure 11
0000
0100
0010
0000
0000
0010
0001
0000
0000
1000
0000
0000
,  // measure 12
0100
0000
0000
0010
0000
0000
0011
0000
0001
1000
0000
1000
,  // measure 13
0100
0000
0100
0010
0000
0010
0001
0000
0000
1001
0000
0000
,  // measure 14
2000
0000
3200
0000
0302
0000
0000
0103
,  // measure 15
0000
0000
0000
0100
0000
0000
1000
0000
1000
0001
0000
0001
,  // measure 16
1000
0100
0010
2000
,  // measure 17
3010
0000
0001
1000
0001
0000
2000
0000
,  // measure 18
3001
0100
0010
1000
,  // measure 19
0001
1000
0001
0000
1000
0000
0001
0000
,  // measure 20
0110
0110
1001
1001
,  // measure 21
1000
0000
0100
0000
0001
0000
0100
1000
,  // measure 22
0001
0000
0000
1000
0000
0001
1000
0000
0000
0100
0000
0000
,  // measure 23
0010
0000
0000
0001
0000
0010
0100
0000
0100
1000
0000
1000
,  // measure 24
0002
0000
0000
0000
1003
0000
0000
0100
,  // measure 25
0020
0000
1030
0000
0010
0000
0001
0100
,  // measure 26
0000
0100
0010
0000
1000
0000
1001
0000
,  // measure 27
0001
0000
0001
0000
0001
1000
0000
0100
,  // measure 28
0010
0000
0000
0011
0000
0000
0001
0000
,  // measure 29
1000
0100
0000
0000
0010
0000
0100
1000
,  // measure 30
0000
0001
0100
0000
0010
0000
0010
0000
,  // measure 31
0100
0000
0100
0000
0001
1000
0001
1000
,  // measure 32
0001
0000
0000
0000
0000
0001
0100
0000
0000
0000
0000
0010
,  // measure 33
1000
0000
0001
0000
0000
0001
0010
0000
0000
0100
0000
0000
,  // measure 34
1000
0000
0000
0010
0000
0100
0001
0000
0000
1000
0000
0100
,  // measure 35
0010
0000
0100
0000
0000
1000
0001
0000
0000
1001
0000
0000
,  // measure 36
1000
0000
0000
0010
0000
0100
0010
0000
0000
1000
0000
1000
,  // measure 37
0001
0000
0010
0001
0000
0100
0010
0000
0000
1000
0000
0000
,  // measure 38
0001
1000
0001
0000
1000
0000
0000
0100
,  // measure 39
0000
0010
0011
0001
,  // measure 40
2000
3002
2003
3000
,  // measure 41
0000
0000
0000
0000
,  // measure 42
0002
2003
3002
0003
,  // measure 43
0000
0000
0000
0000
,  // measure 44
0200
0000
0000
0000
,  // measure 45
0000
0000
0000
0000
,  // measure 46
0320
0000
0000
0000
,  // measure 47
0000
0000
0000
0000
,  // measure 48
1030
0000
0000
0000
1001
0000
0000
0001
,  // measure 49
0000
0100
0010
0100
,  // measure 50
0001
1000
0001
0000
1000
0100
0000
0100
,  // measure 51
1000
0000
0001
1000
0001
0000
0100
0000
,  // measure 52
0010
0000
0000
0010
1000
0000
0000
0100
,  // measure 53
0000
0000
0000
0010
0000
0000
0100
0000
0000
0000
0000
0000
1000
0000
0000
0000
0000
0000
0001
0000
0000
0000
1000
0000
,  // measure 54
0000
0001
0000
1000
0000
0001
0000
1000
0000
0001
0000
0010
,  // measure 55
0000
0100
0000
1000
0000
0100
0000
0010
0000
0001
0000
0000
,  // measure 56
1000
0000
0000
1000
0010
0000
0000
0100
,  // measure 57
0000
0010
1000
0000
0001
0000
0010
0000
,  // measure 58
0001
0000
0000
0000
0000
0000
0011
0000
0000
0000
0000
0110
,  // measure 59
0000
0000
0000
0000
1001
0000
0000
0000
0101
0000
0000
0000
,  // measure 60
0011
0000
0000
0001
1000
0000
0000
0100
,  // measure 61
0000
0010
0100
0000
1000
0000
0001
1000
,  // measure 62
0001
0000
0000
0000
0110
0000
1000
0001
,  // measure 63
1000
0100
0010
0000
,  // measure 64
0001
0000
1001
0000
2000
0000
0000
3001
,  // measure 65
0200
0000
0000
0301
0020
0000
0031
1000
,  // measure 66
0002
0000
0000
0013
0001
0000
0100
0000
,  // measure 67
0020
0000
0000
1030
0200
0000
1300
0001
,  // measure 68
2000
0000
0000
3001
0020
0000
0000
0031
,  // measure 69
0200
0000
0000
0301
1000
0000
0100
0000
,  // measure 70
0010
0000
0000
0002
0000
0000
0000
2003
0000
0000
0000
0000
,  // measure 71
3000
1001
0000
1001
0000
1001
0000
0000
,  // measure 72
1000
0000
0000
0000
0110
0000
0000
0001
,  // measure 73
1000
0000
0000
0000
0110
0000
0000
1000
,  // measure 74
0000
0001
0010
0000
0100
0000
1000
0000
,  // measure 75
0002
0000
2003
0000
,  // measure 76
3001
0000
1001
0000
1000
0000
0000
0100
,  // measure 77
0010
0001
1000
0000
,  // measure 78
0200
0310
0011
0000
,  // measure 79
0000
0000
0000
0000
0000
0000
0001
1000
,  // measure 80
0001
0000
0000
0010
0100
0000
0000
1000
,  // measure 81
0001
0000
0100
0010
0100
0000
0002
0000
,  // measure 82
2003
3002
2003
3002
,  // measure 83
0203
0302
0023
0032
,  // measure 84
1003
0000
0000
0000
1001
0000
0000
0001
,  // measure 85
0100
0000
0010
1000
0010
0000
1000
0000
,  // measure 86
0200
0000
0000
0000
0000
0320
0000
0000
0000
0000
0032
0000
0000
0000
0000
0000
,  // measure 87
2003
0000
0000
0000
0000
3002
0000
0000
0000
0000
1003
0000
0020
0000
0000
0000
,  // measure 88
2030
0000
0000
0000
,  // measure 89
0000
0000
0000
0000
,  // measure 90
3200
0000
0000
0000
,  // measure 91
0000
0000
0000
0000
,  // measure 92
0320
0000
0000
0000
,  // measure 93
0000
0000
0000
0000
,  // measure 94
0030
0000
0000
0000
;

//---------------dance-single - ----------------
#NOTES:
     dance-single:
     :
     Beginner:
     4:
     0.248963,0.381743,0.224066,0.215768,0.008299,210.000000,183.000000,27.000000,26.000000,0.000000,0.000000,0.248963,0.381743,0.224066,0.215768,0.008299,210.000000,183.000000,27.000000,26.000000,0.000000,0.000000:
// measure 0
0000
0000
0000
0000
,  // measure 1
0000
0000
0000
0000
,  // measure 2
0000
0000
0000
0000
,  // measure 3
0000
0000
0000
0000
,  // measure 4
0000
0000
0000
0000
,  // measure 5
0000
0000
0000
0000
,  // measure 6
0000
0000
0000
0000
,  // measure 7
0000
0000
0000
0000
,  // measure 8
1000
0000
0001
0000
,  // measure 9
0100
0001
1000
0100
,  // measure 10
0010
0000
0001
0000
,  // measure 11
1000
0010
0100
0001
,  // measure 12
0100
0000
0010
0000
,  // measure 13
1000
0010
0100
0010
,  // measure 14
2000
0000
3001
0000
,  // measure 15
0000
0000
0000
0001
,  // measure 16
1000
0000
0100
0000
,  // measure 17
0001
0000
0100
0000
,  // measure 18
1000
0000
0010
0000
,  // measure 19
0001
0000
0010
1000
,  // measure 20
0001
0100
0001
1000
,  // measure 21
0001
0010
0100
0010
,  // measure 22
0002
0000
2003
0000
,  // measure 23
3002
0000
1003
0000
,  // measure 24
1001
0000
0100
0000
,  // measure 25
0020
0000
0030
0000
0001
0000
0000
0100
,  // measure 26
0000
0010
1000
0001
,  // measure 27
1000
0010
1000
0010
,  // measure 28
1000
0000
0000
0001
0000
0000
1000
0000
,  // measure 29
0000
0001
0000
0000
1000
0000
0001
0000
,  // measure 30
1000
0000
0110
0000
,  // measure 31
1001
0000
0110
0000
,  // measure 32
1000
0001
1000
0010
,  // measure 33
1000
0001
1000
0010
,  // measure 34
1000
0001
1000
0100
,  // measure 35
1000
0001
1000
0100
,  // measure 36
1000
0001
0100
0001
,  // measure 37
1000
0001
0100
0001
,  // measure 38
2000
0000
0000
0000
3001
0000
0000
1001
,  // measure 39
0000
1000
0100
0010
,  // measure 40
0002
0000
0000
0000
,  // measure 41
0000
0000
0000
0000
,  // measure 42
2003
0000
0000
0000
,  // measure 43
0000
0000
0000
0000
,  // measure 44
3002
0000
0000
0000
,  // measure 45
0000
0000
0000
0000
,  // measure 46
2000
0000
0000
0000
,  // measure 47
0000
0000
0000
3003
,  // measure 48
1001
0000
1000
0000
,  // measure 49
0001
0000
1001
0000
,  // measure 50
1000
0000
0100
0000
,  // measure 51
0010
0000
0011
0000
,  // measure 52
0001
0000
0100
0000
,  // measure 53
0010
0000
1000
0002
,  // measure 54
0000
2003
0000
0000
,  // measure 55
3002
0000
0000
1003
,  // measure 56
0001
0000
0110
0000
,  // measure 57
0000
1000
0001
1000
,  // measure 58
0002
0000
0203
0000
,  // measure 59
0320
0000
2030
0000
,  // measure 60
3001
0000
1001
0000
,  // measure 61
0000
1000
0100
1000
,  // measure 62
0001
0000
1000
0000
,  // measure 63
2002
0000
0000
0000
0003
3000
0000
0000
,  // measure 64
1001
0000
1001
0000
,  // measure 65
0110
0000
0110
0000
,  // measure 66
1001
0000
1000
0001
,  // measure 67
1000
0000
1001
0000
,  // measure 68
0011
0000
0011
0000
,  // measure 69
1100
0000
1100
0000
,  // measure 70
1001
0000
0000
0000
,  // measure 71
0000
1000
0000
0001
0000
1000
0000
0000
,  // measure 72
0001
0000
0100
0000
,  // measure 73
0001
0000
0010
0000
,  // measure 74
0000
0001
1000
0001
,  // measure 75
2000
0000
3200
0000
,  // measure 76
0310
0001
0010
0000
,  // measure 77
0001
1000
0001
0000
,  // measure 78
0110
0000
1001
0000
,  // measure 79
0000
0000
0000
0000
,  // measure 80
1000
0000
0100
0000
,  // measure 81
0010
0000
0001
0000
,  // measure 82
2002
0000
0000
0000
,  // measure 83
0000
0000
0000
3003
,  // measure 84
1001
0000
1000
0000
,  // measure 85
0100
0000
0010
0000
,  // measure 86
0001
0000
0000
0000
0000
1000
0000
0000
0000
0000
0001
0000
0000
0000
0000
0000
,  // measure 87
1000
0000
0000
0000
0000
0001
0000
0000
0000
0000
2000
0000
0000
0000
0000
0000
,  // measure 88
3002
0000
0000
0000
,  // measure 89
0000
0000
0000
0000
,  // measure 90
2000
0000
0000
0000
,  // measure 91
0000
0000
0000
3003
,  // measure 92
1001
0000
0000
0000
;
