#TITLE:Alone;
#SUBTITLE:;
#ARTIST:Marshmello;
#TITLETRANSLIT:;
#SUBTITLETRANSLIT:;
#ARTISTTRANSLIT:;
#GENRE:;
#CREDIT:;
#BANNER:;
#BACKGROUND:;
#LYRICSPATH:;
#CDTITLE:;
#MUSIC:Alone.ogg;
#OFFSET:-0.147420;
#SAMPLESTART:74.543999;
#SAMPLELENGTH:15.000000;
#SELECTABLE:YES;
#BPMS:0.000000=142.000000
;
#STOPS:44.000000=0.845000,
170.000000=0.845000
;
#BGCHANGES:;
#KEYSOUNDS:;
#ATTACKS:;

//---------------dance-single - ----------------
#NOTES:
     dance-single:
     :
     Hard:
     11:
     0.622495,0.925006,0.110423,0.135905,0.411963,513.000000,500.000000,13.000000,16.000000,29.000000,0.000000,0.622495,0.925006,0.110423,0.135905,0.411963,513.000000,500.000000,13.000000,16.000000,29.000000,0.000000:
// measure 0
0000
0000
0000
0000
,  // measure 1
1000
0100
0001
0100
1000
0010
0001
0010
,  // measure 2
1000
0100
0010
1000
0010
0001
0100
0010
,  // measure 3
1000
0100
0010
0001
1000
0010
0100
0001
,  // measure 4
2000
0000
3020
0000
0230
0000
0301
0010
,  // measure 5
0100
M000
0M00
00M0
000M
M000
0010
0000
,  // measure 6
0101
0000
1000
0000
0101
0000
1000
1000
,  // measure 7
0101
0010
0010
0010
,  // measure 8
1001
1000
0100
0010
0001
0100
0010
1000
,  // measure 9
0001
0000
0000
0010
0000
0000
0100
0000
0000
0000
1000
0000
0001
0000
0000
0000
,  // measure 10
0100
0000
0000
0100
0000
0000
0100
0000
0000
0000
0000
0000
0010
0000
0000
0000
,  // measure 11
0100
0000
0000
0000
1000
0000
0000
0000
0001
0000
0100
0001
0100
0000
0010
0000
,  // measure 12
0100
0000
0100
0000
1001
0000
0010
0000
0100
0000
0010
0001
0010
0000
0100
0000
,  // measure 13
0010
0000
0010
0000
1001
0000
1000
0000
0100
0000
0010
0001
0010
0000
0100
0000
,  // measure 14
1000
0000
1000
0000
0001
0000
0010
0000
0100
0000
1000
0100
1000
0000
0010
0000
,  // measure 15
0100
0000
0010
0000
0110
0000
0000
0000
1000
0000
0100
1000
0010
0000
0100
0000
,  // measure 16
0001
0000
0001
0000
1000
0000
0001
0000
1100
0000
0010
0001
1000
0000
0010
0000
,  // measure 17
0100
0000
0100
0000
0110
0000
0010
0000
0001
0000
1000
0100
0010
0000
0001
0000
,  // measure 18
0100
0100
0010
1000
0100
0100
0010
0001
,  // measure 19
1000
0100
0010
0001
M010
0M00
M000
0M00
,  // measure 20
M001
0M00
M001
0M02
M000
0M00
M000
0M00
,  // measure 21
M000
0M00
M003
0000
0001
0200
0000
0320
,  // measure 22
0000
2030
0000
0002
0000
0000
0000
0000
,  // measure 23
3003
0000
10M0
00M1
,  // measure 24
01M0
0000
10M0
0100
00M2
0000
02M3
0000
,  // measure 25
13M0
0000
01M0
0000
00M1
0000
0100
0020
,  // measure 26
0000
0000
0031
0001
0000
0100
0000
0020
,  // measure 27
0000
1030
0001
0000
1100
0000
0110
0000
,  // measure 28
0011
0000
1000
0002
0200
0000
0300
0000
,  // measure 29
0000
0000
0013
0100
1000
0000
0001
0100
0010
0000
0010
0000
1000
0000
0100
0000
,  // measure 30
0010
0001
1000
0100
0001
0100
0010
0001
,  // measure 31
0100
1000
0100
0001
1000
0000
0001
0000
,  // measure 32
0100
0000
1000
0100
0002
0000
1000
0000
,  // measure 33
0100
0000
1000
0000
0013
0000
1000
0100
,  // measure 34
0010
0000
0001
0100
0010
1000
0001
0010
,  // measure 35
0100
1000
0001
0000
0010
0001
0010
0100
,  // measure 36
0010
1000
0010
0001
2000
0010
3010
0100
,  // measure 37
0001
0000
0001
0000
1000
0100
0010
0001
1000
0000
0100
0000
0010
0000
0001
0000
,  // measure 38
1000
0000
0010
0000
1000
0000
0100
0000
0010
0000
0001
0100
0010
0000
1000
0100
,  // measure 39
0010
0000
0001
0000
0100
0000
0000
0000
0010
1000
0010
1000
0001
0010
0001
1000
,  // measure 40
0100
0010
0100
1000
0001
0010
0100
1000
0001
0100
0010
0100
0001
1000
0100
0010
,  // measure 41
0100
1000
0001
0100
0010
0100
0001
0010
0001
1000
0100
0010
0100
1000
0001
0100
,  // measure 42
0010
0100
0001
0010
0001
1000
0100
0010
0001
0000
0000
0000
0000
0000
0000
0000
,  // measure 43
1000
0001
0100
0100
0010
1000
0100
0100
,  // measure 44
0010
0001
0100
0100
0010
1000
0001
0001
,  // measure 45
0010
0100
1000
1000
0001
0100
0010
0010
,  // measure 46
1000
0100
0010
0010
0001
0100
0010
0010
,  // measure 47
1010
0100
0001
0001
0100
1000
0100
0100
,  // measure 48
0001
1000
0100
0100
0001
1000
0010
0010
,  // measure 49
0001
0100
0010
0010
1000
0010
0100
0100
,  // measure 50
0001
0100
1000
1000
0100
0001
0100
0010
,  // measure 51
1000
0000
0400
0000
0000
0000
0000
0000
0000
0000
0310
0000
0001
1000
0010
1000
,  // measure 52
0001
0010
0100
1000
0001
0100
0010
1000
0001
0010
0001
1000
0100
1000
0001
0100
,  // measure 53
0010
1000
0010
1000
0001
0010
0001
0100
0010
1000
0010
0100
0001
0100
0010
1000
,  // measure 54
0010
0100
0010
0100
0001
1000
0001
0010
0100
1000
0100
0010
0001
0010
0100
1000
,  // measure 55
0001
0100
0001
0100
0010
1000
0010
1000
0001
0100
0001
1000
0010
1000
0010
0100
,  // measure 56
0001
0010
0001
0010
0100
1000
0100
1000
0001
0100
0001
1000
0010
1000
0100
0010
,  // measure 57
0100
1000
0100
0010
0100
0010
0001
0100
0010
1000
0010
0100
0001
0010
0100
1000
,  // measure 58
0001
0010
0100
1000
0001
0010
0100
0010
0001
1000
0010
0100
0001
0100
0010
1000
,  // measure 59
0100
0000
0100
0000
0100
0000
0010
0001
,  // measure 60
0100
0000
0000
1000
,  // measure 61
0010
0000
0001
0000
0010
0000
1000
0100
,  // measure 62
0100
0010
0001
0100
,  // measure 63
0010
0000
1000
0000
0100
0000
0001
0100
,  // measure 64
1000
0000
0000
0010
,  // measure 65
0100
0001
0010
0100
,  // measure 66
1000
0000
0000
0000
;
