#TITLE:SKY HIGH (HAPPY HARDCORE MIX);
#ARTIST:HIRA;
#BANNER:[Round A Extra] - SKY HIGH (HAPPY HARDCORE MIX).png;
#BACKGROUND:[Round A Extra] - SKY HIGH (HAPPY HARDCORE MIX)-bg.png;
#MUSIC:[Round A Extra] - SKY HIGH (HAPPY HARDCORE MIX).ogg;
#OFFSET:-0.001;
#SAMPLESTART:92.915;
#SAMPLELENGTH:10.323;
#BPMS:0=185.981;
#STOPS:24=2.258,279=0.323;

//---------------dance-single - ----------------
#NOTES:
     dance-single:
     :
     Easy:
     5:
     :
0000
0000
0000
0000
,
0000
0000
0000
0000
,
0000
0000
0000
0000
,
0000
0000
0000
0000
,
1000
0000
0000
0001
0000
0000
0100
0000
,
0000
0010
1000
0001
,
0200
0300
0000
0000
0000
0000
0000
0000
0000
0000
0000
0000
0000
0000
0000
0000
0001
0000
0000
0000
0000
0000
0000
0000
0000
0000
0000
0000
0000
0000
0000
0000
0100
0000
0000
0000
0000
0000
0000
0000
0000
0000
0000
0000
0000
0000
0000
0000
0001
0000
0000
0000
0000
0000
0000
0000
0000
0000
0000
0000
0000
0000
0000
0000
,
0001
1000
0001
1000
,
1000
0100
1000
0100
,
0100
0010
0100
0010
,
0010
0001
0100
0001
,
0001
1000
0010
1000
,
1000
0001
0100
0001
,
0001
0020
0000
0000
,
0030
0100
1000
0100
,
0100
0010
0001
0100
,
0001
1000
0010
0100
,
0100
0010
1000
0001
,
1000
0001
0010
0100
,
0100
0010
0001
1000
,
0010
0100
0110
1001
,
0110
2002
0000
0000
,
3003
0002
0013
0100
,
0100
2000
3100
2000
,
3010
2000
3100
0010
,
0010
0001
1000
2002
,
3003
0002
0103
0010
,
0010
0200
0301
0200
,
0310
2000
3001
1000
,
1000
0200
0310
0001
,
1001
2000
3010
0100
,
0100
0002
0100
0203
,
0010
0320
1030
1000
,
0001
0010
0100
0220
,
0330
2000
3100
0010
,
0010
0002
1000
2003
,
0100
3200
0310
0001
,
0001
1000
0001
0100
,
0010
1000
0000
0001
,
0001
0010
0000
0100
,
0000
1000
0000
0000
,
0000
0001
0000
1000
,
0000
1001
0001
0100
,
0000
0010
0000
1000
,
0000
0001
0000
0000
0000
0000
0010
0000
,
0000
0100
0000
0000
0000
0000
1000
0000
,
0000
0002
0000
0000
,
0000
0000
0000
0000
,
0003
0200
0000
0000
,
0000
0000
0000
0000
,
0300
2000
0000
0000
,
0000
0000
0000
0000
,
3000
0020
0000
0000
,
0000
0000
0000
0000
,
0030
0002
0000
0000
,
0000
0000
0000
0000
,
0000
0000
0000
0000
,
0000
0000
0000
0003
,
0000
0001
0000
0010
,
0000
0100
0000
1000
,
0000
0001
0000
0010
,
0000
0100
0000
1000
,
0000
0001
0100
0001
,
0100
0010
1000
0010
,
1000
0001
0010
0001
,
0010
0100
1000
0100
,
1000
0001
0100
0010
,
1000
0001
0010
0100
,
1000
0001
1001
0110
,
1001
0100
0010
1001
,
0001
0100
0001
0001
,
1000
0100
0010
0010
,
0001
1000
0010
0010
,
0100
0001
1000
1000
,
0001
0010
0100
0100
,
0010
0001
0010
0010
,
0001
1000
0010
0010
,
0100
0001
0100
0100
,
0001
0000
0100
0000
0010
0100
0010
0000
,
1000
0000
0001
0000
1000
0001
1000
0000
,
0100
0000
0010
0000
0100
0010
0100
0000
,
0010
0001
2000
3002
,
0103
0000
0010
0000
1000
0001
1000
0000
,
0100
0000
0010
0000
0001
1000
0001
0000
,
0100
0000
0010
0000
1000
0010
1000
0000
,
0001
0000
0100
0000
0010
0100
0010
0000
,
2000
0000
3000
0000
0001
1000
0001
0000
;

//---------------dance-single - ----------------
#NOTES:
     dance-single:
     :
     Medium:
     8:
     :
0000
0000
0000
0000
,
0000
0000
0000
0000
,
0000
0000
0000
0000
,
0000
0000
0000
0000
,
0101
0000
1000
0001
0000
0010
0001
0000
,
1000
0000
1010
0000
0001
1000
0000
0010
,
0220
0330
0000
0000
0000
0000
0000
0000
0000
0000
0000
0000
0000
0000
0000
0000
0001
0000
0000
0000
0000
0000
0000
0000
0000
0000
0000
0000
0000
0000
0000
0000
0010
0000
0000
0000
0000
0000
0000
0000
0000
0000
0000
0000
0000
0000
0000
0000
0001
0000
0000
0000
0000
0000
0000
0000
0010
0000
0000
0000
0000
0000
0000
0000
,
0100
0000
1000
0000
0100
0000
1000
0010
,
0100
0000
0001
0000
0100
0000
0001
0100
,
0010
0000
1000
0000
0001
0000
1000
0100
,
0010
0001
1000
0000
0010
0000
1000
0010
,
0100
0001
1000
0000
0010
0000
0100
0001
,
0010
0100
1000
0000
0010
0000
0100
0001
,
1000
0000
0100
0000
0010
0000
0000
0001
0000
0000
1000
0000
0010
0000
0000
0100
,
0000
0000
0001
0000
1000
0000
0000
0001
0000
0000
1000
0000
0100
0000
0010
0000
,
0100
0000
1000
0000
0001
0000
0000
0010
0000
0000
0001
0000
0100
0000
0000
0010
,
0000
0000
1000
0000
0001
0000
0000
0100
0000
0000
1000
0000
0100
0000
0001
0000
,
1000
0000
0100
0000
0010
0000
0000
0001
0000
0000
0010
0000
0100
0000
0000
1000
,
0000
0000
0010
0000
0100
0000
0000
1000
0000
0000
0100
0000
0010
0000
1000
0000
,
0100
0000
0010
0000
0001
0000
0000
0010
0000
0000
0100
0000
0010
0000
0000
1000
,
0000
0010
0001
0100
1000
0100
0001
0010
,
1000
0010
0001
0000
1000
0000
2002
0000
,
3003
0000
2000
0000
3100
0010
0001
0010
,
0100
1000
0020
0000
0001
0000
0230
0000
,
1000
0000
0302
0000
1003
0001
0010
0100
,
0010
0002
0000
0000
0100
0000
2000
0000
,
3003
0000
0002
0000
0013
0100
1000
0100
,
0001
0100
2000
0000
0001
0000
3020
0000
,
0001
0000
0230
0000
1300
0100
0010
1000
,
0100
0000
0010
0000
0001
0000
0000
0010
0001
0000
0100
0000
0010
0000
1000
0000
,
1001
0000
0001
0100
0010
0100
1000
0100
,
0010
1000
0002
0000
0010
0000
0023
0000
,
0100
0000
0230
0000
0310
0100
1000
0010
,
0100
0002
0010
0000
1000
0000
0200
0000
,
0303
0000
2000
0000
3010
0100
1000
0100
,
0001
1000
0200
0000
0010
0000
0320
0000
,
0031
0000
0002
0000
1003
0100
1000
0010
,
0100
0000
0001
0000
0010
0000
0000
0100
0010
0000
0001
0000
0100
0000
0010
0000
,
1000
0000
1001
0000
0001
0100
0010
2000
,
0000
3002
0000
0023
,
0000
0230
0000
0000
0000
0000
0000
0000
,
0000
0001
0000
1300
,
0000
0000
1001
0000
1000
0100
0010
0002
,
0000
2003
0000
3002
,
0000
0203
0000
0000
0000
0000
0320
0000
,
1030
0002
0000
0000
0000
0000
0023
0000
,
0000
0000
0130
0000
1000
0100
0010
0002
,
0000
0023
0000
0032
,
1003
0002
0000
0000
0000
0000
0000
0000
,
0000
0000
0000
0203
,
0310
2000
0000
0000
3001
0010
0100
2000
,
0000
3200
0000
0320
,
0000
0032
0000
0000
0000
0000
2003
0000
,
3001
0200
0000
0000
0000
0000
0020
0000
,
0330
2000
0000
3200
,
0000
0320
0000
0032
,
0000
0203
0000
0320
,
0000
2030
0000
3002
,
0000
2003
0000
3200
,
0000
0320
0000
0032
,
0000
0203
0000
0320
,
0000
2030
0000
3002
,
0000
0000
1003
0100
1000
0100
0010
0100
,
0010
0100
1000
0100
1000
0100
1000
0001
,
1000
0001
0100
0001
0100
0001
0100
0010
,
0100
0010
1000
0010
1000
0010
1000
0001
,
1000
0001
1000
0100
0010
0001
0100
0010
,
1000
0100
0010
0100
1000
0010
0100
0001
,
0010
0100
1000
0010
0001
0010
1000
0010
,
0001
0010
1000
0100
0010
0001
1000
0000
,
0001
0100
0010
1000
0100
0010
0002
0000
,
1003
0000
0100
0010
0100
1000
0002
0000
,
0103
0010
1000
0100
0010
0001
2000
0000
,
3010
0000
0100
0001
0100
1000
0200
0000
,
0301
0010
0100
1000
0100
0010
0002
0000
,
0103
0000
0010
0100
1000
0100
0002
0000
,
1003
0100
0010
0001
0100
0010
2000
0000
,
3001
0000
1000
0010
0001
0010
2000
0000
,
3001
0010
0100
0010
1000
0010
0001
1000
,
0001
0001
0100
0001
0010
0001
0200
0000
,
0310
1000
0100
0010
0001
0100
0010
1000
,
0001
0001
1000
0001
2000
0000
3200
0000
,
0310
0001
0010
0001
1000
0010
1000
0010
,
0100
0001
0100
0001
1000
0100
1000
0100
,
0010
0001
0100
0010
1000
0100
0010
0001
,
0100
0010
1000
0001
0100
1000
0100
0001
,
0000
0000
0000
0000
1001
1001
1001
0000
;

//---------------dance-single - ----------------
#NOTES:
     dance-single:
     :
     Hard:
     10:
     :
0000
0000
0000
0000
,
0000
0000
0000
0000
,
0000
0000
0000
0000
,
0000
0000
0000
0000
,
0001
0000
0000
0000
0010
0000
0000
0001
0000
1000
0001
0000
0000
1000
0000
0010
,
1000
0000
0000
0000
0100
0000
0000
0010
0000
0100
0010
0000
0000
0001
0000
1000
,
0010
0000
0000
0000
0000
0000
0000
0000
0000
0000
0000
0000
1000
0000
0000
0000
0001
0000
0000
0000
1000
0000
0000
0000
0000
0000
0000
0000
0000
0000
0001
0000
0000
0000
0000
0000
1000
0000
0000
0100
0000
0000
0010
0000
0000
0000
0000
0000
,
0001
0000
0000
0000
0000
0000
0010
0000
0000
0000
0000
0000
0001
0000
0000
0000
0100
0000
0000
0000
0001
0000
0000
0000
0000
0000
0000
0000
0000
0000
1000
0000
0000
0000
0000
0000
0001
0000
0000
0100
0000
0000
0010
0000
0000
0000
0000
0000
,
1000
0000
0000
0000
0000
0000
0010
0000
0000
0000
0000
0000
1000
0000
0000
0000
0010
0000
0000
0000
1000
0000
0000
0000
0000
0000
0000
0000
0000
0000
0100
0000
0000
0000
0000
0000
0010
0000
0000
0001
0000
0000
0010
0000
0000
0000
0000
0000
,
0100
0000
0000
0000
0000
0000
1000
0000
0000
0000
0000
0000
0010
0000
0000
0000
1000
0000
0000
0000
0010
0000
0000
0000
0000
0000
0000
0000
0000
0000
0100
0000
0000
0000
0000
0000
0001
0000
0000
1000
0000
0000
0100
0000
0000
0000
0000
0000
,
0010
0000
0100
0000
1000
0000
0001
1000
0000
0000
0010
0000
1000
0100
0010
0000
,
0100
0000
1000
0000
0001
0000
0010
0001
0000
0000
0010
0000
0001
0100
0010
0000
,
0100
0000
1000
0000
0100
0000
0001
1000
0000
0000
0001
0000
0010
0100
1000
0000
,
0100
0000
0010
0000
0002
0000
0000
0010
0000
0000
1000
0000
0100
0000
0000
0100
,
0000
0000
1003
0000
0010
0000
1000
0001
0000
1000
0001
0000
0010
0100
1000
0000
,
0100
0000
1000
0000
0010
0000
0100
0001
0000
0100
0001
0000
0100
0000
0010
1000
,
0000
0100
1000
0000
0100
0000
1000
0001
0000
1000
0001
0000
0010
0100
0010
0000
,
0001
0000
0100
0000
0010
0000
1000
0001
0000
1000
0001
0000
0010
0000
0100
0010
,
0000
0100
0010
0000
0001
0000
0100
0010
0000
1000
0010
0000
0100
0001
1000
0000
,
0100
0000
0010
0000
0100
0000
1000
0001
0000
1000
0100
0000
0010
0000
0001
0010
,
0000
0001
1000
0000
1100
0000
0001
0000
0101
0000
1000
0000
1010
0000
0001
0000
,
0011
0000
0100
0000
1001
0000
0100
0010
0000
0100
0010
0000
2000
0000
0000
0000
,
3001
0000
0000
0000
0021
0000
0000
0000
0031
0000
0010
0100
1000
0000
0010
0000
,
0100
0010
2000
0000
0100
0000
3002
0000
,
0103
0000
0000
0000
0201
0000
0000
0000
0310
0000
1000
0100
1000
0000
0001
0000
,
0010
0002
0100
0000
1000
0000
0023
0000
,
0130
0000
0000
0000
1200
0000
0000
0000
1300
0000
0001
0010
0100
0000
0010
0000
,
0001
0100
0020
0000
1000
0000
0230
0000
,
0301
0000
0000
0000
0201
0000
0000
0000
0310
0000
1000
0001
1000
0000
0001
0000
,
0010
0000
0100
0000
0020
0000
0000
0031
1000
0000
0001
0100
0010
0000
1000
0000
,
1001
0000
0000
0000
0001
0100
0001
0100
0001
0000
0100
0010
1000
0000
0100
0000
,
0001
0100
1000
0100
1000
0100
0010
0001
,
0010
0000
0001
0000
1000
0100
1000
0100
1000
0000
0100
0010
0001
0000
0100
0000
,
0010
0100
1000
0100
1000
0100
0001
0010
,
0001
0000
0010
0000
0001
0100
0001
0100
0001
0000
0100
0010
1000
0000
0100
0000
,
0001
0100
0010
0001
0010
0001
1000
0010
,
1000
0000
0010
0000
0100
0001
0100
0001
0100
0000
0010
1000
0001
0000
0100
0000
,
1000
0000
0100
0000
0020
0000
0000
1030
0001
0000
0010
0100
1000
0000
0001
0000
,
0010
0000
1100
0000
0010
0001
1000
0020
,
0000
0230
0000
0302
,
0000
0023
0000
0000
0000
0000
0000
0000
,
0000
0001
0000
2000
,
3030
0000
1010
0000
0010
0001
1000
0020
,
0000
0000
0200
0030
0000
0000
0002
0300
,
0000
2003
0000
0000
0000
0000
3002
0000
,
0023
0200
0030
0000
0000
0000
2300
0000
,
0000
3002
0000
0200
,
0003
0020
0300
2000
,
0030
0200
3000
0020
,
0300
0002
0030
2000
,
0003
3001
0001
0100
,
0100
1000
1000
0010
,
0010
0000
0001
0010
0100
1000
0010
0100
,
0001
0000
1000
0000
0100
0010
0100
0000
0010
0001
0010
0000
0100
1000
0100
1000
,
0001
1000
0001
1000
0020
0000
0000
0000
0000
0000
0000
0000
0230
0000
0000
0000
,
0000
0302
0000
2003
,
0000
3002
0000
0023
,
0000
0230
0000
2300
,
0000
0000
3001
0100
0001
0000
1000
0010
,
1000
0000
0100
0010
0100
0000
1000
0001
,
1000
0000
0001
0100
0010
1000
0100
0010
,
0001
0000
1000
0000
0001
0100
0001
0100
0010
1000
0001
0100
0001
1000
0001
1000
,
0010
0100
0001
1000
0100
0000
1000
0001
0010
0000
0100
0000
0010
0000
0001
0000
,
0100
0000
0001
0000
1000
0000
0001
0100
0010
0000
0100
0000
0001
0000
1000
0000
,
0001
0000
0010
0000
0100
0000
1000
0010
0100
0000
0010
0000
1000
0000
0100
0000
,
0010
0000
0001
0000
0100
0000
0010
1000
0001
0000
1000
0000
0010
0000
0100
0000
,
0001
0000
0010
0000
0100
0000
1000
0001
0100
0000
0001
0000
0100
0000
0001
1000
,
0010
0000
1000
0000
0010
0000
1000
0001
0010
0000
0001
0000
0010
0000
0001
1000
,
0100
0000
1000
0000
0001
0000
1000
0001
0010
0000
0001
1000
0010
0000
1000
0001
,
0100
0000
0000
0000
0000
0000
0000
0000
0001
0000
0000
0000
1000
0000
0000
0000
0010
0000
0000
0000
0000
0000
0000
0000
1000
0000
0000
0000
0000
0000
0000
0000
0100
0000
0000
0000
0000
0000
0000
0000
0020
0000
0000
0000
0000
0000
0000
0000
0002
0033
0000
0000
0000
0000
0000
0000
0000
0000
0000
0000
0000
0000
0000
0000
,
0002
0000
0013
0100
1000
0000
0010
0000
0100
0000
0001
0000
2000
0000
0000
0000
,
3010
0100
0000
0001
1000
0000
0001
0010
0100
0000
1000
0000
0020
0000
0000
0000
,
0230
0000
0301
0100
0010
0000
1000
0000
0100
0000
0010
0000
0002
0000
0000
0000
,
0013
0100
0000
0100
0010
0000
0001
0100
0010
0000
1000
0000
0002
0000
0000
0000
,
1003
0000
0010
0100
0010
0000
1000
0000
0100
0000
0010
0000
0002
0000
0000
0000
,
1003
0010
0000
0010
0100
0000
0010
1000
0100
0000
0010
0000
0200
0000
0000
0000
,
2300
0000
3100
0010
0001
0000
1000
0000
0010
0000
0100
0000
0002
0000
0000
0000
,
0013
0001
0000
0100
0001
0000
0010
0100
1000
0000
0001
0000
2000
0000
0000
0000
,
3001
0000
0001
0100
0010
0000
1000
0000
0001
0000
1000
0000
0100
0000
0010
0100
,
1000
0100
1000
0100
0010
0000
0001
1000
0010
0000
0100
0000
0002
0000
0000
0000
,
0103
0000
0010
1000
0100
0000
0010
0000
0001
0000
0100
0000
0010
0000
0100
0001
,
1000
0001
1000
0001
0010
0000
0001
0010
0200
0000
0000
0000
2300
0000
0000
0000
,
3001
0000
0001
0100
0010
0000
1000
0000
0100
0000
0010
0000
0100
0000
0010
0100
,
1000
0100
1000
0100
0010
0000
0100
1000
0001
0000
1000
0000
0020
0000
0000
0000
,
0130
0000
0100
0001
1000
0000
0010
1000
0001
0000
0010
0100
0010
0000
0001
1000
,
0010
0100
0000
0100
0001
0000
0010
0100
1000
0000
0001
0000
2000
0000
0000
0000
,
3001
0100
0000
0100
0010
0000
1000
0001
0010
0000
0110
0000
1001
0000
0000
0000
;
