#TITLE:Couleur=Blanche;
#SUBTITLE:;
#ARTIST:#FFFFFF;
#TITLETRANSLIT:;
#SUBTITLETRANSLIT:;
#ARTISTTRANSLIT:;
#GENRE:;
#CREDIT:;
#BANNER:Couleur=Blanche.png;
#BACKGROUND:Couleur=Blanche-bg.png;
#LYRICSPATH:;
#CDTITLE:;
#MUSIC:Couleur=Blanche.ogg;
#OFFSET:-0.708015;
#SAMPLESTART:91.007004;
#SAMPLELENGTH:15.000000;
#SELECTABLE:YES;
#BPMS:0.000000=185.000000
,128.000000=178.000000
,132.000000=155.000000
,134.000000=150.000000
,136.000000=130.000000
,138.000000=115.000000
,140.000000=104.000000
,142.000000=91.000000
,144.000000=84.000000
,145.000000=112.000000
,147.000000=118.000000
,149.000000=132.000000
,151.000000=138.000000
,153.000000=155.000000
,157.000000=173.000000
,159.000000=180.000000
,161.000000=192.000000
,163.000000=200.000000
,165.000000=210.000000
,167.000000=225.000000
,169.000000=230.000000
,173.000000=249.999985
,175.000000=255.000000
,177.000000=265.000000
,181.000000=180.000000
,182.000000=150.000000
,183.000000=90.000000
,184.000000=46.000000
,185.000000=185.000000
,332.000000=370.000000
;
#STOPS:144.000000=2.000000,
185.000000=0.324000,
332.000000=0.486000
;
#BGCHANGES:;
#KEYSOUNDS:;
#ATTACKS:;

//---------------dance-single - ----------------
#NOTES:
     dance-single:
     :
     Hard:
     10:
     0.709368,1.009316,0.526529,0.445525,0.473876,613.000000,548.000000,65.000000,55.000000,0.000000,0.000000,0.709368,1.009316,0.526529,0.445525,0.473876,613.000000,548.000000,65.000000,55.000000,0.000000,0.000000:
0000
0000
0000
0000
,
0000
0000
0000
0000
,
0000
0000
0000
0000
,
0000
0000
0000
0000
,
0000
0000
0000
0000
,
0000
0000
0000
0000
,
0000
0000
0000
0000
,
0000
0000
0000
0000
,
0000
0000
0000
0000
,
0001
0000
0100
0000
0001
1000
0000
0100
1000
0000
0001
0010
0000
0100
0010
0000
,
0001
0000
0100
0010
0000
1000
0010
0000
0100
0001
0000
1000
0001
0000
0010
0001
,
1000
0010
1000
0001
1000
0100
0010
0001
0100
0001
1000
0001
0010
0001
0100
0010
,
2000
0000
0000
0000
0000
0000
0000
0000
3000
0000
0000
0001
0010
0000
0000
0000
,
2200
3300
0202
0303
,
2200
0000
0000
0000
3300
0000
0000
0000
0100
0000
0100
1000
0010
0000
0000
0000
,
2020
3030
0022
0033
,
2020
0000
0000
0000
3030
0000
0000
0000
0010
0000
0010
1000
0001
0000
0000
0000
,
2002
3003
0220
0330
,
2002
0000
0000
0000
3003
0000
0000
0000
0001
0000
0001
0010
0100
0000
0000
0000
,
0220
0330
2002
3003
,
0001
0000
1000
0010
1000
0010
1000
0000
0000
0000
0001
0100
0001
0000
0000
0000
,
0012
0013
0100
1000
0000
0102
1003
0000
,
2010
0000
3001
0000
0000
0021
0130
0000
,
1200
1300
0001
0100
0000
0120
1030
0000
,
2100
0000
3010
0000
0000
0201
0310
0000
,
2010
3010
0100
0001
0000
2100
3001
0000
,
0012
0000
1003
0000
0000
1020
0130
0000
,
0201
0301
1000
0100
0000
0120
0031
0000
,
0102
0000
0000
0000
0013
0000
0000
0000
0000
0000
0100
1000
0002
0000
0003
0000
,
0101
0100
0010
1000
0000
1100
1001
0000
,
1100
0000
1000
0100
1100
0010
0001
0100
,
0000
0101
1001
0000
0101
0000
0001
0010
,
0011
0000
0001
0000
1000
0000
0010
0000
0100
0001
0100
0001
0100
0000
0000
0000
,
0001
0010
0001
0010
0001
0100
0010
0000
1000
0010
1000
0010
0100
0000
0000
0000
,
1010
0000
1000
0000
0001
0000
0010
0000
0100
1000
0100
1000
0100
0000
0000
0000
,
1000
0010
1000
0010
1000
0100
0010
0000
0001
0010
0001
0010
0100
0000
0000
0000
,
0020
0030
0000
0000
0000
0000
0000
0000
2001
0000
0000
0000
0000
0000
0000
0000
3100
0000
0000
0000
0000
0000
0000
0000
1000
0000
0000
0000
0010
0000
0000
0000
,
0100
0000
0102
0000
0023
0000
0031
1000
,
0100
0000
0000
0000
0010
0000
0001
0100
0001
0000
1000
0000
0001
0010
0000
0001
,
1000
0001
0201
0000
0310
0000
1000
0001
,
0010
0000
0110
0100
0010
0001
1000
0000
,
0010
0000
0100
0010
2000
0000
0001
0000
,
3100
0000
0020
0000
0032
0000
1003
0010
,
0200
0000
0301
0100
0001
0100
1000
0100
,
1000
0100
0001
0010
0100
1000
0001
0010
,
1000
0010
0001
0000
0000
0000
0000
0000
,
0000
0000
0000
0000
0000
0000
0000
0000
2000
3000
0000
0000
0000
0000
0000
0000
1010
0000
0000
0000
0000
0000
1000
0000
0000
0000
0000
0000
0001
0000
0000
0000
,
0100
0000
0001
0000
1000
0000
0100
0000
1000
0000
0001
0000
0000
0010
0000
0000
,
0100
0000
0010
0000
0001
0000
0100
0000
0001
0000
0000
0100
0000
0000
0010
0000
,
1000
0000
0000
0100
0000
0000
0010
0000
0001
0000
0010
0000
1000
0000
0000
0001
,
0000
0000
0100
0000
1000
0000
0001
0000
1000
0000
0000
0010
0000
0000
0100
0000
,
0010
0000
1000
0000
0001
0000
0100
0000
0001
0000
0010
0000
0000
0100
0000
0000
,
1000
0001
0100
0001
1000
0100
0010
0001
,
0000
0000
0001
0100
0010
1000
0000
0000
,
0001
0000
0010
0000
0100
0000
1000
0000
1001
0000
0001
0000
0000
0100
0000
0000
,
0101
0000
0000
0010
0000
0000
1000
0000
1001
0000
1000
0000
0000
0100
0000
0000
,
1100
0000
0000
0010
0000
0000
0001
0000
1001
0000
0100
0000
0000
0010
0000
0000
,
1010
0000
0000
1000
0000
0000
0001
0000
1001
0000
0100
0000
0000
0010
0000
0000
,
0011
0000
0000
0001
0000
0000
1000
0000
1001
0000
0001
0000
1000
0100
0000
1000
,
0010
0000
0100
0001
0000
1000
0001
0000
1001
0000
1000
0000
0001
0100
0000
0001
,
0010
0000
0100
1000
0000
0001
1000
0000
0010
0000
1000
0000
0100
0000
0010
0000
,
0001
0000
0100
0000
0010
0000
1000
0000
0001
0010
0100
1000
0010
0100
0001
0010
,
0100
1000
0010
0100
0001
1000
0001
0010
0200
0000
0000
0000
0000
0000
0000
0000
,
0000
0000
0000
0000
0000
0000
0300
0000
0000
0000
1100
0000
0000
1001
0000
0000
,
0101
0000
0001
1000
0010
1000
0010
0100
0001
0000
0010
0001
0000
1000
0100
0000
,
1000
0000
0001
0000
0100
0000
1000
0000
0100
0000
0001
0000
0000
0101
0000
0000
,
1001
0000
1000
0000
0100
1000
0100
1000
0100
0000
0000
1000
0000
0000
0010
0000
,
0100
0000
0000
0001
0000
0000
0010
0000
0100
0000
0010
0000
0001
0000
1000
0010
,
0000
0000
0100
0000
0010
0000
0010
0000
1000
0000
0100
1000
0000
0001
1000
0000
,
0100
0000
0010
0000
0001
0000
0001
0000
0100
0000
0110
0000
0000
0101
0000
0000
,
1001
0000
1000
0000
0100
0010
0100
0010
0001
0000
0100
0000
0010
0000
0001
0000
,
1000
0100
0010
1000
0001
0010
1000
0001
,
0100
0000
1000
0000
0100
1000
0001
1000
0010
0000
1000
0001
0000
0100
0001
0000
,
0010
0000
0001
0000
0100
0000
0010
0000
0001
0000
0010
0000
0000
1010
0000
0000
,
1001
0000
0001
0000
0010
0100
0010
0100
1000
0000
0001
0100
0000
0001
1000
0000
,
0100
0000
1000
0001
0000
0010
0001
0000
0100
0000
0110
0000
0101
0000
0000
1001
,
0000
0000
1100
0000
1000
0010
1000
0010
0100
0000
0001
0000
1000
0000
0100
0000
,
0001
1000
0010
0001
1000
0010
0001
1000
,
0100
0000
0001
0000
1000
0001
1000
0001
0010
0000
0100
0000
0001
0000
1000
0000
,
0010
0000
0100
0000
1000
0000
0001
0000
0100
0001
1000
0001
0010
0100
1000
0001
,
1000
0100
1000
0010
0100
0001
1000
0000
0000
0000
0000
0000
0000
0000
0000
0000
,
0000
0000
0002
0003
,
2000
3000
0020
0000
,
0030
0000
0100
0001
0100
0001
1000
0010
,
1000
0010
1000
0100
1000
0100
0010
0001
,
0010
0001
1000
0010
0100
0001
0010
0100
,
1000
0000
0000
0010
0000
0000
0100
0000
0000
0001
0000
0000
0010
0000
0000
0100
0000
0000
1000
0000
0001
0000
1000
0000
,
0001
1000
0002
2000
0000
0000
0000
0000
0000
0000
0000
0000
,
0000
0000
0000
0000
,
3003
0000
0000
0000
;

//---------------dance-single - ----------------
#NOTES:
     dance-single:
     :
     Medium:
     8:
     0.555459,0.720940,0.348319,0.469826,0.153908,480.000000,437.000000,43.000000,58.000000,0.000000,0.000000,0.555459,0.720940,0.348319,0.469826,0.153908,480.000000,437.000000,43.000000,58.000000,0.000000,0.000000:
0000
0000
0000
0000
,
0000
0000
0000
0000
,
0000
0000
0000
0000
,
0000
0000
0000
0000
,
0000
0000
0000
0000
,
0000
0000
0000
0000
,
0000
0000
0000
0000
,
0000
0000
0000
0000
,
0000
0000
0000
0000
,
1000
0000
0100
0000
0000
1000
0000
0000
0010
0000
0000
0100
0000
0000
0001
0000
,
1000
0000
0001
0100
0000
0001
1000
0000
0100
1000
0000
0010
1000
0000
0001
0000
,
1000
0100
0010
0001
0100
0010
1000
0001
,
2000
0000
0000
0000
0000
0000
0000
0000
3000
0000
0000
0010
0100
0000
0000
0000
,
0202
0303
2200
3300
,
0202
0000
0000
0000
0303
0000
0000
0000
0100
0000
0000
0001
0010
0000
0000
0000
,
0022
0033
2020
3030
,
0022
0000
0000
0000
0033
0000
0000
0000
0010
0000
0000
0100
1000
0000
0000
0000
,
2002
3003
0220
0330
,
2002
0000
0000
0000
3003
0000
0000
0000
1000
0000
0000
0010
0100
0000
0000
0000
,
0220
0330
2002
3003
,
0001
1000
0100
1000
0000
0001
0100
0000
,
0201
0301
1000
0100
0000
2000
3010
0000
,
2000
0000
3001
0000
0000
0200
0310
0000
,
1020
1030
0001
0010
0000
0200
1300
0000
,
0002
0000
1003
0000
0000
0020
1030
0000
,
1200
1300
0001
0100
0000
0002
0013
0000
,
0002
0000
1003
0000
0000
0200
0310
0000
,
0021
0031
1000
0010
0000
0200
0301
0000
,
2000
0000
0000
0000
3001
0000
0000
0000
0000
0000
0001
0010
0001
0000
0000
0000
,
1001
0001
0010
0100
0000
1000
1001
0000
,
1010
0000
1000
0001
1001
1000
0010
0100
,
0000
0001
1001
0000
0011
0000
1000
0001
,
1000
0010
0001
0010
1000
0000
0001
0000
,
1000
0100
1000
0100
0010
0001
1000
0000
,
0001
0010
1000
0010
0001
0000
1000
0000
,
0001
0100
0001
0100
0010
1000
0001
0000
,
0020
0030
0000
0000
0000
0000
0000
0000
1002
0000
0000
0000
0000
0000
0000
0000
0103
0000
0000
0000
0000
0000
0000
0000
0001
0000
0000
0000
1000
0000
0000
0000
,
0010
0000
2010
0000
3002
0000
0013
0001
,
1000
0000
0000
0000
0100
0000
1000
0000
0001
0000
1000
0000
0010
0000
0000
0100
,
0010
1000
1002
0000
0013
0000
0100
1000
,
0001
0000
1000
0100
1000
0001
0010
0000
,
0001
0000
0100
0010
2000
0000
0001
0000
,
3010
0000
2000
0000
3020
0000
0130
0001
,
2000
0000
3001
0010
0001
0010
0100
1000
,
0100
1000
0001
0100
0010
1000
0001
1000
,
0010
0100
0001
0000
0000
0000
0000
0000
,
0000
0000
0000
0000
0000
0000
0000
0000
0020
0030
0000
0000
0000
0000
0000
0000
0011
0000
0000
0000
0000
0000
0001
0000
0000
0000
0000
0000
1000
0000
0000
0000
,
0100
0000
1000
0000
0001
0000
0100
0000
0001
0000
0010
0000
0000
0100
0000
0000
,
1000
0000
0001
0000
0100
0000
0001
0000
1000
0000
0000
0010
0000
0000
0100
0000
,
0001
0000
0000
0010
0000
0000
0100
0000
1000
0000
0001
0000
1000
0000
0000
0100
,
0000
0000
1000
0000
0010
0000
1000
0000
0001
0000
0000
0010
0000
0000
0001
0000
,
0100
0000
0001
0000
1000
0000
0100
0000
1000
0000
0010
0000
0000
0100
0000
0000
,
0001
0100
0010
0100
0001
0010
0100
1000
,
0000
0000
1000
0010
0100
0001
0000
0000
,
1000
0000
0100
0000
0010
0000
0001
0000
1001
0000
1000
0000
0000
0100
0000
0000
,
1000
0000
0000
0010
0000
0000
0100
0000
0001
0000
0001
0000
0000
0100
0000
0000
,
0001
0000
0000
0010
0000
0000
0100
0000
1000
0000
1000
0000
0000
0010
0000
0000
,
1000
0000
0000
0100
0000
0000
0010
0000
0001
0000
0001
0000
0000
0010
0000
0000
,
0001
0000
0000
0100
0000
0000
0001
0000
1001
0000
0000
0000
1000
0000
0000
0000
,
0100
0010
1001
0001
,
0100
0000
0010
0000
1000
0100
0010
0100
,
1000
0001
0100
1000
0100
0001
0010
0100
,
1000
0001
0010
0001
2000
0000
0000
0000
,
0000
0000
0000
0000
0000
0000
3000
0000
0000
0000
1010
0000
0000
1001
0000
0000
,
0011
0001
1000
0000
0001
0100
0001
1000
,
0100
0000
0010
0000
0001
0000
0010
0000
0100
0000
1000
0000
0000
1010
0000
0000
,
1001
0000
0001
0000
0100
0000
0001
0000
1000
0000
0000
0001
0000
0000
0100
0000
,
0001
0000
0000
1000
0000
0000
0100
0000
1000
0000
0010
0000
0100
0000
0000
0001
,
0000
0010
0001
1000
0001
0010
0100
0010
,
0001
0000
1000
0000
0100
0000
1000
0000
0010
0000
0110
0000
0000
0101
0000
0000
,
1001
0001
0100
0001
1000
0010
0001
0020
,
0000
0000
1030
0100
0001
0200
0000
0000
,
1300
0010
0100
0001
1001
1000
0100
1000
,
0001
0000
0010
0000
0100
0000
0010
0000
0001
0000
0011
0000
0000
0110
0000
0000
,
1100
0000
1000
0000
0001
0000
1000
0000
0010
0000
0000
1000
0000
0000
0001
0000
,
0010
0000
0000
0001
0000
0000
1000
0000
0001
0000
0100
0000
0010
0000
0000
1000
,
0000
0100
1000
0001
1000
0100
0010
0001
,
0100
0000
0010
0000
0100
0000
0001
0000
1000
0000
1010
0000
0000
1001
0000
0000
,
0011
0010
0100
1000
0001
0010
1000
0020
,
0000
0000
0031
0100
1000
0200
0000
0000
,
0301
0010
0100
1000
0000
0000
0000
0000
,
0000
0000
2000
3000
,
0002
0003
0020
0000
,
0030
0001
0100
0001
,
0100
1000
0100
1000
,
0100
0001
0010
0100
,
1000
0000
0001
1000
0001
1000
0001
1000
,
0001
2000
0002
0000
0000
0000
0000
0000
,
0000
0000
0000
0000
,
3003
0000
0000
0000
;

//---------------dance-single - ----------------
#NOTES:
     dance-single:
     :
     Easy:
     6:
     0.351791,0.432564,0.178210,0.550830,0.000000,304.000000,282.000000,22.000000,68.000000,0.000000,0.000000,0.351791,0.432564,0.178210,0.550830,0.000000,304.000000,282.000000,22.000000,68.000000,0.000000,0.000000:
// measure 0
0000
0000
0000
0000
,  // measure 1
0000
0000
0000
0000
,  // measure 2
0000
0000
0000
0000
,  // measure 3
0000
0000
0000
0000
,  // measure 4
0000
0000
0000
0000
,  // measure 5
0000
0000
0000
0000
,  // measure 6
0000
0000
0000
0000
,  // measure 7
0000
0000
0000
0000
,  // measure 8
0000
0000
0000
0000
,  // measure 9
0001
0000
0100
0000
0001
0010
0001
0000
,  // measure 10
1000
0100
1000
0000
0001
1000
0001
0000
,  // measure 11
1000
0010
0100
0001
,  // measure 12
2000
0000
0000
3001
,  // measure 13
2200
3300
0202
0303
,  // measure 14
2200
3300
0001
1000
,  // measure 15
2020
3030
0022
0033
,  // measure 16
2020
3030
0001
1000
,  // measure 17
2002
3003
0220
0330
,  // measure 18
2002
3003
0001
0010
,  // measure 19
0220
0330
2002
3003
,  // measure 20
0001
0000
1000
1000
0000
0001
0001
0000
,  // measure 21
2000
0000
3001
0100
0000
0002
0013
0000
,  // measure 22
0200
0000
0310
0000
0000
0002
1003
0000
,  // measure 23
0200
0000
1300
0010
0000
2000
3001
0000
,  // measure 24
0200
0000
0301
0000
0000
0020
0031
0000
,  // measure 25
0002
0000
1003
0100
0000
2000
3010
0000
,  // measure 26
0200
0000
0310
0000
0000
2000
3001
0000
,  // measure 27
0200
0000
0301
0010
0000
0002
1003
0000
,  // measure 28
0200
1300
0001
1001
,  // measure 29
2000
0000
3100
0100
0000
0010
0010
0000
,  // measure 30
0100
0000
1000
0000
0002
0000
0103
0100
,  // measure 31
0000
0010
0010
0000
0100
0000
0001
0000
,  // measure 32
2000
0000
3100
0000
,  // measure 33
0020
0000
0031
0000
,  // measure 34
0002
0000
0103
0000
,  // measure 35
0020
0000
1030
0000
,  // measure 36
0020
0030
0000
0000
0000
0000
0000
0000
2001
0000
0000
0000
0000
0000
0000
0000
3100
0000
0000
0000
0000
0000
0000
0000
2000
0000
0000
0000
0000
0000
0000
0000
,  // measure 37
3001
0000
0021
0030
0002
0003
0200
0000
,  // measure 38
0301
0001
0010
0100
,  // measure 39
1000
0001
1000
0000
0100
0000
1000
0000
,  // measure 40
1000
0010
1000
0001
,  // measure 41
0010
0000
0100
0010
0200
0000
0000
0000
,  // measure 42
0300
1000
0100
1000
,  // measure 43
0010
0100
0100
0001
,  // measure 44
0001
1000
1000
0001
,  // measure 45
0010
0110
0000
0000
,  // measure 46
0000
0000
0000
0000
0000
0000
0000
0000
0200
0300
0000
0000
0000
0000
0000
0000
1000
0000
0000
0000
0000
0000
0000
0000
0001
0000
0000
0000
0000
0000
0000
0000
,  // measure 47
0100
0100
0001
1000
,  // measure 48
0100
0010
0001
0001
,  // measure 49
1000
1000
0001
0010
,  // measure 50
0100
1000
0001
1000
,  // measure 51
0100
0100
1000
0001
,  // measure 52
0100
0000
0010
0000
1000
0000
0010
1000
,  // measure 53
0000
0000
0001
0000
0100
0001
0000
0000
,  // measure 54
1000
0001
0012
0000
,  // measure 55
0103
0010
2010
0000
,  // measure 56
3100
1000
2100
0000
,  // measure 57
3001
0100
0102
0000
,  // measure 58
1003
0001
0010
0001
,  // measure 59
0100
0100
0010
1000
,  // measure 60
0100
0000
0100
0000
0010
0000
0001
2000
,  // measure 61
0000
0000
3010
0000
1000
0002
0000
0000
,  // measure 62
0013
0100
0020
0000
,  // measure 63
0000
0000
0000
0030
0000
0011
0000
0000
,  // measure 64
1100
1001
0001
0100
,  // measure 65
1000
0000
0100
0000
0000
0001
0000
1000
,  // measure 66
0001
1000
0100
1000
,  // measure 67
0010
0010
0100
0001
,  // measure 68
1000
1000
0001
0010
,  // measure 69
0100
0000
0010
0000
0000
0001
0000
1000
,  // measure 70
0001
0000
0100
0000
0001
0000
1000
0200
,  // measure 71
0000
0000
1300
0000
0001
0200
0000
0000
,  // measure 72
0301
1000
1000
0100
,  // measure 73
0001
0000
0100
0000
0000
1000
0000
0001
,  // measure 74
1000
0001
0100
0001
,  // measure 75
0010
0010
0100
1000
,  // measure 76
0001
0001
1000
0010
,  // measure 77
0100
0000
0010
0000
0000
1000
0000
0001
,  // measure 78
1000
0000
0100
0000
1000
0000
0001
0200
,  // measure 79
0000
0000
0301
0000
1000
0200
0000
0000
,  // measure 80
1300
0001
1000
0001
0000
0000
0000
0000
,  // measure 81
0000
0000
2000
3000
,  // measure 82
0002
0003
0020
0000
,  // measure 83
0030
0001
0000
1000
,  // measure 84
0000
0010
0000
0100
,  // measure 85
0000
0001
1000
0001
,  // measure 86
1000
0001
1000
0001
,  // measure 87
2000
0002
0000
0000
,  // measure 88
0000
0000
0000
0000
,  // measure 89
3003
0000
0000
0000
;

//---------------dance-single - ----------------
#NOTES:
     dance-single:
     :
     Beginner:
     3:
     0.183996,0.252329,0.008100,0.153908,0.000000,159.000000,158.000000,1.000000,19.000000,0.000000,0.000000,0.183996,0.252329,0.008100,0.153908,0.000000,159.000000,158.000000,1.000000,19.000000,0.000000,0.000000:
// measure 0
0000
0000
0000
0000
,  // measure 1
0000
0000
0000
0000
,  // measure 2
0000
0000
0000
0000
,  // measure 3
0000
0000
0000
0000
,  // measure 4
0000
0000
0000
0000
,  // measure 5
0000
0000
0000
0000
,  // measure 6
0000
0000
0000
0000
,  // measure 7
0000
0000
0000
0000
,  // measure 8
0000
0000
0000
0000
,  // measure 9
1000
0000
0001
0000
,  // measure 10
1000
0000
0001
0000
,  // measure 11
0100
0100
0010
0010
,  // measure 12
0020
0000
0030
0010
,  // measure 13
2000
3000
0002
0003
,  // measure 14
2000
3000
0001
0001
,  // measure 15
0002
0003
2000
3000
,  // measure 16
0002
0003
0100
0100
,  // measure 17
0200
0300
0020
0030
,  // measure 18
0200
0300
0010
0010
,  // measure 19
0020
0030
0200
0300
,  // measure 20
0001
0000
1000
0000
,  // measure 21
0001
0001
0000
1000
,  // measure 22
0000
0100
0000
1000
,  // measure 23
1000
1000
0000
0001
,  // measure 24
0000
0100
0000
0001
,  // measure 25
0001
0001
0000
0010
,  // measure 26
0000
0001
0000
1000
,  // measure 27
1000
1000
0000
0010
,  // measure 28
0000
1000
0000
0001
,  // measure 29
0001
0000
0000
0000
,  // measure 30
0100
0000
1000
0000
,  // measure 31
0000
0000
0100
0000
,  // measure 32
0001
0000
0000
0000
,  // measure 33
1000
0000
0000
0000
,  // measure 34
0010
0000
0000
0000
,  // measure 35
0100
0000
0000
0000
,  // measure 36
0000
2000
3000
0100
,  // measure 37
0000
0010
0010
0010
,  // measure 38
0000
0001
0000
1000
,  // measure 39
0000
0001
0000
1000
,  // measure 40
0000
0100
0000
0010
,  // measure 41
0000
0001
0000
1000
,  // measure 42
0000
0010
0000
0010
,  // measure 43
0000
0100
0000
0100
,  // measure 44
0000
0001
0000
1000
,  // measure 45
0000
1001
0000
0000
,  // measure 46
0000
0000
0001
0000
,  // measure 47
0001
0000
1000
0000
,  // measure 48
1000
0000
0100
0000
,  // measure 49
0010
0000
0100
0000
,  // measure 50
0010
0000
0001
0000
,  // measure 51
0001
0000
1000
0000
,  // measure 52
1000
0000
0010
0000
,  // measure 53
0010
0000
0100
0000
,  // measure 54
0100
0000
0001
0000
,  // measure 55
0100
0000
1000
0000
,  // measure 56
0100
0000
0001
0000
,  // measure 57
0100
0000
1000
0000
,  // measure 58
0100
0000
0001
0000
,  // measure 59
0010
0000
1000
0000
,  // measure 60
0010
0000
0001
0000
,  // measure 61
0010
0000
1000
0000
,  // measure 62
0010
0000
0002
0000
,  // measure 63
0000
0000
0000
0000
,  // measure 64
0003
1000
1000
0000
,  // measure 65
0100
0000
0001
0000
,  // measure 66
0100
0000
1000
0000
,  // measure 67
0001
0000
1000
1000
,  // measure 68
1000
0000
0001
0000
,  // measure 69
0010
0000
0100
0000
,  // measure 70
0010
0000
0001
0001
,  // measure 71
0000
1000
1000
0000
,  // measure 72
1000
0000
0001
0000
,  // measure 73
0100
0000
1000
0000
,  // measure 74
0100
0000
0001
0000
,  // measure 75
1000
0000
0001
0001
,  // measure 76
0001
0000
1000
0000
,  // measure 77
0010
0000
0100
0000
,  // measure 78
0010
0000
1000
1000
,  // measure 79
0000
0001
0001
0000
,  // measure 80
0001
0000
0000
0000
,  // measure 81
0000
0000
0002
0003
,  // measure 82
2000
3000
0020
0000
,  // measure 83
0030
1000
0000
1000
,  // measure 84
0000
0001
0000
0001
,  // measure 85
0000
1000
0000
0001
,  // measure 86
0000
2000
0000
0002
,  // measure 87
0000
0000
0000
0000
,  // measure 88
0000
0000
0000
0000
,  // measure 89
3003
0000
0000
0000
;
