#TITLE:song 4 mutya;
#SUBTITLE:(out of control);
#ARTIST:GROOVE ARMADA;
#TITLETRANSLIT:;
#SUBTITLETRANSLIT:;
#ARTISTTRANSLIT:;
#GENRE:;
#CREDIT:;
#BANNER:[Round 3] - song 4 mutya (out of control).png;
#BACKGROUND:[Round 3] - song 4 mutya (out of control)-bg.png;
#LYRICSPATH:;
#CDTITLE:;
#MUSIC:[Round 3] - song 4 mutya (out of control).ogg;
#OFFSET:-0.000000;
#SAMPLESTART:39.869999;
#SAMPLELENGTH:13.000000;
#SELECTABLE:YES;
#DISPLAYBPM:120.000000;
#BPMS:0.000000=120.015007
;
#STOPS:
;
#BGCHANGES:;
#KEYSOUNDS:;
#ATTACKS:;

//---------------dance-single - ----------------
#NOTES:
     dance-single:
     :
     Beginner:
     1:
     0.135890,0.164749,0.000000,0.000000,0.000000,97.000000,97.000000,0.000000,0.000000,0.000000,0.000000,0.135890,0.164749,0.000000,0.000000,0.000000,97.000000,97.000000,0.000000,0.000000,0.000000,0.000000:
// measure 0
1000
0000
0000
0000
,  // measure 1
0000
0000
0000
0000
,  // measure 2
0000
0000
0000
0000
,  // measure 3
0000
0000
0000
0000
,  // measure 4
1000
0000
1000
0000
,  // measure 5
0001
0000
0001
0000
,  // measure 6
1000
0000
1000
0000
,  // measure 7
0001
0000
0001
0000
,  // measure 8
0100
0100
0100
0000
,  // measure 9
0100
0100
0100
0000
,  // measure 10
0010
0000
0010
0000
,  // measure 11
0010
0010
0010
0000
,  // measure 12
1000
0000
0010
0000
,  // measure 13
0001
0000
0010
0000
,  // measure 14
1000
1000
1000
0000
,  // measure 15
0001
0001
0001
0000
,  // measure 16
1000
0000
0001
0000
,  // measure 17
0010
0000
0100
0000
,  // measure 18
1000
0000
0000
0000
,  // measure 19
0001
0000
0001
0001
,  // measure 20
0001
0000
0010
0000
,  // measure 21
0100
0000
1000
0000
,  // measure 22
0010
0010
0010
0010
,  // measure 23
0010
0000
0010
0000
,  // measure 24
0100
0000
0001
0000
,  // measure 25
0010
0000
0100
0000
,  // measure 26
1000
1000
1000
1000
,  // measure 27
1000
0000
1000
0000
,  // measure 28
0010
0000
0000
0000
,  // measure 29
0100
0000
0000
0000
,  // measure 30
0001
0000
0000
0000
,  // measure 31
1000
0000
0000
0000
,  // measure 32
0100
0100
0100
0000
,  // measure 33
0100
0100
0100
0000
,  // measure 34
0010
0000
0100
0000
,  // measure 35
0001
0000
1000
0000
,  // measure 36
0010
0000
1000
0000
,  // measure 37
0001
0000
0100
0000
,  // measure 38
0001
0000
1000
0000
,  // measure 39
0100
0000
0010
0000
,  // measure 40
1000
0000
0001
0000
,  // measure 41
1000
0000
0010
0000
,  // measure 42
0100
0000
0001
0000
,  // measure 43
0010
0000
0100
0000
,  // measure 44
1000
0000
0001
0000
,  // measure 45
0010
0000
0001
0000
,  // measure 46
1000
0000
0010
0000
,  // measure 47
0100
0000
0001
0000
,  // measure 48
0010
0000
0000
0000
;

//---------------dance-single - ----------------
#NOTES:
     dance-single:
     :
     Easy:
     3:
     0.208739,0.258892,0.029420,0.372648,0.000000,149.000000,146.000000,3.000000,38.000000,0.000000,0.000000,0.208739,0.258892,0.029420,0.372648,0.000000,149.000000,146.000000,3.000000,38.000000,0.000000,0.000000:
0000
0000
0000
0000
,
0000
0000
0000
0000
,
0000
0000
0000
0000
,
0000
0000
0000
0000
,
1000
0001
0010
0000
,
0001
0010
0100
1000
,
0001
0000
1000
0000
,
0001
1000
0001
1000
,
0010
0000
0000
0100
,
0010
0000
0000
0100
,
0010
0000
0000
0100
,
0010
0000
0000
1001
,
0010
1000
0100
0000
,
0010
0001
0100
0000
,
0001
1000
0100
1000
,
0001
0100
0010
0000
,
1000
0100
0000
0001
,
1000
0010
0100
0000
,
0001
0010
0001
0000
,
2000
3001
1001
1001
,
0010
1000
0100
1000
,
0010
0100
0001
0010
,
0100
0000
1000
0000
,
0001
0000
0100
0000
,
0010
1000
0100
1000
,
0010
0100
0001
0010
,
0100
0000
1000
0000
,
0001
0000
0100
0000
,
0020
2030
3200
0300
,
0020
0032
0203
0300
,
0020
2030
3002
0003
,
0020
0032
2003
3000
,
0010
0010
0010
0000
,
0010
0010
0010
0000
,
1000
0100
0001
0100
,
1000
0001
1000
0020
,
0130
0020
0130
0020
,
0130
0020
0130
0002
,
1003
0002
1003
0002
,
1003
0002
1003
0200
,
0310
0200
0310
0200
,
0310
0200
0310
2000
,
3001
2000
3001
2000
,
3001
2000
3001
0020
,
0130
0020
0130
0020
,
0130
0020
0130
0002
,
1003
0002
1003
0002
,
1003
0002
1003
0200
,
0310
0000
0000
0000
;

//---------------dance-single - ----------------
#NOTES:
     dance-single:
     :
     Medium:
     6:
     0.288592,0.331215,0.078452,0.333422,0.004903,206.000000,198.000000,8.000000,34.000000,0.000000,0.000000,0.288592,0.331215,0.078452,0.333422,0.004903,206.000000,198.000000,8.000000,34.000000,0.000000,0.000000:
1000
0000
0000
0000
,
0000
0000
0000
0000
,
0000
0000
0000
0000
,
0000
0000
0000
0000
,
0001
0100
0000
0001
0100
0000
0000
0010
,
1000
0000
0100
0000
1000
0000
0100
0000
0010
0000
0000
0010
0000
0000
0010
0000
,
0000
0000
0000
0001
1000
0000
0000
0000
,
0001
1000
0000
0001
1000
0000
1000
0000
,
0001
0100
0001
0000
1000
0000
0001
0000
,
0001
0100
0001
0000
1000
0000
0001
0000
,
1000
0100
1000
0000
0001
0000
1000
0000
,
1000
0100
1000
0000
0001
0000
1001
0000
,
0010
1000
0100
0000
1000
0000
0010
0000
,
0100
0001
0010
0000
0001
0000
0100
0000
,
0010
1000
0100
0001
,
0010
0000
1001
1001
0000
0000
1001
0000
,
0010
0000
1000
0000
0000
0100
1000
0000
,
0010
0100
0001
0000
,
1000
0100
0010
0001
,
1001
0000
1001
1001
,
0001
0100
0010
1000
,
0001
0010
0100
1000
,
0001
1000
0001
1000
0001
0000
0010
0100
,
0010
0000
0001
1000
0001
0000
1001
0000
,
1000
0010
0100
0001
,
1000
0100
0010
0001
,
0010
0100
0010
0100
0010
0000
0001
1000
,
0001
0000
0010
0100
0010
0000
0000
0000
,
0002
0010
1000
0103
,
2000
0010
0001
3100
,
0002
0023
0230
2300
,
3002
0203
0320
0030
,
1000
0001
0100
0000
0001
0000
1000
0000
,
0001
1000
0100
0000
1000
0000
0001
0000
,
1000
0001
1000
0001
1000
0000
0010
0100
,
0010
0000
1000
0001
1000
0000
0002
0000
,
0010
2003
0010
3002
,
0100
0023
0100
0032
,
1000
0203
0010
0302
,
0010
2003
0100
3002
,
0100
0023
0100
0032
,
0010
2003
0010
3002
,
0100
2003
0100
3020
,
0100
0032
1000
0023
,
0100
2030
0100
3002
,
0010
2003
0010
3002
,
1000
0203
0010
0302
,
0010
2003
0010
3002
,
0010
1003
0000
0000
;

//---------------dance-single - ----------------
#NOTES:
     dance-single:
     :
     Hard:
     8:
     0.385256,0.400106,0.088259,0.039226,0.078452,275.000000,266.000000,9.000000,4.000000,0.000000,0.000000,0.385256,0.400106,0.088259,0.039226,0.078452,275.000000,266.000000,9.000000,4.000000,0.000000,0.000000:
0000
0000
0000
0000
,
0000
0000
0000
0000
,
0000
0000
0000
0000
,
0000
0000
0000
0000
,
1000
0001
0000
1000
0001
0000
0000
0010
,
0100
1000
0100
0000
0010
0000
0001
0000
0100
0000
0000
0010
0000
0000
0110
0000
,
0000
0000
0000
0100
0010
0000
0000
0000
,
0100
0010
0000
0100
0010
0000
0010
0000
,
1000
0100
0010
0001
1000
0000
1000
0100
,
0010
0001
1000
0100
0010
0000
0001
0100
,
0010
1000
0001
0100
0010
0000
1000
0100
,
0010
0000
0001
0100
0010
0000
0110
0000
,
1000
0000
0001
0200
0000
0000
0301
0000
,
1000
0000
0001
0200
0000
0000
0301
0000
,
1000
0000
0100
0100
0010
0000
0001
0000
,
1000
0000
0110
0110
0001
0000
0110
0000
,
0001
1000
0100
1000
0000
0001
1000
0000
,
1000
0001
0100
0001
1000
0000
0010
0010
,
0100
0001
0010
0001
1000
0000
0100
0000
,
1100
0000
0011
0011
,
1000
0100
0000
0000
1000
0001
0000
0000
1000
0010
0000
0000
1000
0001
0000
0000
,
1000
0100
0000
0000
0010
0001
0000
0000
1000
0001
0000
0000
0100
0000
0001
0000
,
0000
1000
0100
0010
0001
0100
0010
1000
,
0010
0100
0001
0010
0100
1000
1001
0000
,
0001
0010
0000
0000
0001
1000
0000
0000
0001
0100
0000
0000
0001
1000
0000
0000
,
0001
0010
0000
0000
0100
1000
0000
0000
0001
1000
0000
0000
0010
0000
1000
0000
,
0000
0001
0010
1000
0010
0001
0100
0010
,
0000
1000
0010
0001
0010
1000
0100
0010
,
0002
0000
0010
0010
1003
0000
0100
0000
,
2000
0000
0010
0000
3001
0000
0001
0010
,
0100
0000
0010
0100
1000
0000
0010
0000
,
1000
1000
0010
0000
0100
0001
0010
0100
,
1000
0001
0100
0000
0001
0000
1000
0000
,
0001
1000
0100
0000
1000
0000
0001
0000
,
0000
1000
0010
0001
0010
1000
0100
0010
,
0100
1000
0010
0001
0010
1000
0001
0010
,
0100
0000
0010
0100
1000
0000
0100
1000
,
0001
0000
1000
0001
0100
0000
0010
1000
,
0100
0000
1000
0100
0001
0000
0100
1000
,
0010
0000
0100
0001
0010
0000
0001
0100
,
1000
0000
0100
0010
1000
0000
0001
0010
,
1000
0000
0010
0001
1000
0000
0001
1000
,
0010
0000
0100
0001
0010
0000
1000
0010
,
0001
0000
1000
0100
0001
0000
0100
1000
,
0010
0000
0001
0010
1000
0000
0010
1000
,
0001
0000
0010
0100
1000
0000
0100
0001
,
1000
0000
0010
0001
0100
0000
0001
0010
,
1000
0000
0010
0001
0100
0000
0010
1000
,
0100
0000
0000
0000
;
