#TITLE:Nighthiker;
#SUBTITLE:;
#ARTIST:nana(Sevencolors) feat.mana;
#TITLETRANSLIT:;
#SUBTITLETRANSLIT:;
#ARTISTTRANSLIT:;
#GENRE:;
#CREDIT:;
#BANNER:Nighthiker.png;
#BACKGROUND:Nighthiker-bg.png;
#LYRICSPATH:;
#CDTITLE:;
#MUSIC:Nighthiker.ogg;
#OFFSET:0.011960;
#SAMPLESTART:53.570999;
#SAMPLELENGTH:15.000000;
#SELECTABLE:YES;
#BPMS:0.000000=112.000000
;
#STOPS:
;
#BGCHANGES:;
#KEYSOUNDS:;
#ATTACKS:;

//---------------dance-single - ----------------
#NOTES:
     dance-single:
     :
     Hard:
     7:
     0.437445,0.505629,0.357098,0.142839,0.205331,343.000000,303.000000,40.000000,16.000000,0.000000,0.000000,0.437445,0.505629,0.357098,0.142839,0.205331,343.000000,303.000000,40.000000,16.000000,0.000000,0.000000:
0000
0000
0000
0000
,
0000
0000
0000
0000
,
0000
0000
0000
0000
,
0000
0000
0000
0000
,
0000
0000
0000
2000
,
3002
0010
0000
0013
0000
0001
1000
0200
,
1000
0000
1300
0000
0010
1000
0001
1000
,
0020
0100
0000
0130
0000
0001
1000
0200
,
0010
0000
0310
0100
1000
0001
1000
0010
,
0110
0010
1000
0001
0000
0011
0000
1100
,
0000
0000
1000
0001
0000
1000
0001
0000
0100
0000
0010
0000
0020
0000
0030
0000
,
0100
0001
1000
0010
0000
1010
0000
0101
,
0000
0000
0001
1000
0000
0001
1000
0000
0100
0000
0010
0001
0010
0000
0100
0000
,
1000
0001
1000
0100
0000
0110
0000
1001
,
0000
0000
1000
0100
0000
1000
0100
0000
0010
0000
0001
0000
0002
0000
0103
0000
,
0010
0100
0001
1000
0000
1001
0000
0110
,
0000
0000
0100
0001
0000
0100
0001
0000
0010
0000
0100
0000
1000
0000
0001
0000
,
1000
0000
0000
0100
0000
0000
0001
0000
0000
0100
0000
0000
1000
0000
0000
0000
,
0001
0000
0000
0100
0000
0000
1000
0000
0000
0100
0000
0001
1000
0000
0000
0000
,
0001
0000
0000
0010
0000
0000
1000
0000
0000
0010
0000
0000
0001
0000
0000
0000
,
1000
0000
0000
0010
0000
0000
0001
0000
0000
0010
0000
1000
0001
0000
0000
0000
,
1001
0000
0000
0000
0010
0000
0000
0000
0100
0000
0101
0000
0000
1001
0000
0000
,
1100
0000
0000
0000
0000
0000
0010
0000
0011
0000
0000
1001
0000
0000
1010
0000
,
0010
1000
0100
0000
0010
0001
0100
0000
,
0001
1000
0001
1000
0001
0000
0100
0010
0100
0010
0100
0000
0110
0000
0000
0000
,
1001
0001
1000
0100
1000
1010
0000
0101
,
0001
0000
1000
0001
0000
1000
0001
0000
0010
0000
0100
0000
0200
0000
0310
0000
,
0001
1000
0010
0100
0001
0011
0000
1100
,
1000
0010
1000
0100
0001
0010
0001
0100
,
1000
0001
0100
0010
0000
0110
0000
1001
,
0001
0000
0010
0100
0000
0010
0100
0000
1000
0000
0001
0000
0002
0000
0103
0000
,
0010
0001
0010
0100
0001
1001
0000
0100
,
0010
1000
0010
0000
0100
0001
0100
0000
0001
0000
0010
0000
0100
0000
1000
0000
,
2001
0010
0000
0010
,
3002
0010
0000
0010
,
0203
0010
0000
0010
,
0320
1000
0230
0001
,
0310
0000
0100
0000
0000
0001
0000
0000
1000
0000
0100
1000
0000
0100
1000
0000
,
0010
0000
0100
0000
0000
0001
0100
0000
0110
0000
0000
1010
0000
0000
0101
0000
,
0001
1000
0100
0000
1000
0001
0100
0000
,
0100
0010
0100
0010
0100
0000
0001
1000
0001
1000
0001
0000
1001
0000
0000
0000
,
0110
0100
0001
0010
0001
0011
0000
1100
,
1000
0000
0001
0100
0001
0000
0010
0000
0100
0000
1000
0010
1000
0000
0001
0000
,
0100
1000
0100
0001
0000
0101
0000
1010
,
1000
0100
0010
1000
0010
0001
1000
0010
,
0100
0010
1000
0100
0000
1100
0000
0011
,
0001
0000
1000
0010
1000
0000
0100
0000
0010
0000
0001
0100
0001
0000
1000
0000
,
0010
0010
0100
0010
1000
1010
0000
0101
,
0001
0000
1000
0000
0100
0000
0001
0000
0100
0000
1000
0001
1000
0001
0000
0000
,
2002
3003
0000
0000
;

//---------------dance-single - ----------------
#NOTES:
     dance-single:
     :
     Challenge:
     9:
     0.479532,0.527613,0.232114,0.178549,0.446373,376.000000,350.000000,26.000000,20.000000,128.000000,0.000000,0.479532,0.527613,0.232114,0.178549,0.446373,376.000000,350.000000,26.000000,20.000000,128.000000,0.000000:
0000
0000
0000
0000
,
0000
0000
0000
0000
,
0000
0000
0000
0000
,
0000
0000
0000
0000
,
0000
0000
0000
0002
,
2003
0000
0000
0000
3100
0000
0000
0000
MMMM
0000
0000
0000
0001
0000
1000
0020
,
1000
0000
0000
0000
0130
0000
0000
0000
MMMM
0000
0000
0000
1000
0000
0001
0010
,
0002
0000
0000
0023
0000
0000
0230
0000
0000
2300
0000
0000
3001
0000
0100
0002
,
1000
1003
MMMM
1000
,
1010
0000
1000
0001
0100
0000
0010
0000
MMMM
0000
0001
0000
MMMM
0000
0100
0000
,
1000
0000
0010
1000
0100
0000
0010
0000
0001
0000
0101
0000
1002
0000
0000
0000
,
0103
0000
0010
1000
0100
0000
0010
0000
MMMM
0000
1000
0000
MMMM
0000
0100
0000
,
0001
0000
0010
1000
0001
0000
0100
0000
1000
0000
0010
0001
1000
0000
0100
0000
,
0001
0000
1000
0100
0001
0000
0100
0000
MMMM
0000
0001
0000
MMMM
0000
0010
0000
,
1000
0000
0001
0010
0100
0000
0001
0000
0100
0000
1100
0000
1002
0000
0000
0000
,
0013
0000
1000
0010
0001
0000
0100
0000
MMMM
0000
1000
0000
MMMM
0000
0010
0000
,
0001
0000
0100
0010
0001
0000
1000
0100
0010
0000
1000
0100
0010
0001
1000
0000
,
0001
0000
0000
0100
0000
0000
1000
0000
0000
0010
0000
0000
0001
0000
0000
0000
,
1000
0000
0000
0100
0000
0000
0001
0000
0000
0010
0000
1000
0001
0000
0100
0000
,
0101
0000
0000
1100
0000
0000
1010
0000
0000
0011
0000
0000
1001
0000
0001
0000
,
1001
0000
0000
0011
0000
0000
1010
0000
0000
1100
0000
0001
0100
0000
0001
0000
,
0010
0001
1000
0000
0010
1000
0001
0000
0010
0100
0000
0010
0001
0100
0000
0000
,
0010
1000
0100
0000
0010
0001
0100
0000
0010
0100
0000
0010
1000
0001
0000
0000
,
1000
0010
0100
0000
0001
0010
0100
0000
,
1000
0010
0100
0001
1000
0000
0001
0010
0100
1000
0001
0000
1001
0000
0000
0000
,
0011
0000
0010
0100
1000
0000
0001
0000
MMMM
0000
0100
0000
MMMM
0000
0010
0000
,
0100
0000
1000
0100
0010
0000
1000
0001
0010
0000
0011
0000
1002
0000
0000
0000
,
0103
0000
0001
0010
0100
0000
1000
0000
MMMM
0000
0100
0000
MMMM
0000
0010
0000
,
0100
0000
0010
0001
0100
0000
0010
1000
0010
1000
0000
0001
1000
0000
0100
0010
,
0001
0000
0100
0001
0010
0000
0100
0000
MMMM
0000
0010
0000
MMMM
0000
0001
0000
,
1000
0000
0010
0100
1000
0000
0100
0001
1000
0000
1010
0000
1002
0000
0000
0000
,
0103
0000
0001
1000
0010
0000
0100
0000
MMMM
0000
0010
0000
MMMM
0000
1000
0000
,
0001
1000
0100
0000
1000
0001
0100
0000
0010
0100
0010
0100
0000
0001
1000
0000
,
1002
0010
0000
0010
,
2003
0010
0000
0010
,
3200
0010
0000
0010
,
0320
0001
0230
1000
,
0310
0000
0001
0000
1000
0010
0000
1000
0100
0000
1000
0001
0010
0001
0100
0000
,
0001
0000
1000
0000
0001
0010
0100
0000
0110
0000
0000
1001
0000
0000
0110
0000
,
0010
0001
0100
0000
0010
1000
0100
0000
,
0010
0001
1000
0010
0100
0000
0010
1000
0001
0010
0100
0000
1001
0000
0000
0000
,
0001
0100
0010
0000
MMMM
0000
0001
0100
0001
1000
0100
0000
MMMM
0000
0010
1000
,
0100
0010
0001
0000
MMMM
0000
0001
1000
0001
0000
0100
0010
1000
0010
0000
0000
,
1000
0100
0010
0000
MMMM
0000
1000
0010
0100
0001
0100
0000
MMMM
0000
1000
0001
,
0010
0001
0100
0000
MMMM
0000
0010
0001
2000
0000
3010
1000
0001
0100
0000
0000
,
0001
0010
0100
0000
MMMM
0000
0001
1000
0100
1000
0010
0000
MMMM
0000
0001
1000
,
0001
0010
0100
0000
MMMM
0000
0001
1000
0100
0000
0010
0001
1000
0000
MMMM
0000
,
0010
0001
0100
0000
MMMM
0000
1000
0010
0100
0010
1000
0000
MMMM
0000
0010
0001
,
1000
0001
0100
0000
MMMM
0000
0100
0001
1000
0000
0100
0010
0001
1000
0000
0000
,
2002
3003
0000
0000
;

//---------------dance-single - ----------------
#NOTES:
     dance-single:
     :
     Medium:
     5:
     0.315012,0.329758,0.267824,0.133912,0.071420,247.000000,217.000000,30.000000,15.000000,0.000000,0.000000,0.315012,0.329758,0.267824,0.133912,0.071420,247.000000,217.000000,30.000000,15.000000,0.000000,0.000000:
0000
0000
0000
0000
,
0000
0000
0000
0000
,
0000
0000
0000
0000
,
0000
0000
0000
0000
,
0000
0000
0000
0002
,
2003
0000
0100
0000
0000
0000
3100
1000
,
0002
0100
0000
0103
,
0001
0000
0000
1000
0000
0000
0001
0000
0000
0010
0000
0000
0100
0000
1000
0000
,
0200
1300
0000
1001
,
0001
1000
0000
0100
0000
1100
0000
0011
,
0000
0001
0100
0001
0000
1000
0200
0000
,
1300
0001
0000
0100
0000
0101
0000
1010
,
0000
1000
0100
1000
0000
0001
0100
0000
,
0010
1000
0000
0001
0000
0011
0000
1100
,
0000
0001
1000
0001
0000
0100
0002
0000
,
0013
0001
0000
1000
0000
1010
0000
0101
,
0000
1000
0001
1000
0000
0100
1000
0000
,
0001
0000
0000
0010
0000
0000
0100
0000
0000
1000
0000
0000
0100
0000
0000
0000
,
1000
0000
0000
0010
0000
0000
0100
0000
0000
0001
0000
0000
0100
0000
0000
0000
,
0001
0000
0000
1000
0000
0000
0100
0000
0000
0010
0000
0000
0001
0000
0000
0000
,
1000
0000
0000
0001
0000
0000
0100
0000
0000
0010
0000
0000
1000
0000
0000
0000
,
1001
0000
0000
0000
0000
0000
0000
0000
0000
0000
0010
0000
0000
0100
0000
0000
,
0110
0000
0000
0000
0000
0000
0001
0000
1000
0000
0000
1000
0000
0000
1000
0000
,
0001
0010
0001
0000
1000
0010
1000
0000
,
0001
0000
1000
0000
0010
0100
0110
0000
,
0100
0001
0000
1000
0000
1010
0000
0101
,
0000
0001
0010
0001
0000
1000
2000
0000
,
3100
1000
0000
0001
0000
0011
0000
1100
,
0000
1000
0010
1000
0000
0001
1000
0000
,
0010
0100
0000
0001
0000
0101
0000
1010
,
0000
1000
0100
1000
0000
0100
0200
0000
,
0310
0100
0000
1000
0000
1100
0000
0011
,
0001
0000
1000
0000
0010
0100
0010
0100
,
0002
0010
0000
0010
,
2003
0010
0000
0010
,
3200
0010
0000
0010
,
0320
0100
0230
0010
,
1300
0000
0001
0000
0000
0001
0000
0000
1000
0000
0000
1000
0000
0000
1000
0000
,
0010
0000
0100
0000
0000
0100
0000
0000
0010
0000
0000
0010
0000
0000
0010
0000
,
1000
0100
1000
0000
0001
0100
0001
0000
,
1000
0000
0001
0000
0010
0100
0110
0000
,
0001
0010
0001
0010
0000
0011
0000
1100
,
0000
1000
0001
1000
0000
0010
1000
0000
,
1000
0010
1000
0010
0000
1010
0000
0101
,
0000
0001
0000
1000
0000
0100
0010
0000
,
0001
0100
0001
0100
0000
0101
0000
1010
,
0000
1000
0001
1000
0000
0100
1000
0000
,
1000
0100
1000
0100
0000
1100
0000
0011
,
0000
0001
1000
0000
0010
0100
0010
0000
,
2002
3003
0000
0000
;

//---------------dance-single - ----------------
#NOTES:
     dance-single:
     :
     Beginner:
     1:
     0.075246,0.153106,0.026782,0.044637,0.000000,59.000000,56.000000,3.000000,5.000000,0.000000,0.000000,0.075246,0.153106,0.026782,0.044637,0.000000,59.000000,56.000000,3.000000,5.000000,0.000000,0.000000:
0000
0000
0000
0000
,
0000
0000
0000
0000
,
0000
0000
0000
0000
,
0000
0000
0000
0000
,
0000
0000
0000
0000
,
1000
0000
0000
0000
,
1000
0000
0000
0000
,
0001
0000
0000
0000
,
0001
0000
0000
0000
,
0100
0000
0000
0000
,
0100
0000
0100
0000
,
0010
0000
0000
0000
,
0010
0000
0010
0000
,
0100
0000
0000
0000
,
0100
0000
0100
0000
,
0010
0000
0000
0000
,
0010
0000
0010
0000
,
1000
0000
0000
0000
,
0001
0000
0000
0000
,
1000
0000
0000
0000
,
0001
0000
0000
0000
,
0010
0000
0000
0000
,
0010
0000
0000
0000
,
0010
0000
0010
0000
,
0010
0000
0110
0000
,
1001
0000
0000
0000
,
0001
0000
0000
0000
,
1000
0000
0000
0000
,
0010
0000
0000
0000
,
0100
0000
0000
0000
,
0001
0000
0000
0000
,
0010
0000
0000
0000
,
0100
0000
0000
0000
,
2000
0000
0000
3000
,
0002
0000
0000
0003
,
0200
0000
0000
0300
,
0020
0030
0020
0030
,
1000
0000
1000
0000
,
0001
0000
0001
0000
,
1000
0000
0001
0000
,
1000
0000
0001
0000
,
0010
0000
0000
0000
,
0010
0000
0000
0000
,
0100
0000
0000
0000
,
0100
0000
0000
0000
,
1000
0000
0000
0000
,
1000
0000
0000
0000
,
0001
0000
0000
0000
,
0001
0000
0000
0000
,
1001
0000
0000
0000
;

//---------------dance-single - ----------------
#NOTES:
     dance-single:
     :
     Easy:
     3:
     0.181100,0.263806,0.107129,0.089275,0.000000,142.000000,130.000000,12.000000,10.000000,0.000000,0.000000,0.181100,0.263806,0.107129,0.089275,0.000000,142.000000,130.000000,12.000000,10.000000,0.000000,0.000000:
0000
0000
0000
0000
,
0000
0000
0000
0000
,
0000
0000
0000
0000
,
0000
0000
0000
0000
,
0000
0000
0000
2000
,
3002
0100
0000
0100
,
2003
0010
0000
0010
,
3100
0100
0010
0010
,
0001
0000
1000
0000
,
1001
0001
0100
0001
,
0000
1000
0000
1000
,
0010
1000
0100
1000
,
0000
0001
0000
0001
,
0100
0001
0010
0001
,
0000
1000
0000
1000
,
0100
1000
0010
1000
,
0000
0001
0000
1000
,
1001
0000
0000
0100
,
0100
0000
0000
0010
,
0010
0000
0000
1000
,
1000
0000
0000
0001
,
0001
0010
0100
0000
,
1000
0010
0100
0000
,
0001
1000
0001
1000
,
1001
1001
1001
0000
,
1001
0001
0010
0001
,
0000
0100
0000
0100
,
0010
1000
0010
1000
,
0000
0100
0000
0100
,
1000
0001
0100
0001
,
0000
0100
0000
0100
,
0001
1000
0100
1000
,
0010
0010
0100
0100
,
0120
0000
0000
0000
,
2030
0000
0000
0000
,
3002
0000
0000
0000
,
0023
0000
0230
0000
,
1300
1000
1000
0000
,
0001
0001
0001
0000
,
0100
0010
0100
0010
,
0110
0110
0110
0000
,
1001
1000
0010
0100
,
0000
0001
1000
0001
,
0000
0010
0001
1000
,
0000
0001
1000
0001
,
1000
0010
0100
0100
,
0000
0001
1000
1000
,
0001
0010
0100
0100
,
0000
1000
0100
0010
,
0220
0330
0000
0000
;
