#TITLE:JOK3R;
#SUBTITLE:;
#ARTIST:Yuta Imai;
#TITLETRANSLIT:;
#SUBTITLETRANSLIT:;
#ARTISTTRANSLIT:;
#GENRE:;
#CREDIT:;
#BANNER:banner.png;
#BACKGROUND:Background.png;
#LYRICSPATH:;
#CDTITLE:;
#MUSIC:JOK3R.ogg;
#OFFSET:-1.000000;
#SAMPLESTART:84.199997;
#SAMPLELENGTH:11.200005;
#SELECTABLE:YES;
#BPMS:0.000000=150.000000
,126.000000=75.000000
,142.000000=150.000000
,221.000000=75.000000
,225.000000=150.000000
;
#STOPS:62.000000=0.400000,
93.000000=0.400000,
180.000000=0.400000
;
#BGCHANGES:;
#KEYSOUNDS:;
#ATTACKS:;

//---------------dance-single - ----------------
#NOTES:
     dance-single:
     :
     Hard:
     9:
     0.569872,0.902491,0.272384,0.193305,0.364643,454.000000,423.000000,31.000000,22.000000,0.000000,0.000000,0.569872,0.902491,0.272384,0.193305,0.364643,454.000000,423.000000,31.000000,22.000000,0.000000,0.000000:
0000
0000
0000
0000
,
0000
0000
0000
0000
,
0000
0000
0000
0000
,
0000
0000
0000
0000
,
2000
0000
0000
0000
0000
0000
3010
1000
0002
0000
0000
0000
0000
0000
0000
0000
,
0003
0010
0010
0001
,
0200
0000
0000
0000
0000
0000
0310
0100
0002
0000
0000
0000
0000
0000
0000
0000
,
0000
0000
0000
0003
,
0101
0000
0101
0000
0001
1000
0100
0000
,
0011
0000
0011
0000
0001
1000
0010
1000
,
0000
0001
0010
1000
0000
1000
0010
0001
,
0010
0001
0100
0100
0001
1000
0100
0001
,
0100
0010
0100
0010
0001
1000
0001
1000
,
0010
1000
0010
1000
0001
0100
0001
0100
,
0001
1000
0001
1000
0001
1000
0010
0100
0010
0100
0010
0100
,
0010
0000
0100
0001
0100
0000
0001
0000
0000
0000
0000
0000
1000
0000
0001
0000
,
1000
0001
1000
0001
1000
0001
1000
0001
,
1000
0001
0010
0100
1000
0001
0100
0010
,
1000
0010
0100
0010
1000
0010
0100
0010
,
1000
0010
0100
0010
1001
0000
0001
0100
,
0010
0100
0001
0010
0100
0010
0001
0100
,
0010
0000
0100
0000
0001
0000
0010
0000
0001
0010
0000
0010
0100
0000
1000
0000
,
0100
0000
1000
0000
0001
0000
0100
0000
0001
0000
0100
0000
0010
0000
1000
0001
,
0010
0100
0000
0000
0120
0000
0031
0000
,
0010
0100
1100
0000
1020
0000
0130
0000
,
0010
1000
0001
0010
0210
0000
1300
0000
,
0100
0000
0010
0000
0011
0000
0000
0000
0100
0000
1000
0000
0010
0000
0100
0010
,
0100
0010
1000
0001
0010
0000
0100
0010
,
0001
1000
0000
0000
0000
0000
0001
1000
,
0100
0000
1000
0000
0010
0000
0100
0010
1000
0000
0001
0010
0001
0000
1000
0000
,
0001
0100
0001
0100
0001
0000
1000
0000
1100
0000
0000
0110
0000
0000
1100
0000
,
1001
0000
0000
0000
0000
0000
0000
0000
0000
0000
0000
0000
0000
0000
0000
0000
1100
0000
0000
0000
0011
0000
0000
0000
0100
0000
1000
0000
0010
0100
0010
0100
,
0010
0000
0100
0000
0001
0000
0010
0000
0100
0000
1000
0000
0100
0000
0010
0000
0100
0000
0000
0100
0000
0000
0100
0000
1000
0000
0001
0000
0100
0000
0000
0000
,
0010
1000
0100
0100
0010
0001
0100
0110
0000
0100
1000
0100
0001
1000
0100
0010
,
0000
0100
1000
0001
0100
0010
1000
0001
0000
1000
0010
0001
0000
0001
0010
1000
,
0010
0001
0100
0010
1000
0100
0010
0001
2002
0000
0000
0000
0000
0000
0000
0000
,
0000
0000
0000
0000
,
0000
0000
0000
0000
3000
0000
0003
0000
1020
0000
0000
0000
0130
0000
0010
1000
,
0200
0310
0100
2000
,
3020
0000
0000
0000
0230
0000
0000
0000
0302
0000
0000
0000
0013
0000
0100
1000
,
0020
0130
0010
2000
,
3200
0000
0320
0000
0130
0010
0001
0100
,
1000
0100
0010
1000
0001
0010
1000
0010
,
0100
0000
0010
0000
0001
0000
1000
0000
0010
0100
0010
0100
0010
0100
0010
0100
,
0010
0100
0010
0100
0010
0100
0010
0100
0010
0000
0100
0001
0010
0000
0100
0000
,
0000
0000
0000
0000
1000
0000
0001
0100
0000
0010
1000
0000
0100
0000
0000
0000
,
0100
0000
0000
0100
0010
0000
0000
0000
0100
0000
0100
0000
0100
0000
0010
0000
,
0001
1001
0011
0101
,
1010
0000
0000
1000
0100
0000
0000
0000
0011
0000
0010
0000
0100
0000
0100
0000
,
1000
0001
0000
0100
0010
1000
1100
0000
,
0110
0000
0000
1000
0100
0000
1000
0000
0001
0000
0100
0000
0010
0000
0010
0000
,
0000
0000
0010
0100
0010
0000
0100
0000
0001
0000
1000
0000
0100
0000
0000
0000
,
1100
0000
0000
1000
0001
0000
0000
0000
0100
0000
0001
0000
0010
0000
0010
0000
,
0100
0000
0010
0000
0100
0000
0100
0000
0010
0000
0010
0000
0001
0000
0000
0001
,
1000
0000
0000
0001
1000
0000
0100
0000
0010
0000
0001
0000
2000
0000
0000
0000
,
3000
0000
0000
0000
0000
0000
0000
0000
0001
0000
0000
0100
0000
0000
0010
0000
1000
0000
0000
0000
1000
0000
0000
0100
1000
0000
0000
0000
1000
0000
0100
0000
,
1000
0000
0001
0000
0010
0000
0100
0010
0001
0000
0000
0000
0100
0000
0000
0000
0010
0000
0000
0000
0100
0000
0000
0000
0001
0000
0000
0000
0000
0000
0000
0000
,
1001
0000
0000
1000
0100
0000
1000
0000
0010
0000
0100
0000
0001
0000
1000
0000
,
0100
0010
0100
1000
0010
0000
1100
0000
,
0011
0000
0000
0001
0100
0000
0000
0000
0010
0000
0100
0000
0001
0000
0001
0000
,
1000
0000
0100
0010
0001
0000
0010
0100
0010
0000
0100
0000
1000
0000
0001
0000
,
1000
0000
0000
1000
0001
0000
0100
0000
1000
0000
0020
0000
0002
0000
0000
0000
,
0030
0003
1100
0000
0000
0000
0000
0000
;

//---------------dance-single - ----------------
#NOTES:
     dance-single:
     :
     Medium:
     7:
     0.411714,0.738402,0.123012,0.096652,0.180125,328.000000,314.000000,14.000000,11.000000,0.000000,0.000000,0.411714,0.738402,0.123012,0.096652,0.180125,328.000000,314.000000,14.000000,11.000000,0.000000,0.000000:
0000
0000
0000
0000
,
0000
0000
0000
0000
,
0000
0000
0000
0000
,
0000
0000
0000
0000
,
2000
0000
0000
3001
0020
0000
0000
0000
,
0030
0100
1000
0010
,
0200
0000
0000
0301
2000
0000
0000
0000
,
0000
0000
0000
0000
,
3100
0000
0100
0000
1000
0010
0100
0000
,
0001
0000
0001
0000
1000
0001
0100
0000
,
0000
0001
0010
0100
0000
0010
0001
0100
,
0010
0000
1000
0000
0001
1000
0100
0000
,
0010
0010
0100
0100
,
1000
1000
0001
0001
,
1000
0010
1000
0010
1000
0010
1000
0010
1000
0010
1000
0010
,
1000
0010
0100
0001
0000
0000
1000
0000
,
0100
0010
0001
0010
,
0001
0000
0100
0001
0100
0010
1000
0000
,
0001
1000
0100
1000
,
0010
0000
0100
0000
1001
0000
0001
1000
,
0010
0000
1000
0000
0001
0000
0010
0100
,
1000
0000
0100
0000
1000
0000
0010
0100
,
0001
0000
0010
0100
1000
0000
0001
0100
,
1000
0100
0000
0000
1010
0000
0001
0100
,
0010
1000
0000
0000
0000
0000
0001
0010
,
0100
0010
0001
1000
0000
0000
0001
1000
,
0100
0000
0000
0000
0010
0010
0010
0000
,
0000
0000
0110
1000
,
0001
0000
0000
0001
,
1000
0000
0010
0000
0100
0100
0010
0010
,
1000
0000
0001
0000
0100
0000
0010
0000
1000
0000
0000
0001
0000
0000
0010
0000
,
0200
0000
0000
0000
2300
0000
0000
0000
3001
0000
1100
0000
1000
0010
1000
0000
,
0001
0000
1000
0001
0010
0100
1000
0001
0100
0000
0011
0000
0100
1000
0010
0000
,
0100
0000
0010
1000
0001
0010
0001
1000
0100
0000
1000
0000
0100
1000
0010
0100
,
0001
0000
0100
0000
0010
1000
0001
0010
0000
0100
0010
0001
0000
0001
0010
0100
,
0010
0001
0100
0010
1000
0001
0010
0100
1000
0000
0000
0000
0000
0000
0000
0000
,
0000
0000
0000
0000
,
0000
0000
0000
0000
0002
0000
0000
0103
,
2000
0000
3000
0100
,
0010
0000
1000
0000
0002
0000
0000
0013
,
0200
0000
0300
0010
,
0001
1000
1001
1001
,
0110
0110
0101
0101
,
1010
0000
1010
0000
0001
0100
0010
1000
,
0001
0100
0010
1000
0001
1000
1000
0001
,
0000
0000
0000
0000
1000
0000
0000
0010
0000
0000
0100
0000
0001
0000
0000
0000
,
1000
0000
0000
0100
0010
0000
0000
0000
0100
0000
0010
0000
0001
0000
1000
0000
,
0010
0100
0001
0010
,
0100
0000
0000
0010
0001
0000
0000
0000
1000
0000
0000
0000
0001
0000
0000
0000
,
0100
0010
1000
0000
0001
0000
0010
0000
,
0100
0000
0000
0010
0100
0000
0010
0000
0001
0000
1000
0000
0010
0000
0100
0000
,
0000
0100
0010
0000
1000
0000
0001
0000
,
0010
0000
0000
0100
0010
0000
0000
0000
0001
0000
0000
0000
0100
0000
0000
0000
,
0010
0000
1000
0000
0001
0000
0010
0000
0001
0000
0010
0000
0001
0000
0000
0010
,
0100
0000
0000
0100
1000
0000
0010
0000
0100
0000
0001
0000
0020
0000
0000
0000
,
0030
0000
0100
1000
0010
0100
0100
0010
,
1000
0000
0001
1000
0010
0000
0000
0000
1000
0000
0000
0000
0001
0000
0000
0000
,
0010
0000
0000
0100
1000
0000
0100
0000
1000
0000
0010
0000
1000
0000
0001
0000
,
0010
0100
0010
0000
0001
0000
0100
0000
,
0010
0000
0000
1000
0001
0000
0000
0000
1000
0000
0000
0000
0010
0000
0000
0000
,
0100
0000
0000
0010
1000
0000
0001
0000
0010
0000
0100
0000
0010
0000
0010
0000
,
0010
0000
0000
0100
0010
0000
0001
0000
1000
0000
0100
0000
0010
0000
0000
0000
,
0000
1001
0000
0000
;

//---------------dance-single - ----------------
#NOTES:
     dance-single:
     :
     Easy:
     4:
     0.262342,0.355527,0.123012,0.043933,0.000000,209.000000,195.000000,14.000000,5.000000,0.000000,0.000000,0.262342,0.355527,0.123012,0.043933,0.000000,209.000000,195.000000,14.000000,5.000000,0.000000,0.000000:
0000
0000
0000
0000
,
0000
0000
0000
0000
,
0000
0000
0000
0000
,
0000
0000
0000
0000
,
2000
0000
0020
0000
,
3030
0100
0010
1000
,
0002
0000
2000
0000
,
0000
0000
0000
3003
,
0001
0000
1000
0000
,
0010
0000
0100
0000
,
0010
0000
1000
0000
,
0001
0010
0100
1000
,
0100
0100
1000
1000
,
0001
0001
0010
0010
,
1001
0110
1001
0110
,
0000
0000
0000
0001
,
0100
0001
0100
0001
,
0100
0010
0010
1000
,
0001
1000
0001
1000
,
0001
1000
0110
1000
,
0010
1000
0010
1000
,
0010
1000
0010
0100
,
0001
0100
0001
1000
,
1000
0000
0000
0001
,
0010
0000
0000
0100
,
0010
0001
0000
1000
,
0010
0000
0000
0000
0100
0010
0100
0000
,
0000
0000
0010
0000
,
1000
0000
0000
0000
,
0001
0000
0010
0001
,
0100
0010
0110
1001
,
0110
0000
1000
0001
,
0100
0010
0100
0000
0010
0000
1000
0000
,
0100
1000
0010
0100
0001
0000
1000
0000
,
0100
1000
0010
0000
0100
0000
0010
0000
,
0100
0010
1000
0001
1001
0000
0000
0000
,
0000
0000
0000
0000
,
0000
0000
0001
0000
,
1000
0000
0000
0001
,
0100
0010
1000
0000
,
0100
0000
0000
1000
,
0010
0100
0101
0001
,
0001
0001
1100
1000
,
1000
1000
0011
0001
,
0001
0001
0001
1000
,
0000
0020
0000
0000
,
0000
0000
0100
0100
,
0130
1001
0001
1000
,
0010
1000
0100
1000
,
0010
0100
0010
0000
1000
0000
0100
0000
,
0010
0000
0100
0000
0010
0000
0001
0010
,
0000
0010
0001
0000
1000
0000
0010
0000
,
1000
0001
0010
0001
,
0100
0010
0100
0000
0001
0000
1000
0000
,
0001
0100
0010
1000
,
0000
0001
1000
0010
,
0100
0010
1000
0000
0001
0000
0010
0000
,
0001
0100
0001
1000
,
0100
1000
0010
0100
,
0010
1000
0001
0010
,
0100
0010
0001
1000
,
0001
0000
1000
0100
0010
0001
1000
0000
,
0000
0110
0000
0000
;

//---------------dance-single - ----------------
#NOTES:
     dance-single:
     :
     Beginner:
     2:
     0.104184,0.191437,0.052719,0.000000,0.000000,83.000000,77.000000,6.000000,0.000000,0.000000,0.000000,0.104184,0.191437,0.052719,0.000000,0.000000,83.000000,77.000000,6.000000,0.000000,0.000000,0.000000:
// measure 0
0000
0000
0000
0000
,  // measure 1
0000
0000
0000
0000
,  // measure 2
0000
0000
0000
0000
,  // measure 3
0000
0000
0000
0000
,  // measure 4
1000
0000
0000
0000
,  // measure 5
0000
0000
0000
0000
,  // measure 6
0100
0000
0000
0000
,  // measure 7
0000
0000
0000
0000
,  // measure 8
0010
0000
0000
0000
,  // measure 9
0001
0000
0000
0000
,  // measure 10
1000
0000
1000
0000
,  // measure 11
1000
0000
0000
0000
,  // measure 12
0110
0000
0000
0000
,  // measure 13
0100
0000
0000
0000
,  // measure 14
0001
0000
1000
0000
,  // measure 15
0010
0000
0000
0100
,  // measure 16
0000
0000
0000
0000
,  // measure 17
0000
0010
0010
0000
,  // measure 18
0000
0000
0000
0000
,  // measure 19
0000
0000
1000
0001
,  // measure 20
0000
0000
0000
0000
,  // measure 21
0000
0000
1000
1000
,  // measure 22
0000
0010
0000
0100
,  // measure 23
0000
0000
0000
0010
,  // measure 24
0010
0000
0000
0100
,  // measure 25
0100
0100
0000
0001
,  // measure 26
0001
0000
0000
0000
,  // measure 27
1001
0000
0000
1000
,  // measure 28
1000
0000
0000
0010
,  // measure 29
0010
0000
0100
0000
,  // measure 30
0010
0000
1001
0000
,  // measure 31
0000
0000
1000
0000
,  // measure 32
0001
0000
0100
0000
,  // measure 33
0010
0000
1000
0000
,  // measure 34
0100
0000
1000
0001
,  // measure 35
0100
0000
0110
0000
,  // measure 36
0000
0000
0000
0000
,  // measure 37
0000
0000
0010
0000
,  // measure 38
0000
0000
0000
0100
,  // measure 39
0000
0000
0001
0000
,  // measure 40
0000
0000
0000
1000
,  // measure 41
0000
0000
0010
0000
,  // measure 42
0000
0000
0100
0000
,  // measure 43
0000
0000
0001
0000
,  // measure 44
1000
0000
0010
0000
,  // measure 45
0000
0100
0000
0000
,  // measure 46
0000
0000
0000
0000
,  // measure 47
0000
1001
0000
0000
,  // measure 48
0000
1000
0000
0000
,  // measure 49
0000
0010
0000
0000
,  // measure 50
0000
0100
0000
0100
,  // measure 51
0000
0100
0000
0000
,  // measure 52
0000
0001
0000
0000
,  // measure 53
0000
0010
0000
0001
,  // measure 54
0000
1000
0000
0000
,  // measure 55
0000
1000
0000
0000
,  // measure 56
0000
0010
0000
0000
,  // measure 57
0000
0100
0000
0000
,  // measure 58
0000
0001
0000
0000
,  // measure 59
0000
1000
0000
0000
,  // measure 60
0000
0001
0000
1000
,  // measure 61
0000
0010
0100
0010
,  // measure 62
0000
1001
0000
0000
;
