#TITLE:attack in the minor key;
#SUBTITLE:;
#ARTIST:Mr. T;
#TITLETRANSLIT:;
#SUBTITLETRANSLIT:;
#ARTISTTRANSLIT:;
#GENRE:;
#CREDIT:;
#BANNER:;
#BACKGROUND:;
#LYRICSPATH:;
#CDTITLE:;
#MUSIC:attack in the minor key.ogg;
#OFFSET:0.000000;
#SAMPLESTART:55.446831;
#SAMPLELENGTH:11.890236;
#SELECTABLE:YES;
#BPMS:0.000000=164.000000
;
#STOPS:
;
#BGCHANGES:;
#KEYSOUNDS:;
#ATTACKS:;

//---------------dance-single - ----------------
#NOTES:
     dance-single:
     :
     Hard:
     9:
     0.539975,0.694308,0.205522,0.000000,0.393173,423.000000,400.000000,23.000000,0.000000,0.000000,0.000000,0.539975,0.694308,0.205522,0.000000,0.393173,423.000000,400.000000,23.000000,0.000000,0.000000,0.000000:
0000
0000
0000
0000
,
0000
0000
0000
0000
,
0000
0000
0000
0000
,
0000
0000
0000
0000
,
0000
0000
0000
0000
,
1000
0001
1000
0000
0001
0000
0010
0000
,
0100
0010
0100
0000
0010
0000
0001
0000
,
1000
0010
1000
0000
0001
0000
0010
0000
,
0100
0010
0100
0000
1000
0000
0010
0000
,
0000
0000
0100
0000
0001
1000
0000
0000
0001
0000
0000
0010
0000
0000
0001
0000
,
0000
0000
1000
0000
0010
1000
0000
0000
0010
0000
0000
0100
0000
0000
0010
0000
,
0000
0000
1000
0000
0100
0010
0000
0000
0100
0000
0000
0010
0000
0000
0001
0000
,
0000
0000
0000
0000
0000
0000
0000
1000
,
0010
0000
0000
0010
0000
0000
0100
0000
0001
0000
0000
0001
0000
0000
0100
0000
,
0010
0000
0000
0000
0000
0000
0100
0010
0100
0000
0000
0010
0000
0000
0100
0000
,
0001
0000
0000
0000
0000
0000
1000
0010
1000
0000
0000
0000
0000
0000
0000
0000
,
0000
0000
0000
0000
0000
0000
0001
1000
0001
0000
0000
1000
0000
0000
0001
0000
,
0010
0000
0000
0010
0000
0000
0001
0000
1000
0000
0000
1000
0000
0000
0100
0000
,
1000
0000
0000
0000
0000
0000
0100
0010
0100
0000
0000
0010
0000
0000
0100
0000
,
1000
0000
0000
0000
0000
0000
0100
0010
0100
0000
0000
0000
0000
0000
0000
0000
,
0010
0001
0100
0010
1000
0010
0100
0001
,
1000
0000
0000
1000
0000
0000
0010
0000
0100
0000
0000
0100
0000
0000
0001
0000
,
0010
0000
0000
0000
0000
0000
0001
0010
0001
0000
0000
0100
0000
0000
0010
0000
,
1000
0000
0000
1000
0000
0000
0001
0000
0010
0000
0000
0010
0000
0000
0100
0000
,
0010
0000
0000
0000
0100
1000
0010
1000
,
0100
0000
0000
1000
0000
0000
0010
0000
0100
0000
0000
0001
0000
0000
0010
0000
,
0001
0000
0000
1000
0000
0000
0010
0000
0100
0000
0000
0001
0000
0000
0010
0000
,
0100
0000
0010
0000
0001
0100
0000
0000
0010
0000
0000
1000
0000
0000
0001
0000
,
0000
0000
1000
0000
0100
1000
0100
0000
0010
0000
0001
0000
0100
0000
1000
0000
,
0100
0000
0000
0001
0010
0000
0000
0100
,
1000
0000
0000
0100
0010
0000
0100
1000
,
0001
0000
0000
0001
0000
0000
1000
0000
0010
0000
0000
0010
0000
0000
0100
0000
,
0001
0000
0000
0010
0001
1000
0010
0001
,
0010
0000
0000
0010
0000
0000
0010
0000
0100
0000
0000
0100
0000
0000
0100
0000
,
0001
0000
0000
0001
0000
0000
0001
0000
1000
0000
0000
0100
0000
0000
1000
0000
,
0010
0000
0000
0000
0000
0000
0100
0001
0100
0000
0000
0001
0000
0000
1000
0000
,
0100
0000
0000
0000
0000
0000
1000
0001
0100
0000
0000
0000
0000
0000
0000
0000
,
0000
0110
0000
0000
1010
0000
0000
0101
0000
0000
0001
0000
1001
0000
1000
0000
,
0100
0000
0000
1000
0010
0100
0001
0010
,
0001
0000
0000
0001
0000
0000
1000
0100
1000
0000
0000
0000
0000
0000
0001
0000
,
0010
0000
0000
0000
0000
0000
0001
0100
0001
0000
1000
0000
0100
0000
0010
0000
,
0100
0000
0000
1000
0000
0000
0010
0100
0010
0000
0000
0000
0000
0000
0100
0001
,
0100
0000
0010
0000
1000
0100
1000
0001
,
0100
0000
0000
0100
0000
0000
0001
0000
0010
0000
0000
0000
0000
0000
0100
0010
,
0001
0000
0000
0000
0000
0000
0010
0100
1000
0000
0001
0000
1000
0000
0010
0000
,
0100
0000
0000
0100
0000
0000
0010
0000
1000
0000
0000
0000
0000
0000
0001
0000
,
0010
0000
0000
0000
0000
0000
0001
1000
0001
0000
0100
0000
0001
0000
0010
0000
,
0100
0000
0000
0100
0000
0000
0010
0001
0010
0000
0000
0000
0000
0000
0001
0100
,
0001
0000
0000
0000
0000
0000
0100
0010
0100
0000
0010
0000
1000
0000
0001
0000
,
0010
0000
0000
0010
0000
0000
0000
0000
0000
0000
0000
0000
0001
0000
0000
0000
,
1000
0001
0100
0001
0010
0001
1000
0010
,
0100
0010
0001
0010
1000
0000
0010
1000
,
0100
0000
1000
0000
0001
0010
0001
1000
,
0100
0000
0000
0000
0000
0000
1000
0001
1000
0000
0000
0000
0000
0000
0000
0000
,
0001
0010
0100
1000
0001
0010
0100
1000
,
1001
0000
0000
0000
0000
0000
0000
0101
,
1010
0000
0000
0000
0000
0000
0000
0000
1100
0000
0000
0110
0000
0000
0011
0000
,
1001
0000
0000
0011
0101
0000
0000
1100
,
1010
0000
0010
0000
0100
0001
1000
0001
,
1000
0000
0000
1000
0000
0000
0001
0000
0010
0000
0000
0010
0000
0000
0100
0000
,
0010
0000
0000
0000
0000
0000
0100
1000
0100
0000
0000
1000
0000
0000
0010
0000
,
0100
0000
0000
0000
0000
0000
0001
1000
0001
0000
0000
0000
0000
0000
0000
0000
,
1000
0100
0010
0001
0010
0100
0010
0001
,
1000
0000
0000
1000
0000
0000
0001
0000
0100
0000
0000
0100
0000
0000
0010
0000
,
1000
0000
0000
0000
0000
0000
0010
0100
0010
0000
0000
0100
0000
0000
0010
0000
,
1000
0000
0000
1000
0000
0000
0001
0000
0010
0000
0000
0010
0000
0000
0001
0000
,
1000
0000
0000
0000
0001
0100
0001
0010
,
0100
0000
0000
0100
0000
0000
0010
0000
0001
0000
0000
0001
0000
0000
1000
0000
,
0010
0000
0000
0010
0000
0000
0100
0000
0001
0000
0000
0001
0000
0000
1000
0000
,
0100
0000
1000
0000
0010
0100
0000
0000
0010
0000
0000
1000
0000
0000
0001
0000
,
0000
0000
0010
0000
0001
0100
0000
0000
0010
0000
0100
0000
0010
0000
1000
0000
,
1001
0000
0000
0110
0000
0000
0101
0000
1010
0000
0000
1100
0000
0000
0110
0000
,
0011
0000
0000
0000
0000
0000
0001
1000
0010
0000
0000
1010
0000
0000
0100
0000
,
0001
0000
0001
0000
0001
1000
0100
0000
0100
0000
0100
1000
,
0010
0000
0000
0000
;

//---------------dance-single - ----------------
#NOTES:
     dance-single:
     :
     Medium:
     7:
     0.426363,0.694308,0.178715,0.026807,0.183183,334.000000,314.000000,20.000000,3.000000,0.000000,0.000000,0.426363,0.694308,0.178715,0.026807,0.183183,334.000000,314.000000,20.000000,3.000000,0.000000,0.000000:
0000
0000
0000
0000
,
0000
0000
0000
0000
,
0000
0000
0000
0000
,
0000
0000
0000
0000
,
0000
0000
0000
0000
,
1001
0001
0010
0001
,
1000
0010
1000
0100
,
1000
0010
0100
0001
,
1000
0100
1000
0010
,
0100
0000
0010
0000
1000
0010
1000
0000
,
0010
0000
0100
0000
0001
0100
0001
0000
,
0100
0000
0010
0000
0100
0010
1000
0000
,
0002
0000
0000
0000
,
1003
0000
0000
0010
0000
0000
0100
0000
0010
0000
0000
1000
0000
0000
0001
0000
,
0010
0000
0000
0000
0000
0000
0100
0000
0010
0000
0000
0001
0000
0000
0010
0000
,
0100
0000
0000
0010
0001
0000
0000
0000
,
0000
0000
0000
0000
0000
0000
1000
0000
0001
0000
0000
0100
0000
0000
0001
0000
,
1000
0000
0000
0010
0000
0000
1000
0000
0010
0000
0000
0100
0000
0000
0010
0000
,
1000
0000
0000
0000
0000
0000
0001
0000
0010
0000
0000
0100
0000
0000
0010
0000
,
0001
0000
0000
0010
0100
0000
0000
0000
,
0010
0001
0100
0010
,
1001
0000
0000
1000
0000
0000
0010
0000
1000
0000
0000
0010
0000
0000
0100
0000
,
0001
0000
0000
0000
0000
0000
1000
0000
0100
0000
0000
1000
0000
0000
0010
0000
,
0100
0000
0000
0001
0000
0000
1000
0000
0010
0000
0000
1000
0000
0000
0010
0000
,
0100
0000
0000
0000
0010
0100
0001
1000
,
0100
0000
0000
1000
0000
0000
0010
0000
0100
0000
0000
0001
0000
0000
0010
0000
,
0100
0000
0000
0010
0000
0000
0001
0000
0010
0000
0000
0100
0000
0000
1000
0000
,
0100
0000
0000
0000
,
0000
0000
0000
1000
0100
0010
0100
1000
,
0001
0000
1000
0000
,
0010
0000
1000
0100
,
1000
0010
0100
0001
,
0010
0000
0100
0010
,
0001
0001
1000
1000
,
0010
0010
0100
0100
,
0010
0000
0100
0010
,
1000
0000
0001
0000
,
0000
1001
0000
0000
0110
0000
0000
1001
0000
0000
0010
0000
1001
0000
0000
0000
,
0001
0000
0000
0100
0001
0100
0010
1000
,
0010
0000
0000
0010
0000
0000
1000
0000
0001
0000
0000
0000
0000
0000
0010
0000
,
0100
0000
0000
0100
0010
0001
0010
0100
,
1000
0000
0000
1000
0000
0000
0100
0000
1000
0000
0000
0000
0000
0000
0100
0000
,
1000
0000
0010
0000
0100
0010
1000
0001
,
0010
0000
0000
0100
0000
0000
0010
0000
0001
0000
0000
0000
0000
0000
0010
0000
,
0100
0000
0000
0010
0100
0010
0001
0010
,
0100
0000
0000
0100
0000
0000
0010
0000
0001
0000
0000
0000
0000
0000
1000
0000
,
0001
0000
0000
0001
0100
0010
1000
0001
,
0100
0000
0000
0100
0000
0000
0001
0000
1000
0000
0000
0000
0000
0000
0100
0000
,
1000
0000
0000
0100
1000
0010
0100
0001
,
1000
0000
0000
0001
0000
0000
0000
0000
0000
0000
0000
0000
1000
0000
0000
0000
,
0001
0010
0100
1000
0100
0010
0100
1000
,
0100
0010
0001
0010
0100
0000
0010
0001
,
0100
0000
0010
0000
1000
0010
0100
0001
,
1000
0000
0000
0000
0000
0000
0001
1000
0001
0000
0000
0000
0000
0000
0000
0000
,
0200
0000
0000
0300
,
1001
0000
0000
0000
,
0110
0000
1010
0000
,
0101
0000
1001
0000
,
0110
0010
0010
0010
,
0100
0000
0000
0010
0000
0000
0001
0000
0100
0000
0000
0010
0000
0000
1000
0000
,
0001
0000
0000
0000
0000
0000
1000
0000
0100
0000
0000
1000
0000
0000
0010
0000
,
0100
0000
0000
0010
1000
0000
0000
0000
,
0001
0010
0100
1000
,
1001
0000
0000
0001
0000
0000
0100
0000
0001
0000
0000
1000
0000
0000
0100
0000
,
1000
0000
0000
0000
0000
0000
0100
0000
1000
0000
0000
0010
0000
0000
0100
0000
,
0001
0000
0000
1000
0000
0000
0010
0000
1000
0000
0000
0010
0000
0000
0100
0000
,
0001
0000
0000
0000
1000
0100
1000
0010
,
1000
0000
0000
1000
0000
0000
1000
0000
0001
0000
0000
0001
0000
0000
0001
0000
,
0100
0000
0000
0010
0000
0000
1000
0000
0001
0000
0000
0001
0000
0000
0001
0000
,
1000
0001
0100
0010
,
0100
0000
0001
0000
0100
0010
1000
0001
,
1001
0000
0000
1001
0000
0000
1001
0000
0110
0000
0000
0110
0000
0000
0110
0000
,
1001
0000
0000
0000
0000
0000
0010
0100
0010
0000
0000
0100
0000
0000
0010
0000
,
2000
0000
0001
0000
,
3010
0000
0000
0000
;

//---------------dance-single - ----------------
#NOTES:
     dance-single:
     :
     Easy:
     3:
     0.215735,0.297561,0.071486,0.035743,0.000000,169.000000,161.000000,8.000000,4.000000,0.000000,0.000000,0.215735,0.297561,0.071486,0.035743,0.000000,169.000000,161.000000,8.000000,4.000000,0.000000,0.000000:
0000
0000
0000
0000
,
0000
0000
0000
0000
,
0000
0000
0000
0000
,
0000
0000
0000
0000
,
0000
0000
0000
0000
,
1000
0000
0001
0000
,
0100
0000
0001
0000
,
0010
0000
0001
0000
,
1000
0000
0100
0000
,
1000
0000
0001
0100
,
0001
0000
0100
0010
,
0100
0000
0010
1000
,
0200
0000
0000
0000
,
1300
0000
0001
0000
,
0010
0000
0001
0000
,
0100
0000
0010
0000
,
0000
0000
0100
0000
,
0010
0000
1000
0000
,
0001
0000
1000
0000
,
0100
0000
1000
0000
,
0001
0010
0100
1000
,
1001
0000
0001
0000
,
0010
0000
0001
0000
,
0100
0000
0010
0000
,
1000
0000
0001
1000
,
0010
0000
1000
0000
,
0100
0000
1000
0000
,
0001
0000
0000
0000
,
1000
0000
0010
0100
,
0001
0000
0010
0000
,
0001
0000
1000
0001
,
0100
0000
0001
0000
,
1000
0000
0100
1000
,
0010
0000
0100
0000
,
0001
0000
1000
0000
,
0100
0000
1000
0000
,
0010
0000
0100
0000
,
1001
0000
0000
0000
,
0001
0000
0010
0001
,
0100
0100
0010
0000
,
0100
0000
0001
1000
,
0100
0100
0010
0000
,
0100
1000
0010
0100
,
0001
0001
1000
0000
,
0010
0000
0100
0000
,
0010
0010
1000
0000
,
1001
0000
0001
1000
,
0010
0010
1000
0000
,
0100
0000
0010
0100
,
1000
0000
0000
0100
,
1000
0010
0001
0010
,
1000
0010
0100
0001
,
0010
1000
0010
0100
,
1000
0000
0001
0000
,
0200
0000
0000
0000
,
0310
0000
0000
0000
,
0100
0000
0001
0000
,
1000
0000
0010
0000
,
0100
0010
1000
0001
,
1001
0000
1000
0000
,
0010
0000
0100
0000
,
0001
0000
0010
0000
,
0100
0010
0001
1000
,
0010
0000
0100
0000
,
1000
0000
0100
0000
,
0010
0000
1000
0000
,
0001
0000
0010
0001
,
0100
0000
0001
0000
,
0010
0000
0001
0000
,
1000
0000
0000
0000
,
0000
0000
0001
1000
,
0110
0000
1001
0000
,
0110
0000
0010
0000
,
2002
0000
0000
0000
,
3003
0000
0000
0000
;

//---------------dance-single - ----------------
#NOTES:
     dance-single:
     :
     Beginner:
     2:
     0.112335,0.293539,0.098293,0.000000,0.000000,88.000000,77.000000,11.000000,0.000000,0.000000,0.000000,0.112335,0.293539,0.098293,0.000000,0.000000,88.000000,77.000000,11.000000,0.000000,0.000000,0.000000:
// measure 0
0000
0000
0000
0000
,  // measure 1
0000
0000
0000
0000
,  // measure 2
0000
0000
0000
0000
,  // measure 3
0000
0000
0000
0000
,  // measure 4
0000
0000
0000
0000
,  // measure 5
1000
0000
0000
0000
,  // measure 6
0001
0000
0000
0000
,  // measure 7
0100
0000
0000
0000
,  // measure 8
0010
0000
0000
0000
,  // measure 9
1001
0000
0000
0000
,  // measure 10
1000
0000
0000
0000
,  // measure 11
0001
0000
0000
0000
,  // measure 12
0000
0000
0000
0000
,  // measure 13
0010
0000
0000
0000
,  // measure 14
0000
0000
0100
0000
,  // measure 15
0010
0000
0000
0000
,  // measure 16
0000
0000
1000
0000
,  // measure 17
0001
0000
0000
0000
,  // measure 18
0000
0000
0010
0000
,  // measure 19
0100
0000
0010
0000
,  // measure 20
0000
0000
0000
0000
,  // measure 21
1001
0000
0000
0000
,  // measure 22
1000
0000
0000
0000
,  // measure 23
0001
0000
0001
0000
,  // measure 24
0001
0000
0000
0000
,  // measure 25
0100
0000
0000
0000
,  // measure 26
0010
0000
0000
0000
,  // measure 27
1000
0000
0000
0000
,  // measure 28
0000
0000
0001
0000
,  // measure 29
1000
0000
0000
0000
,  // measure 30
0010
0000
0100
0000
,  // measure 31
0001
0000
0000
0000
,  // measure 32
0010
0000
0000
0000
,  // measure 33
0001
0000
0000
0000
,  // measure 34
1000
0000
0000
0000
,  // measure 35
0010
0000
0000
0000
,  // measure 36
0100
0000
0000
0000
,  // measure 37
1001
0000
0000
0000
,  // measure 38
0010
0000
0000
0000
,  // measure 39
0100
0000
0100
0000
,  // measure 40
0001
0000
0000
0000
,  // measure 41
1000
0000
1000
0000
,  // measure 42
0100
0000
0000
0000
,  // measure 43
1000
0000
0000
0000
,  // measure 44
0010
0000
0000
0000
,  // measure 45
0100
0000
0100
0000
,  // measure 46
0001
0000
0000
0000
,  // measure 47
0010
0000
0000
0000
,  // measure 48
0001
0000
0000
0000
,  // measure 49
1000
0000
0000
0000
,  // measure 50
0010
0000
0000
0000
,  // measure 51
0100
0000
0000
0000
,  // measure 52
0001
0000
1000
0000
,  // measure 53
0010
0000
0100
0000
,  // measure 54
0000
0000
0000
0000
,  // measure 55
0110
0000
0000
0000
,  // measure 56
1001
0000
0000
0000
,  // measure 57
0110
0000
0000
0000
,  // measure 58
1001
0000
1000
0000
,  // measure 59
0010
0000
0000
0000
,  // measure 60
0100
0000
0000
0000
,  // measure 61
0001
0000
1000
0000
,  // measure 62
0000
0000
0000
0000
,  // measure 63
0100
0000
0000
0000
,  // measure 64
1000
0000
0000
0000
,  // measure 65
0010
0000
0000
0000
,  // measure 66
0100
0000
0000
0000
,  // measure 67
0001
0000
0000
0000
,  // measure 68
1000
0000
0000
0000
,  // measure 69
0010
0000
0000
0000
,  // measure 70
0000
0000
0100
0000
,  // measure 71
1001
0000
0110
0000
,  // measure 72
1001
0000
0010
0000
,  // measure 73
1001
0000
0000
0000
;
