#TITLE:Overload Frontier;
#SUBTITLE:;
#ARTIST:DJ Shimamura;
#TITLETRANSLIT:;
#SUBTITLETRANSLIT:;
#ARTISTTRANSLIT:;
#GENRE:HARDCORE RAVE;
#CREDIT:;
#MUSIC:[Round 2] - Overload Frontier.ogg;
#BANNER:;
#BACKGROUND:;
#CDTITLE:;
#SAMPLESTART:65.826;
#SAMPLELENGTH:15.000;
#SELECTABLE:YES;
#OFFSET:-0.006;
#BPMS:0.000=175.000;
#STOPS:;
#BGCHANGES:;
#FGCHANGES:;

//--------------- dance-single - forcednature ----------------
#NOTES:
     dance-single:
     forcednature:
     Beginner:
     2:
     0,0,0,0,0:
0000
0000
0000
0000
,
0000
0000
0000
0000
,
0000
0000
0000
0000
,
0000
0000
0000
0000
,
1000
0000
0001
0000
,
1000
0000
0001
0000
,
0100
0100
0100
0100
,
0100
0000
0000
0000
,
0001
0000
0100
0000
,
0010
0000
0000
0000
,
1000
0000
0100
0000
,
0010
0000
0000
0000
,
0001
0000
1000
0000
,
0010
0000
1000
0000
,
0001
0000
0000
0000
,
1000
0000
0100
0000
,
0010
0000
0001
0000
,
0100
0000
0000
0000
,
0010
0000
1000
0000
,
0001
0000
0000
0000
,
1000
0000
0100
0000
,
0001
0000
0000
0000
,
0100
0000
0010
0000
,
0001
0000
0000
0000
,
0100
0000
0000
0000
,
0010
0000
0000
0000
,
1000
0000
0000
0000
,
0001
0000
0010
0000
,
0100
0000
0000
0000
,
1000
0000
0001
0000
,
0100
0000
0000
0000
,
0000
0000
0000
0000
,
0010
0000
0000
0000
,
0010
0000
1000
0000
,
0001
0000
0000
0000
,
0001
0000
0000
0000
,
1000
0000
0000
0000
,
1000
0000
0100
0000
,
0010
0000
0000
0000
,
0010
0000
0000
0000
,
1000
0000
0100
0000
,
0001
0000
0100
0000
,
1000
0000
0100
0000
,
0001
0000
0100
0000
,
1000
0000
0001
0000
,
1000
0000
0001
0000
,
0100
0100
0100
0100
,
0000
0000
0000
0000
,
0010
0010
0010
0000
,
1000
0000
0001
0000
,
0010
0010
0010
0000
,
0100
0000
0000
0000
,
1000
1000
1000
0000
,
0001
0000
0100
0000
,
0001
0001
0001
0000
,
1000
1000
1000
0000
,
0001
0001
0001
0000
,
1000
0000
0010
0000
,
1000
1000
1000
0000
,
0001
0001
0001
0000
,
0100
0100
0100
0000
,
0010
0000
0100
0000
,
0010
0010
0010
0000
,
0100
0100
0100
0000
,
0010
0000
0010
0010
,
1000
0000
1000
1000
,
0001
0000
0001
0001
,
0100
0000
0100
0100
,
0001
0000
0001
0001
,
0010
0000
0010
0010
,
0100
0000
0100
0100
,
1000
0000
0000
0000
,
1001
0000
0000
0000
,
1000
0000
0001
0000
,
0100
0100
0100
0000
,
0010
0010
0010
0000
,
1001
0000
0000
0000
,
0001
0000
1000
0000
,
0100
0100
0100
0000
,
0010
0010
0010
0010
,
0010
0001
0001
0000
,
0100
0000
0010
0000
,
1000
1000
1000
0000
,
0001
0001
0001
0000
,
1000
0010
0010
0000
,
0100
0000
0001
0000
,
0010
0100
0100
0000
,
0001
0000
0000
1001
0000
0000
0000
0000
;

//--------------- dance-single - forcednature ----------------
#NOTES:
     dance-single:
     forcednature:
     Easy:
     5:
     0,0,0,0,0:
0000
0000
0000
0000
,
0000
0000
0000
0000
,
0000
0000
0000
0000
,
0000
0000
0000
0000
,
1000
1000
0001
0001
,
1000
1000
0001
0001
,
0010
0100
0010
0100
,
0020
0000
0030
1001
,
0001
0100
1000
0100
,
0001
0100
0110
1001
,
1000
0100
0001
0100
,
0010
0010
0110
1001
,
1000
0010
0100
0001
,
0010
0100
0110
1001
,
0100
1001
0010
1001
,
0100
0100
0020
0030
,
1000
0001
0100
0010
,
1000
0001
1001
0110
,
0001
0010
0100
1000
,
0010
0100
0110
1001
,
1000
0010
0100
0100
,
0001
0010
0110
1001
,
0100
1000
0100
0001
,
0220
0000
0000
0330
,
1000
0000
0001
0000
,
0100
0000
0010
0000
,
1000
0000
0100
0000
,
0010
0001
1000
0010
,
0100
0000
0001
0000
,
1000
0000
0100
0010
,
0001
0000
0100
0000
,
0000
0000
0000
0000
,
0010
0010
0010
0000
,
1000
0001
1000
0100
,
0010
0010
0010
0000
,
0100
0100
0100
0000
,
1000
1000
1000
0000
,
0001
0100
0010
1000
,
0001
0001
0001
0000
,
0010
0010
0010
0000
,
1000
0100
1000
0001
,
1000
0100
1001
0110
,
0001
0100
0001
1000
,
0001
0100
1001
0110
,
1000
0100
0001
0100
,
0010
0100
1001
0110
,
1000
0001
1000
0001
,
0200
0000
0300
1001
,
1000
0100
1000
0010
,
0100
0001
0010
1000
,
0010
0100
1000
0010
,
0100
1000
0100
0001
,
1000
0100
0001
0100
,
0010
0001
1000
0010
,
0001
1000
0100
0001
,
0100
0010
0001
1000
,
0001
0100
1000
0010
,
1000
0100
0001
1000
,
0100
0001
0010
0001
,
0100
1000
0010
0100
,
0001
0100
1000
0010
,
1000
0100
0001
1000
,
0100
0001
0010
0001
,
0100
1000
0001
0000
,
1000
1000
1000
0000
0010
0000
0010
0000
,
0001
0001
0001
0000
0010
0000
0010
0000
,
0100
0100
0100
0000
0010
0000
0010
0000
,
0100
0100
0100
0000
0010
0000
0010
0000
,
1000
1000
1000
0000
0001
0000
0001
0000
,
0001
0001
0001
0000
1000
0000
1000
0000
,
0001
0001
0001
0000
1000
1000
1000
0000
,
0000
0000
0000
0000
,
2000
0000
0000
3000
,
0200
0300
0020
0030
,
0001
0000
0000
0001
0000
0000
0002
0000
0000
0000
0003
0000
0000
0000
0000
0000
,
1000
0000
0000
1000
0000
0000
2000
0000
0000
0000
3000
0000
0000
0000
0000
0000
,
0020
0000
0000
0030
,
0200
0300
0002
0003
,
1000
0000
0000
1000
0000
0000
2000
0000
0000
0000
3000
0000
0000
0000
0000
0000
,
0001
0001
0001
0000
0000
0000
1001
0000
,
1000
0010
1000
0100
,
0001
0100
0010
0001
,
1000
0010
0001
1000
,
0100
0001
1000
0100
,
0010
1000
0001
0100
,
0010
0001
1000
0010
,
0100
1000
0001
0010
,
0100
0000
0000
0100
0000
0000
0100
0000
0000
0000
0000
0000
0000
0000
0000
0000
;

//--------------- dance-single - forcednature ----------------
#NOTES:
     dance-single:
     forcednature:
     Medium:
     7:
     0,0,0,0,0:
0000
0000
0000
0000
,
0000
0000
0000
0000
,
0000
0000
0000
0000
,
0000
0000
0000
0000
,
1000
0000
0000
0001
0000
0000
1000
0000
0010
0000
0000
0100
0000
0000
0010
0000
,
1000
0000
0000
0001
0000
0000
1000
0000
0100
0000
0000
0010
0000
0000
0100
0000
,
1000
0001
0010
0100
,
0010
0010
0010
0000
1001
0000
0110
0000
,
0000
0100
0000
0001
0000
0010
0000
0100
,
0000
1000
0000
0001
1001
0000
0110
0000
,
0000
1000
0000
0010
0000
0100
0000
0001
,
1000
0001
1000
0001
0100
0000
1001
0000
,
0000
1000
0000
0010
0000
1000
0000
0100
,
0000
0010
0000
0001
1001
0000
0110
0000
,
0101
1000
1100
0001
,
0100
0000
0000
0010
0000
0000
0100
0000
0001
0000
1000
0000
0020
0000
0030
0000
,
0000
1000
0000
0100
0000
0001
0000
0100
,
0000
0010
0000
0001
1001
0000
0110
0000
,
0000
0001
0000
0100
0000
1000
0000
0100
,
0010
0000
0000
1000
0000
0000
0001
0000
0100
0000
0000
0000
1001
0000
0000
0000
,
0000
1000
0000
0100
0000
0001
0100
1000
,
0000
0001
0000
0100
0000
1000
0100
0001
,
1000
0100
0001
0000
0001
0100
1000
0000
,
0100
0100
1001
0110
,
0002
0000
0203
0000
,
0320
0000
2030
0000
,
3200
0000
0302
0000
,
0203
0320
0032
2003
,
3020
0000
0230
0000
,
2300
0000
3200
0302
,
2003
0000
3200
0000
,
0300
0000
0000
0000
,
0010
0000
0000
0001
0000
0000
0020
0000
0000
0000
0000
0000
0000
0000
0030
0000
,
0100
0000
0000
1000
0000
0000
0001
0000
0100
0000
0000
0001
0000
0000
1000
0000
,
0100
0000
0000
1000
0000
0000
0002
0000
0000
0000
0000
0000
0000
0000
0003
0000
,
1001
0000
0000
1001
0000
0000
2001
0000
0000
0000
0000
0000
0000
0000
3000
0000
,
1000
0000
0000
0010
0000
0000
0200
0000
0000
0000
0000
0000
0000
0000
0300
0000
,
0001
0000
0000
0010
0000
0000
0100
0000
1000
0000
0000
0100
0000
0000
0010
0000
,
0011
0000
0000
1010
0000
0000
0021
0000
0000
0000
0000
0000
0000
0000
0030
0000
,
1100
0000
0000
0101
0000
0000
1200
0000
0000
0000
0000
0000
0000
0000
0300
0000
,
1000
0001
0000
0100
0000
0010
0000
1000
,
0000
0001
0000
0100
0110
0000
1001
0000
,
0001
0010
0000
0100
0000
1000
0000
0001
,
0000
0010
0000
0100
1001
0000
0110
0000
,
1000
0010
1000
0000
0001
0100
0001
0000
,
1000
0100
1000
0000
0001
0010
0001
0000
,
1000
0001
0100
0010
,
2002
0000
0000
3003
,
1000
0100
0010
0100
1000
0000
0001
0000
,
1000
0010
0100
0000
0001
0100
0010
0000
,
1000
0010
0100
0000
0001
0000
1000
0000
,
0010
0000
0000
0010
0000
0000
0010
0000
0000
0000
0000
0000
0000
0000
0000
0000
,
0100
0001
0010
0000
0100
0000
1000
0000
,
0001
1000
0100
0000
1000
0001
0100
0000
,
0001
0000
0000
1000
0000
0000
0001
0000
0000
0000
0100
0000
0000
0000
0100
0000
,
0010
0000
0000
1000
0000
0000
0001
0000
0000
0000
0100
0000
0100
0000
0000
0000
,
0010
1000
0100
0000
0001
0000
0100
0000
,
1000
0010
0100
0000
0001
0010
0100
0000
,
1000
0010
0001
0000
0010
0000
1000
0000
,
0100
0010
0001
0000
0100
0010
1000
0000
,
0001
0010
1000
0000
0010
0000
0100
0000
,
1000
0010
0001
0000
0010
1000
0100
0000
,
1001
0000
0000
1001
0000
0000
1001
0000
0000
0000
0000
0000
0000
0000
0000
0000
,
0100
0000
0000
0100
0000
0000
0100
0000
0000
0000
0000
0000
0000
0000
0000
0000
,
1000
0000
0100
0000
0010
0000
0000
0000
0001
0000
0000
1000
0000
0000
0001
0000
,
0100
0000
0001
0000
1000
0000
0000
0000
0010
0000
0000
0010
0000
0000
0010
0000
,
1000
0000
0100
0000
0001
0000
0100
0000
0010
0000
0000
0010
0000
0000
0010
0000
,
0001
0000
1000
0000
0001
0000
0000
0000
0100
0000
0000
0100
0000
0000
0100
0000
,
0010
0000
1000
0000
0001
0000
0000
0000
0100
0000
0000
0100
0000
0000
0100
0000
,
0001
0000
0010
0000
1000
0000
0000
0000
0010
0000
0000
0010
0000
0000
0010
0000
,
0001
0010
0001
0000
1000
0100
1000
0000
,
2002
0000
0000
3003
,
1000
0000
0000
0100
0000
0000
1000
0000
0000
0000
0000
0000
0000
0000
0000
0000
,
0001
0000
0000
0100
0000
0000
0001
0000
1000
0000
0000
0010
0000
0000
1000
0000
,
1001
0000
0000
1001
0000
0000
1001
0000
0000
0000
0000
0000
0000
0000
0000
0000
,
0110
0000
0000
0110
0000
0000
0110
0000
0000
0000
0000
0000
0000
0000
0000
0000
,
0001
0000
0000
0100
0000
0000
0010
0000
0000
0000
0000
0000
0000
0000
0000
0000
,
1000
0000
0000
0100
0000
0000
0010
0000
0001
0000
0000
1000
0000
0000
0010
0000
,
1001
0000
0000
1001
0000
0000
0100
0000
0000
0000
1001
0000
0000
0000
0010
0000
,
0010
0010
0100
0100
0010
0000
1001
0000
,
1000
0010
0001
0000
0010
0000
1000
0000
,
0100
0010
0001
0000
0100
0010
1000
0000
,
0001
0010
1000
0000
0010
0000
0100
0000
,
0110
0000
0000
0110
0000
0000
0110
0000
0000
0000
0000
0000
0000
0000
0000
0000
,
0001
0100
1000
0000
0100
0000
0010
0000
,
1000
0100
0001
0000
0100
0010
0001
0000
,
1000
0010
0001
0000
0010
1000
0100
0000
,
1001
0000
0000
0110
0000
0000
1001
0000
0000
0000
0000
0000
0000
0000
0000
0000
;

//--------------- dance-single - forcednature ----------------
#NOTES:
     dance-single:
     forcednature:
     Hard:
     9:
     0,0,0,0,0:
0000
0000
0000
0000
,
0000
0000
0000
0000
,
0000
0000
0000
0000
,
0000
0000
0000
0000
,
1100
0000
0000
1000
0000
0000
0001
0000
0101
0000
0000
0001
0000
0000
1000
0000
,
1010
0000
0000
1000
0000
0000
0001
0000
0011
0000
0000
0001
0000
0000
1000
0000
,
1010
0110
0101
1001
,
0001
0010
1000
0010
0100
1000
1001
0000
,
0001
0100
1000
0100
0010
1000
0100
0010
,
1000
0010
0001
1000
0010
0000
1010
0000
,
1000
0100
0001
0100
0010
1000
0010
0001
,
0100
1000
0100
0010
0100
0000
1001
0000
,
1000
0010
0100
1000
0100
0001
0010
1000
,
0010
0100
1000
0001
0100
0000
0110
0000
,
1100
1010
0101
0011
,
1000
0000
0000
0100
0000
0000
1000
0000
0010
0000
0100
0000
2000
0000
3000
0000
,
0100
0001
0010
1000
0001
0100
1000
0010
,
0100
0001
1000
0100
0001
0000
0110
0000
,
1000
0100
1000
0010
0001
0010
0100
0010
,
1000
0000
0000
0100
0000
0000
0001
0000
0100
0000
0000
0000
1001
0000
0000
0000
,
0001
0000
0100
0000
0010
0000
1000
0000
0100
0000
0000
0001
0000
0000
0100
0000
,
1000
0000
0010
0000
0100
0000
1000
0000
0100
0000
0000
0001
0000
0000
1000
0000
,
0100
0000
0000
0010
0000
0000
1000
0000
0010
0000
0000
0001
0000
0000
0100
0000
,
1000
0100
0001
0100
0010
0100
0010
0000
,
2002
0003
0000
0000
0200
3000
0000
0000
,
0020
0300
0000
0000
2000
0030
0000
0000
,
0002
3000
0000
0000
0203
0000
0000
0310
,
0001
1000
0010
0100
,
2000
0000
0000
0000
0002
3000
0000
0000
,
0013
0000
0000
1000
0100
0000
0010
0000
,
2000
0000
3020
0000
,
0030
0000
0000
0000
,
1001
0000
0000
1000
0000
0000
0010
0000
0000
0000
0000
0000
0000
0000
0100
0000
,
0001
0000
0000
1000
0000
0000
0100
0000
0010
0000
0000
1000
0000
0000
0010
0000
,
0001
0000
0000
0100
0000
0000
1000
0000
0000
0000
0000
0000
0000
0000
0100
0000
,
0101
0000
0000
1100
0000
0000
1001
0000
0000
0000
0000
0000
0000
0000
0000
0000
,
1100
0000
0000
1000
0000
0000
0001
0000
0000
0000
0000
0000
0000
0000
0010
0000
,
1000
0000
0000
0001
0000
0000
0100
0000
1000
0000
0000
0010
0000
0000
0100
0000
,
0101
0000
0000
1100
0000
0000
1001
0000
0000
0000
0000
0000
0000
0000
0000
0000
,
1010
0000
0000
0011
0000
0000
1001
0000
0000
0000
0000
0000
0000
0000
0000
0000
,
1000
0000
0000
0100
0000
0000
0010
0000
1000
0000
0000
0010
0000
0000
0001
0000
,
0100
0000
0000
1000
0000
0000
0100
0000
0110
0000
0000
0000
1001
0000
0000
0000
,
0001
0000
0000
0100
0000
0000
1000
0000
0100
0000
0000
0010
0000
0000
1000
0000
,
0100
0000
0000
0001
0000
0000
0100
0000
0010
0000
0000
0000
1001
0000
0000
0000
,
1000
0000
0000
0100
0000
0000
0001
0000
1000
0000
0000
0010
0000
0000
0001
0000
,
1000
0000
0000
0010
0000
0000
0001
0000
1000
0000
0000
0100
0000
0000
0001
0000
,
1000
0100
0010
0001
0100
1000
0100
0001
,
0100
0010
0100
0001
0020
0100
0130
0000
,
1000
0000
0000
0010
0000
0000
0100
0000
0001
0000
0000
0000
1000
0000
0100
0000
,
0010
0000
0000
1000
0000
0000
0010
0000
0001
0000
0000
1000
0000
0000
0010
0000
,
0100
0000
0000
1000
0000
0000
0100
0000
0001
0000
0000
0000
1000
0000
0100
0000
,
0110
0000
0000
0011
0000
0000
2200
0000
0000
0000
0000
0000
0000
0000
3300
0000
,
1001
0000
0000
1000
0000
0000
0010
0000
0100
0000
0000
0000
1000
0000
0100
0000
,
0001
0000
0000
1000
0000
0000
0100
0000
0010
0000
0000
0001
0000
0000
1000
0000
,
1010
0000
0000
0110
0000
0000
1001
0000
0000
0000
0100
0000
0000
0000
0010
0000
,
0011
0000
0000
0110
0000
0000
1001
0000
0000
0000
1000
0000
0001
0000
1000
0000
,
0001
0000
0000
0100
0000
0000
0001
0000
1000
0000
0000
0000
0100
0000
0010
0000
,
0001
0000
0000
1000
0000
0000
0010
0000
0100
0000
0000
0001
0000
0000
1000
0000
,
0010
0000
0000
0001
0000
0000
0010
0000
1000
0000
0000
0000
0100
0000
0010
0000
,
1000
0000
0000
0010
0000
0000
0001
0000
1000
0000
0000
0000
0010
0000
0100
0000
,
1000
0000
0000
0100
0000
0000
0001
0000
1000
0000
0000
0000
0100
0000
0010
0000
,
0001
0000
0000
0100
0000
0000
0010
0000
1000
0000
0000
0001
0000
0000
0010
0000
,
1010
0000
0000
0011
0000
0000
2002
0000
0000
0000
0000
0000
0000
0000
3000
0000
,
0200
0000
0300
2000
0000
3000
0020
0000
0000
0000
0000
0000
0033
0000
0000
0000
,
1000
0000
0010
0000
0100
0000
0000
0000
0101
0000
0000
1100
0000
0000
1001
0000
,
1000
0000
0010
0000
0100
0000
0000
0000
0011
0000
0000
0110
0000
0000
1100
0000
,
1000
0000
0001
0000
0100
0000
0010
0000
1010
0000
0000
1001
0000
0000
0110
0000
,
0000
0000
0001
0000
0010
0000
0000
0000
0110
0000
0000
1100
0000
0000
1001
0000
,
0000
0000
1000
0000
0010
0000
0000
0000
0110
0000
0000
1001
0000
0000
1100
0000
,
0000
0000
0010
0000
0001
0000
0000
0000
0101
0000
0000
0011
0000
0000
1001
0000
,
0001
0100
1000
0100
0010
1000
0100
0010
,
0220
0000
0000
0000
0000
0000
0000
0330
,
1000
0000
0000
0001
0000
0000
1000
0000
0000
0000
0000
0000
0000
0000
0010
0000
,
0100
0000
0000
0001
0000
0000
0010
0000
1000
0000
0000
0010
0000
0000
0100
0000
,
1100
0000
0000
1001
0000
0000
0202
0000
0000
0000
0000
0000
0303
0000
0001
0000
,
0011
0000
0000
1001
0000
0000
2020
0000
0000
0000
0000
0000
0000
0000
3030
0000
,
1001
0000
0000
0001
0000
0000
0100
0000
0000
0000
0000
0000
0000
0000
0010
0000
,
1000
0000
0000
0001
0000
0000
0010
0000
1000
0000
0000
0010
0000
0000
0100
0000
,
1100
0000
0000
1001
0000
0000
0101
0000
0000
0000
0110
0000
0000
0000
1001
0000
,
1000
0010
0001
0010
0200
0010
0310
0000
,
1000
0000
0000
0001
0000
0000
0100
0000
0010
0000
0000
0000
0001
0000
0010
0000
,
1000
0000
0000
0100
0000
0000
0010
0000
1000
0000
0000
0010
0000
0000
0001
0000
,
1000
0000
0000
0010
0000
0000
0100
0000
1000
0000
0000
0000
0100
0000
0001
0000
,
1100
0000
0000
0110
0000
0000
2002
0000
0000
0000
0000
0000
0000
0000
3003
0000
,
0101
0000
0000
0001
0000
0000
0010
0000
1000
0000
0000
0000
0010
0000
0001
0000
,
1000
0000
0000
0010
0000
0000
0100
0000
1000
0000
0000
0100
0000
0000
0001
0000
,
1001
0000
0000
1100
0000
0000
1001
0000
0000
0000
0110
0000
0000
0000
1001
0000
,
0011
0000
0000
0110
0000
0000
1100
0000
0000
0000
0000
0000
0000
0000
0000
0000
;

//--------------- dance-single - forcednature ----------------
#NOTES:
     dance-single:
     forcednature:
     Challenge:
     11:
     0,0,0,0,0:
0000
0000
0000
0000
,
0000
0000
0000
0000
,
0000
0000
0000
0000
,
0000
0000
0000
0000
,
1000
0100
0000
1000
0001
0000
0100
0000
0001
0010
0000
0100
1000
0000
0001
0000
,
0100
0001
0000
0100
0010
0000
0001
0000
0010
0100
0000
0001
0010
0000
0100
0000
,
1000
0100
0010
0001
1000
0001
0100
0001
1000
0010
1000
0100
0010
0100
1000
0001
,
0010
0000
0010
0000
0100
0000
1000
0001
2000
3000
0002
0003
1001
0000
0000
0000
,
0001
0100
0000
0001
0010
0000
0100
1000
0000
0001
0100
0000
1000
0000
0100
0000
,
0010
1000
0000
0100
1000
0000
0001
0010
0000
1000
0010
0000
0100
0000
1000
0000
,
0001
0100
0000
0010
1000
0000
0100
0001
0000
0100
0010
0000
0001
0000
1000
0000
,
1001
0000
0001
0000
0100
0000
1010
0000
1000
0100
0010
0001
0010
0100
1000
0100
,
1000
0010
0000
0100
0001
0000
0100
1000
0000
0100
0010
0000
1000
0000
0100
0000
,
0010
1000
0000
0010
0001
0000
1000
0010
0000
0100
1000
0000
0100
0001
0100
0001
,
0100
1001
0110
1001
,
1010
0000
0000
0110
0000
0000
0101
0000
0001
0000
0010
0000
0200
0300
1000
0010
,
1000
0001
0000
0100
0010
0000
1000
0100
0000
0010
0100
0000
1000
0000
0001
0000
,
0100
1000
0000
0100
0001
0000
1000
0010
0000
0001
0010
0000
1000
0000
0001
0000
,
0100
0001
0000
0010
1000
0000
0010
0100
0000
1000
0001
0000
0100
0000
1000
0000
,
1100
0000
0000
0101
0000
0000
1001
0000
0001
0100
0010
1000
0010
0100
0001
1000
,
0001
0010
0000
0100
0010
0000
0001
1000
0010
0100
0001
1000
0010
0100
0001
1000
,
0010
1000
0000
0001
0100
0000
0001
1000
0001
0010
0100
1000
0001
0010
0100
1000
,
0001
1000
0010
0100
0001
1000
0010
0100
0001
1000
0100
0010
0001
1000
0100
0010
,
0001
0000
0001
0000
0100
0000
0010
1000
0010
0000
0100
0000
0001
0010
0001
0000
,
1002
0000
0000
0000
0200
0003
0000
0000
,
2000
0300
0000
0000
0200
3000
0000
0000
,
0020
0000
0000
0000
0000
0000
0000
0000
0300
0000
0000
0000
0000
0000
0000
0000
0000
0000
0000
0000
0000
0000
0000
0000
0000
0000
0000
0000
0000
0000
0000
0000
2000
0000
0000
0000
0000
0000
0000
0000
0030
0000
0000
0000
0000
0000
0000
0000
0000
0000
0000
0000
0000
0000
0000
0000
3020
0000
0000
0030
0200
0000
0000
0300
,
0002
0000
0000
0000
0020
0003
0000
0000
0200
0030
0000
0000
2000
0300
0000
0000
,
0002
3000
0000
0000
0000
0000
0000
0000
2000
0000
0003
0000
0000
0000
0000
0000
,
0020
0000
3000
0000
0000
0000
0000
0000
0200
0030
0000
0000
0002
0300
0000
0000
,
0020
0003
0000
0000
0000
0000
0000
0000
0200
0000
0030
0000
0000
0000
0000
0000
,
0300
0000
0000
0000
,
1001
0000
0000
1000
0000
0000
0020
0000
0000
0000
0000
0000
0000
0030
0100
0001
,
0100
0000
0000
0010
0000
0000
1000
0000
0100
0000
0000
0001
0000
0000
0100
0000
,
0010
0000
0000
0001
0000
0000
2000
0000
0000
0000
0000
0000
0000
3000
0010
0100
,
0010
0000
0000
1001
0000
0000
0220
0000
0000
0000
0000
0000
0000
0330
0000
0000
,
1001
0000
0000
0001
0000
0000
0200
0000
0000
0000
0000
0000
0000
0300
0010
1000
,
0010
0000
0000
0100
0000
0000
1000
0000
0001
0000
0000
0010
0000
0000
1000
0000
,
1100
0000
0000
0110
0000
0000
0022
0000
0000
0000
0000
0000
0000
0000
0000
0033
,
0101
0000
0000
0110
0000
0000
2020
0000
0000
0000
0000
0000
0000
0000
0000
3030
,
1001
0000
0000
0001
0000
0000
0100
0000
1000
0000
0000
0100
0000
0000
0010
0000
,
0101
0000
0000
0001
0000
0000
1000
0000
0100
0000
0000
0000
0010
0000
0000
0000
,
1100
0000
0000
0001
0000
0000
1000
0000
1010
0000
0000
1000
0000
0000
0001
0000
,
0110
0000
0000
1000
0000
0000
0010
0000
0100
0000
0001
0000
0010
0000
0100
0000
,
1000
0000
0000
0010
0000
0000
0100
0000
1000
0000
0000
0001
0000
0000
0010
0000
,
0100
0000
0000
0001
0000
0000
1000
0000
0100
0000
0010
0001
0010
0000
0100
1000
,
0001
1000
0100
0010
0001
1000
0010
0100
0001
1000
0001
0100
0010
1000
0100
0010
,
0001
0000
1000
0000
0010
0000
0100
0001
2000
3000
0002
0003
1001
0000
0000
0000
,
1000
0000
0000
0001
0100
0000
0010
0000
1000
0000
0100
0000
0001
0000
0100
0010
,
0001
0000
0000
1000
0010
0000
0100
0000
1000
0000
0000
0100
0001
0000
1000
0000
,
0100
0000
0000
0010
1000
0000
0010
0000
0001
0000
1000
0000
0010
0000
0100
0001
,
0100
0000
0000
0101
0000
0000
2020
0000
0000
0000
0000
0000
0000
0000
3030
0000
,
1001
0000
0000
0001
0010
0000
1000
0000
0010
0000
0100
0000
1000
0000
0001
0100
,
0010
0000
0000
0001
0010
0000
1000
0000
0100
0000
0000
0001
0100
0000
0010
0000
,
0110
0000
0000
1001
0000
0000
0110
0000
0000
0000
1100
0000
0000
0000
0011
0000
,
0101
0000
0000
1001
0000
0000
1010
0000
0000
0000
0001
1000
0001
0010
0100
1000
,
0001
0000
0000
1000
0010
0000
0100
0000
1000
0000
0100
0000
0001
0000
1000
0100
,
0010
0000
0000
1000
0010
0000
0001
0000
1000
0000
0000
0010
0100
0000
0001
0000
,
0100
0000
0000
1000
0100
0000
0001
0000
1000
0000
0010
0000
1000
0000
0100
0010
,
0001
0000
0000
1000
0010
0000
0100
0000
0001
0000
0010
0000
1000
0000
0010
0000
,
0100
0000
0000
1000
0001
0000
0100
0000
1000
0000
0100
0000
0010
0000
1000
0001
,
0100
0000
0000
0010
0001
0000
0010
0000
1000
0000
0000
0100
0001
0000
0100
0000
,
1001
0000
0000
0110
0000
0000
2002
0000
0000
0000
0000
0000
0000
0000
3003
0000
,
0002
0000
0000
0000
0000
0000
0200
0003
0000
0000
0000
0000
2000
0300
0000
0000
0000
0000
0000
0000
3000
0000
0000
0000
0200
0000
0300
0000
0010
0000
0100
0000
,
0010
0000
1000
0000
0100
0000
0010
0000
0001
0000
1000
0001
0000
0100
0001
0000
,
1000
0000
0010
0000
1000
0000
0100
0000
0010
0000
0001
1000
0000
0010
0100
0000
,
1000
0000
0100
0000
0001
0000
1000
0000
0100
0000
0010
1000
0000
0010
0001
0000
,
1000
0000
0010
0000
0100
0000
1000
0000
0100
0000
0001
0010
0000
1000
0010
0000
,
0001
0010
0001
0010
0100
0000
1000
0000
0010
0000
0100
0001
0000
1000
0100
0000
,
1000
0010
1000
0010
0100
0000
0001
0000
1000
0000
0100
0010
0000
0001
0010
0000
,
0001
1000
0100
0010
0100
1000
0001
1000
0010
0100
0001
0010
0100
1000
0010
0100
,
0002
0000
0000
0000
0000
0000
0000
0000
0000
0000
0000
0000
0000
0000
0000
0003
,
1001
0000
0000
1000
0000
0000
0020
0000
0000
0000
0000
0000
0000
0030
0100
1000
,
0100
0000
0000
0001
0000
0000
1000
0000
0100
0000
0000
0010
0000
0000
1000
0000
,
1010
0000
0000
0011
0000
0000
2002
0000
0000
0000
0000
0000
3003
0000
0001
0100
,
0010
0000
0000
1010
0000
0000
2002
0000
0000
0000
0000
0000
0000
0000
3003
0000
,
0110
0000
0000
1000
0000
0000
0002
0000
0000
0000
0000
0000
0000
0003
0100
0001
,
1000
0000
0000
0100
0000
0000
0010
0000
1000
0000
0000
0010
0000
0000
0001
0000
,
0101
0000
0000
1010
0000
0000
1001
0000
0000
0000
0110
0000
0000
0000
1001
0000
,
1000
0000
0010
0000
0100
0000
0001
0010
0002
0003
2000
3000
1001
0000
0000
0000
,
0001
0000
0000
1000
0010
0000
0100
0000
1000
0000
0100
0000
0001
0000
1000
0100
,
0010
0000
0000
0001
0010
0000
0001
0000
0100
0000
0000
0010
0001
0000
0010
0000
,
0100
0000
0000
0001
1000
0000
0010
0000
0100
0000
0001
0000
0100
0000
0010
1000
,
0010
0000
0000
0101
0000
0000
0220
0000
0000
0000
0000
0000
0000
0000
0330
0000
,
1001
0000
0000
0001
0010
0000
0100
0000
0001
0000
0100
0000
1000
0000
0010
0100
,
1000
0000
0000
0100
0001
0000
1000
0000
0100
0000
0000
0001
0100
0000
0010
0000
,
0011
0000
0000
0110
0000
0000
1100
0000
0000
0000
1010
0000
0000
0000
0101
0000
,
1001
0000
0000
0110
0000
0000
1001
0000
0000
0000
0000
0000
0000
0000
0000
0000
;

//--------------- dance-double - forcednature ----------------
#NOTES:
     dance-double:
     forcednature:
     Easy:
     5:
     0,0,0,0,0:
00000000
00000000
00000000
00000000
,
00000000
00000000
00000000
00000000
,
00000000
00000000
00000000
00000000
,
00000000
00000000
00000000
00000000
,
00010000
00001000
00000100
00001000
,
00010000
00001000
00000100
00001000
,
00010000
00010000
00001000
00001000
,
00100000
00000000
00000000
01100000
,
10000000
00010000
01000000
00001000
,
00010000
00000100
00000110
00001001
,
00000001
00000100
00001000
00010000
,
00010000
01000000
10010000
01100000
,
10000000
00100000
00010000
00010000
,
00001000
00000100
00000110
00001001
,
00000010
00001001
00000100
00001001
,
00001000
00010000
00001000
00010000
,
01000000
10000000
01000000
00010000
,
01000000
00100000
01100000
10010000
,
10000000
00100000
00010000
00001000
,
00000010
00000001
00000110
00001001
,
00000001
00001000
00000110
00001000
,
00010000
10000000
01100000
10000000
,
00100000
00010000
00001000
00000010
,
00001001
00000100
00000100
00000010
,
00001002
00000003
00002000
00003000
,
00020000
00030000
02000000
03000000
,
20000000
30000000
00200000
00300000
,
00010000
00001000
00000100
00000001
,
00002000
00003000
00000200
00000300
,
00020000
00030000
01000000
10000000
,
00200000
00300000
00020000
00030000
,
00000000
00000000
00000000
00000000
,
00001000
00001000
00002000
00003000
,
00000010
00010000
00001000
00100000
,
01000000
01000000
02000000
03000000
,
00100000
00100000
00200000
00300000
,
01000000
01000000
02000000
03000000
,
10000000
00010000
01000000
00001000
,
00000100
00000100
00000200
00000300
,
00000010
00000010
00000020
00000030
,
00001000
00000001
00000010
00001000
,
00010000
00100000
01100000
10010000
,
10000000
00100000
00010000
00001000
,
00000010
00000001
00000110
00001001
,
00000001
00000100
00001000
00010000
,
01000000
10000000
01100000
10010000
,
10000000
00010000
00001000
00000001
,
00000220
00000330
00000000
00001000
,
00000001
00000010
00001000
00010000
,
00010000
01000000
10000000
10000000
,
00100000
00010000
00001000
00001000
,
00000100
00000100
00000100
00000000
,
00000010
00000010
00000010
00001000
,
00000100
00000001
00000010
00000100
,
00010000
00010000
00010000
00000000
,
00001000
00001000
00001000
00000000
,
01100000
00010000
10000000
01000000
,
00010000
00001000
00000010
00000001
,
00001001
00001000
00010000
01000000
,
10000000
00100000
00010000
00001000
,
00011000
00000010
00000100
00001000
,
00010000
00100000
01000000
00010000
,
00011000
00010000
00000100
00000000
,
00010000
00001000
01000000
00000000
,
00100000
00100000
10000000
10000000
,
00100000
00100000
00010000
00010000
,
00001000
00001000
00000010
00000010
,
00000001
00000001
00000010
00000010
,
00001000
00000100
00000001
00000100
,
00001000
00010000
01000000
10000000
,
00100000
00001000
00001000
00010000
,
00000220
00000000
00000330
00000000
,
00000100
00000100
00000100
00000000
,
00001000
00010000
01000000
10000000
,
00010000
00010000
00010000
00000000
,
00001000
00001000
00001000
00000000
,
00000001
00000010
00001000
00000000
,
00010000
00100000
10000000
01000000
,
00010000
00010000
00010000
00000000
,
00001000
00001000
00001000
00000000
,
00010000
00000100
00001000
00000010
,
00000100
00001000
00000001
00000010
,
00000100
00000001
00001000
00000100
,
00000010
00001000
00010000
01000000
,
00100000
00010000
00001000
01000000
,
00100000
10000000
01000000
00010000
,
00100000
00001000
00000100
00000010
,
00000001
00000000
00000000
00000001
00000000
00000000
00000001
00000000
00000000
00000000
00000000
00000000
00000000
00000000
00000000
00000000
;

//--------------- dance-double - forcednature ----------------
#NOTES:
     dance-double:
     forcednature:
     Medium:
     7:
     0,0,0,0,0:
00000000
00000000
00000000
00000000
,
00000000
00000000
00000000
00000000
,
00000000
00000000
00000000
00000000
,
00000000
00000000
00000000
00000000
,
00010000
00000000
00000000
00010000
00000000
00000000
00010000
00000000
00001000
00000000
00000000
00001000
00000000
00000000
00001000
00000000
,
01000000
00000000
00000000
01000000
00000000
00000000
01000000
00000000
00100000
00000000
00000000
00100000
00000000
00000000
00100000
00000000
,
10000000
00010000
00001000
00000001
,
00000020
00000000
00000100
00000000
00000100
00000130
00000010
00000000
,
00000001
00000100
00000000
00000010
00000000
00010000
00000000
00001000
,
00000000
01000000
00000000
00010000
00110000
00000000
11000000
00000000
,
10000000
00100000
00000000
01000000
00000000
00001000
00000000
00010000
,
00000100
00001000
00000100
00000010
00000011
00000000
00001100
00000000
,
00000000
00000001
00000000
00000100
00000000
00000010
00000000
00010000
,
00000000
00001000
00000000
01000000
01010000
00000000
10100000
00000000
,
11000000
01010000
00001100
00000101
,
00010000
00000000
00000000
00001000
00000000
00000000
00010000
00000000
00001000
00000000
00100000
00000000
02000000
00000000
03000000
00000000
,
00000000
10000000
00000000
00100000
00000000
01000000
00000000
00001000
,
00000000
00010000
00000000
00000100
00001100
00000000
00000011
00000000
,
00000000
00000001
00000000
00000100
00000000
00001000
00000000
00010000
,
01000000
00000000
00000000
10000000
00000000
00000000
00100000
00000000
01100000
00000000
00000000
00000000
10010000
00000000
00000000
00000000
,
00000000
10000000
00000000
00100000
00000000
00010000
00001000
00010000
,
00000000
00001000
00000000
00000100
00000101
00000000
00000011
00000000
,
00001100
00001000
01010000
00010000
,
00011000
00000000
00010000
00000000
00001000
00010000
00001000
00000000
,
02000000
00000000
00000000
00000000
00020000
03000000
00000000
00000000
,
00200000
00030000
00000000
00000000
00002000
00300000
00000000
00000000
,
00000020
00003000
00000000
00000000
00000002
00000030
00000000
00000000
,
00000203
00002300
00023000
00230000
,
20000000
00300000
00000000
00000000
00020000
30000000
00000000
00000000
,
02000000
00030000
00000000
00000000
03002000
00000000
00003200
00000000
,
00000002
00000300
00000000
00000000
00002000
00000003
00000000
00000000
,
00003000
00000000
00000000
00000000
,
00010000
00000000
00000000
00001000
00000000
00000000
02000000
00000000
00000000
00000000
00000000
00000000
00000000
00000000
03000000
00000000
,
00100000
00000000
00000000
10000000
00000000
00000000
00010000
00000000
00100000
00000000
00000000
00001000
00000000
00000000
00000010
00000000
,
00000001
00000000
00000000
00001000
00000000
00000000
00000020
00000000
00000000
00000000
00000000
00000000
00000000
00000000
00000030
00000000
,
00000100
00000000
00000000
00001000
00000000
00000000
00022000
00000000
00000000
00000000
00000000
00000000
00000000
00000000
00033000
00000000
,
00010000
00000000
00000000
01000000
00000000
00000000
20000000
00000000
00000000
00000000
00000000
00000000
00000000
00000000
30000000
00000000
,
00100000
00000000
00000000
00010000
00000000
00000000
00001000
00000000
00000010
00000000
00000000
00000001
00000000
00000000
00000100
00000000
,
00000010
00000000
00000000
00010000
00000000
00000000
00020020
00000000
00000000
00000000
00000000
00000000
00030030
00000000
00000000
00000000
,
01000000
00000000
00000000
00001000
00000000
00000000
02002000
00000000
00000000
00000000
00000000
00000000
03003000
00000000
00000000
00000000
,
00010000
00001000
00000000
01000000
00010000
10000000
00000000
01000000
,
00100000
00010000
00000000
01000000
01001000
00000000
00010100
00000000
,
00001000
00000010
00000000
00000100
00000001
00000010
00000000
00000100
,
00010000
00001000
00000000
01000000
01001000
00000000
00010100
00000000
,
00010000
00000100
00010000
00000000
00001000
01000000
00001000
00000000
,
00010000
00000010
00010000
00000000
00001000
00100000
00001000
00000000
,
00011000
01010000
00011000
00001100
,
00010000
00010000
00020000
00000000
00001000
00031000
00010000
00000000
,
00000010
00000000
00000000
00001000
00000000
00000000
00000001
00000000
00000100
00000000
00000000
00000000
00000100
00000000
00000000
00000000
,
00000010
00000000
00000000
00010000
00000000
00000000
00001000
00000000
01000000
00000000
00000000
00010000
00000000
00000000
00100000
00000000
,
10000000
00000000
00000000
00100000
00000000
00000000
00010000
00000000
01000000
00000000
00000000
00000000
01000000
00000000
00000000
00000000
,
00001000
00000000
00000000
00010000
00000000
00000000
00020200
00000000
00000000
00000000
00000000
00000000
00030300
00000000
00000000
00000000
,
00000001
00000000
00000000
00000100
00000000
00000000
00001000
00000000
00010000
00000000
00000000
00000000
01000000
00000000
00000000
00000000
,
00010000
00000000
00000000
00001000
00000000
00000000
01000000
00000000
00100000
00000000
00000000
00010000
00000000
00000000
00100000
00000000
,
10000000
00000000
00000000
01000000
00000000
00000000
10010000
00000000
00000000
00000000
00010000
00000000
00000000
00000000
01000000
00000000
,
00001000
00000000
00000000
00010000
00000000
00000000
00001100
00000000
00000000
00000000
00001000
00000000
00000100
00000000
00000010
00000000
,
00000001
00000000
00000000
00000100
00000000
00000000
00000010
00000000
00010000
00000000
00000000
00000000
00001000
00000000
00000000
00000000
,
01000000
00000000
00000000
00010000
00000000
00000000
00100000
00000000
10000000
00000000
00000000
00010000
00000000
00000000
01000000
00000000
,
10000000
00000000
00000000
00100000
00000000
00000000
00010000
00000000
00001000
00000000
00000000
00000000
00000100
00000000
00000000
00000000
,
00000001
00000000
00000000
00000010
00000000
00000000
00000100
00000000
00001000
00000000
00000000
00000000
00000100
00000000
00010000
00000000
,
01000000
00000000
00000000
10000000
00000000
00000000
00100000
00000000
00010000
00000000
00000000
00000000
00001000
00000000
00000000
00000000
,
00000010
00000000
00000000
00000001
00000000
00000000
00000100
00000000
00001000
00000000
00000000
00010000
00000000
00000000
01000000
00000000
,
10000000
00000000
00000000
00010000
00000000
00000000
20020000
00000000
00000000
00000000
00000000
00000000
30000000
00000000
00000000
00000000
,
01000000
00000000
00000000
01000000
00000000
00000000
00200000
00000000
00000000
00000000
00000000
00000000
00330000
00000000
00000000
00000000
,
10000000
00000000
00010000
00000000
01000000
00000000
00000000
00000000
01001000
00000000
00000000
00001000
00000000
00000000
00011000
00000000
,
00000000
00000000
00010000
00000000
00000100
00000000
00000000
00000000
00001100
00000000
00000000
00000100
00000000
00000000
00000110
00000000
,
00000000
00000000
00000010
00000000
00000001
00000000
00000100
00000000
00001100
00000000
00000000
00001000
00000000
00000000
00011000
00000000
,
00000000
00000000
00100000
00000000
10000000
00000000
00000000
00000000
01100000
00000000
00000000
10010000
00000000
00000000
01100000
00000000
,
10000000
00000000
01000000
00000000
00010000
00000000
00000000
00000000
01000000
00000000
00000000
00100000
00000000
00000000
00001000
00000000
,
00010000
00000000
00000010
00000000
00000100
00000000
00000000
00000000
00001000
00000000
00000000
00000100
00000000
00000000
00000001
00000000
,
00001000
00000100
00010000
01000000
10000000
00100000
00010000
00001000
,
00022000
00000000
00000000
00000000
00000000
00000000
00000000
00033000
,
00011000
00000000
00000000
00010000
00000000
00000000
00000020
00000000
00000000
00000000
00000000
00000000
00000030
00000000
00000100
00000001
,
00000100
00000000
00000000
00000010
00000000
00000000
00010000
00000000
00001000
00000000
00000000
01000000
00000000
00000000
00010000
00000000
,
00110000
00000000
00000000
01100000
00000000
00000000
22000000
00000000
00000000
00000000
00000000
00000000
33000000
00000000
00000000
00000000
,
10010000
00000000
00000000
01001000
00000000
00000000
00020020
00000000
00000000
00000000
00000000
00000000
00030030
00000000
00000000
00000000
,
00001001
00000000
00000000
00000001
00000000
00000000
00000020
00000000
00000000
00000000
00000000
00000000
00000030
00000000
00000100
00010000
,
00000100
00000000
00000000
00010000
00000000
00000000
01000000
00000000
10000000
00000000
00000000
00100000
00000000
00000000
00010000
00000000
,
00011000
00000000
00000000
00010100
00000000
00000000
01001000
00000000
00000000
00000000
00011000
00000000
00000000
00000000
00000110
00000000
,
00000001
00000010
00000100
00001000
00000002
00001003
00000001
00000000
,
00010000
00000000
00000000
01000000
00000000
00000000
10000000
00000000
00100000
00000000
00000000
00000000
00010000
00000000
00000000
00000000
,
00001000
00000000
00000000
00000100
00000000
00000000
00000001
00000000
00000100
00000000
00000000
00001000
00000000
00000000
00010000
00000000
,
00100000
00000000
00000000
00010000
00000000
00000000
00001000
00000000
00010000
00000000
00000000
00000000
01000000
00000000
00000000
00000000
,
10000000
00000000
00000000
00010000
00000000
00000000
00022000
00000000
00000000
00000000
00000000
00000000
00033000
00000000
00000000
00000000
,
00000001
00000000
00000000
00000010
00000000
00000000
00001000
00000000
00000010
00000000
00000000
00000000
00000100
00000000
00000000
00000000
,
00010000
00000000
00000000
01000000
00000000
00000000
10000000
00000000
00010000
00000000
00000000
01000000
00000000
00000000
10000000
00000000
,
00010000
00000000
00000000
00100000
00000000
00000000
00110000
00000000
00000000
00000000
00011000
00000000
00000000
00000000
00001010
00000000
,
00001000
00000000
00000000
00010000
00000000
00000000
00011000
00000000
00000000
00000000
00000000
00000000
00000000
00000000
00000000
00000000
;

//--------------- dance-double - forcednature ----------------
#NOTES:
     dance-double:
     forcednature:
     Hard:
     9:
     0,0,0,0,0:
00000000
00000000
00000000
00000000
,
00000000
00000000
00000000
00000000
,
00000000
00000000
00000000
00000000
,
00000000
00000000
00000000
00000000
,
10000000
00000000
00000000
00010000
00000000
00000000
01000000
00000000
00001000
00000000
00000000
00000100
00000000
00000000
00000001
00000000
,
00001000
00000000
00000000
00000100
00000000
00000000
00010000
00000000
01000000
00000000
00000000
10000000
00000000
00000000
00010000
00000000
,
01000000
00001000
00000100
00000001
,
00000010
00001000
00010000
00100000
10000000
00010000
10000000
00000000
,
00010000
00100000
01000000
10000000
00100000
00010000
00001000
00010000
,
01000000
00010000
00001000
00000100
00000001
00000000
00001001
00000000
,
00000001
00000010
00001000
00010000
01000000
10000000
01000000
00010000
,
00000010
00001000
00000001
00000100
00001000
00000000
00001001
00000000
,
00000001
00000100
00001000
00010000
01000000
00010000
00001000
00000010
,
00000001
00000100
00001000
00100000
00010000
00000000
10010000
00000000
,
11000000
00011000
00000101
00011000
,
00010000
00000000
00000000
00001000
00000000
00000000
00010000
00000000
00001000
00000000
01000000
00000000
00200000
00000000
00300000
00000000
,
10000000
00010000
01000000
00001000
00000100
00000001
00001000
00000100
,
00010000
01000000
10000000
00010000
01000000
00000000
10010000
00000000
,
10000000
00010000
00100000
00001000
00000010
00000001
00001000
00000010
,
00010000
00100000
10000000
00010000
00100000
00000000
10010000
00000000
,
10000000
00000000
00100000
00000000
01000000
00000000
00001000
00000000
00010000
00000000
00000010
00000100
00000000
00000010
00000100
00000000
,
00000001
00000000
00000010
00000000
00000100
00000000
00001000
00000000
00010000
00000000
10000000
00010000
00000000
10000000
00010000
00000000
,
10000000
00000000
00000000
01000000
00000000
00000000
00010000
00000000
00001000
00000000
00000000
00000100
00000000
00000000
00000001
00000000
,
00001000
00000001
00001000
00000001
00000100
00000010
00000100
00000000
,
00002001
00000000
00000200
00003000
,
00020000
00000300
02000000
00030000
,
20000000
03000000
00200000
30000000
,
00320000
00032000
00003200
00000302
,
00002000
00000003
00200000
00003000
,
00020000
00300000
00030020
00002030
,
00000200
00003000
00020000
00000300
,
02000000
00030000
00000000
03000000
,
10000000
00000000
00000000
00010000
00000000
00000000
20000000
00000000
00000000
00000000
00000000
00000000
00000000
00000000
30010000
01000000
,
00010000
00000000
00000000
00100000
00000000
00000000
00001000
00000000
00000010
00000000
00000000
00000001
00000000
00000000
00001000
00000000
,
00000010
00000000
00000000
00010000
00000000
00000000
00002000
00000000
00000000
00000000
00000000
00000000
00000000
00000000
01003000
00010000
,
01000000
00000000
00000000
01010000
00000000
00000000
20200000
00000000
00000000
00000000
00000000
00000000
00000000
00000000
30300000
00000000
,
00110000
00000000
00000000
10000000
00000000
00000000
00020000
00000000
00000000
00000000
00000000
00000000
00000000
00000000
01030000
00001000
,
00010000
00000000
00000000
00000100
00000000
00000000
00001000
00000000
00000001
00000000
00000000
00000100
00000000
00000000
00001000
00000000
,
00000110
00000000
00000000
00001001
00000000
00000000
00000220
00000000
00000000
00000000
00000000
00000000
00000000
00000000
00000330
00000000
,
00010100
00000000
00000000
01001000
00000000
00000000
00022000
00000000
00000000
00000000
00000000
00000000
00000000
00000000
00033000
00000000
,
00010000
00000000
00000010
00001000
00000000
00000010
00001000
00000000
00000001
00000000
00000010
00000000
00000100
00000000
00001000
00000000
,
00000001
00000000
00000100
00000010
00000000
00000100
00000010
00000000
00011000
00000000
00000000
00000000
01001000
00000000
00000000
00000000
,
00100000
00000000
00010000
00100000
00000000
00010000
10000000
00000000
00100000
00000000
01000000
00010000
00000000
10000000
01000000
00000000
,
00100000
00000000
00010000
01000000
00000000
00001000
00010000
00000000
00010100
00000000
00000000
00000000
00001001
00000000
00000000
00000000
,
00001000
00000000
00000100
00010000
00000000
00001000
01000000
00000000
00010000
00000000
00100000
00010000
00000000
10000000
00100000
00000000
,
10000000
00000000
01000000
00100000
00000000
01000000
10000000
00000000
00010000
00000000
01000000
00001000
00000000
00010000
00000010
00000000
,
00000100
00000010
00010000
00001000
00100000
01000000
10000000
00010000
,
01000000
00010000
00000100
00000001
00001000
00000100
00001100
00000000
,
00010000
00000000
00000000
00001000
01000000
00000000
00010000
00000000
00100000
00000000
00010000
00000000
10000000
00000000
00100000
10000000
,
01000000
00000000
00000000
00100000
00010000
00000000
01000000
00000000
00001000
00000000
00000000
00010000
00000100
00000000
00000010
00000000
,
00000001
00000000
00000000
00000010
00000100
00000000
00001000
00000000
00000100
00000000
00010000
00000000
00001000
00000000
01000000
00010000
,
01000000
00000000
00000000
01010000
00000000
00000000
20200000
00000000
00000000
00000000
00000000
00000000
00000000
00000000
30300000
00000000
,
10010000
00000000
00000000
10000000
01000000
00000000
00100000
00000000
00010000
00000000
01000000
00000000
00001000
00000000
00010000
00000010
,
00001000
00000000
00000000
00000001
00000100
00000000
00000010
00000000
00001000
00000000
00000000
00000100
00010000
00000000
00001000
00000000
,
00110000
00000000
00000000
10010000
00000000
00000000
01010000
00000000
00000000
00000000
00110000
00000000
00000000
00000000
00001010
00000000
,
00001001
00000000
00000000
00000110
00000000
00000000
00001001
00000000
00000000
00000000
00000100
00000010
00000100
00000010
00000100
00000000
,
00000001
00000000
00000000
00001000
00000010
00000000
00010000
00000000
00001000
00000000
00100000
00000000
00010000
00000000
10000000
01000000
,
00100000
00000000
00000000
01000000
10000000
00000000
00010000
00000000
01000000
00000000
00000000
00001000
00010000
00000000
00000100
00000000
,
00001000
00000000
00000000
00000001
00000100
00000000
00001000
00000000
00000100
00000000
00000010
00000000
00001000
00000000
00000100
00010000
,
00001000
00000000
00000000
00100000
01000000
00000000
10000000
00000000
00100000
00000000
00010000
00000000
00001000
00000000
00000100
00000000
,
00000001
00000000
00000000
00001000
00000100
00000000
00010000
00000000
00001000
00000000
01000000
00000000
00010000
00000000
10000000
01000000
,
00100000
00000000
00000000
01000000
10000000
00000000
00010000
00000000
01000000
00000000
00000000
00001000
00010000
00000000
00000010
00000000
,
00001000
00000000
00000000
00000001
00000010
00000000
00000220
00000000
00000000
00000000
00000000
00000000
00000000
00000000
00000330
00000000
,
00000001
00000000
00000000
00000100
00000000
00000000
00002000
00000000
00000000
00000000
00000000
00000000
00103000
00000000
01000000
00100000
,
01000000
00000000
10010000
00000000
10010000
00000000
00000000
00000000
10000000
00000000
00000000
01000000
00000000
00000000
01010000
00000000
,
00000000
00000000
00001000
00000000
00001100
00000000
00000000
00000000
00000001
00000000
00000000
00000101
00000000
00000000
00001010
00000000
,
00000000
00000000
00000001
00000000
00000010
00000000
00000100
00000000
00001000
00000000
00000000
00000110
00000000
00000000
00001001
00000000
,
00000000
00000000
00010000
00000000
01100000
00000000
00000000
00000000
10010000
00000000
00000000
10100000
00000000
00000000
00110000
00000000
,
00000000
00000000
00001000
00000000
00000100
00000000
00000000
00000000
00000101
00000000
00000000
00001100
00000000
00000000
00001001
00000000
,
00000000
00000000
00000001
00000000
00000010
00000000
00000000
00000000
00011000
00000000
00000000
00110000
00000000
00000000
01100000
00000000
,
10000000
01000000
10000000
00000000
00010000
00100000
00010000
00000000
10000000
00100000
10000000
00000000
00010000
01000000
00010000
00000000
,
00022000
00000000
00000000
00033000
,
00010000
00000000
00000000
00000100
00000000
00000000
00000020
00000000
00000000
00000000
00000000
00000000
00000000
00000000
00000130
00001000
,
00000001
00000000
00000000
00000100
00000000
00000000
00000010
00000000
00001000
00000000
00000000
00010000
00000000
00000000
01000000
00000000
,
01010000
00000000
00000000
10010000
00000000
00000000
22000000
00000000
00000000
00000000
00000000
00000000
00000000
00000000
33000000
00000000
,
00110000
00000000
00000000
00011000
00000000
00000000
00002020
00000000
00000000
00000000
00000000
00000000
00000000
00000000
00003030
00000000
,
00011000
00000000
00000000
00010000
00000000
00000000
00000020
00000000
00000000
00000000
00000000
00000000
00000000
00000000
00000130
00000001
,
00000010
00000000
00000000
00000100
00000000
00000000
00001000
00000000
00010000
00000000
00000000
00100000
00000000
00000000
10000000
00000000
,
10010000
00000000
00000000
01100000
00000000
00000000
10010000
00000000
00000000
00000000
10100000
00000000
00000000
00000000
01010000
00000000
,
10000000
01000000
00100000
00010000
00001000
00000100
00001001
00000000
,
00000001
00000000
00000000
00000100
00000010
00000000
00010000
00000000
00001000
00000000
00100000
00000000
00010000
00000000
10000000
00100000
,
01000000
00000000
00000000
00010000
00100000
00000000
01000000
00000000
10000000
00000000
00000000
00010000
01000000
00000000
00001000
00000000
,
00010000
00000000
00000000
00000100
00001000
00000000
00000001
00000000
00000100
00000000
00000010
00000000
00001000
00000000
00000010
00001000
,
00000100
00000000
00000000
00011000
00000000
00000000
02020000
00000000
00000000
00000000
00000000
00000000
00000000
00000000
03030000
00000000
,
10010000
00000000
00000000
10000000
00100000
00000000
10000000
00000000
01000000
00000000
00100000
00000000
00010000
00000000
01000000
00001000
,
00010000
00000000
00000000
00000100
00001000
00000000
00000001
00000000
00000100
00000000
00000000
00000010
00001000
00000000
00000001
00000000
,
00001001
00000000
00000000
00001010
00000000
00000000
00011000
00000000
00000000
00000000
10010000
00000000
00000000
00000000
01100000
00000000
,
11000000
00000000
00000000
01010000
00000000
00000000
10010000
00000000
00000000
00000000
00000000
00000000
00000000
00000000
00000000
00000000
;

//--------------- dance-double - forcednature ----------------
#NOTES:
     dance-double:
     forcednature:
     Challenge:
     11:
     0,0,0,0,0:
00000000
00000000
00000000
00000000
,
00000000
00000000
00000000
00000000
,
00000000
00000000
00000000
00000000
,
00000000
00000000
00000000
00000000
,
00010000
00001000
00000000
00100000
00010000
00000000
10000000
00000000
00100000
01000000
00000000
00010000
00100000
00000000
00001000
00000000
,
00010000
00000010
00000000
00001000
00000100
00000000
00000010
00000000
00000001
00000010
00000000
00000100
00010000
00000000
00001000
00000000
,
01000000
00010000
10000000
01000000
00100000
00010000
01000000
00010000
00100000
00001000
00010000
00000010
00010000
00000100
00001000
00000100
,
00000010
00000000
00001000
00000000
00010000
00000000
01000000
00010000
00001000
00000000
00001000
00000000
01100000
00000000
00000000
00000000
,
10000000
01000000
00000000
00100000
00010000
00000000
01000000
00001000
00000000
00010000
00000010
00000000
00001000
00000000
00000001
00000000
,
00000100
00000010
00000000
00001000
00000001
00000000
00000010
00000100
00000000
00001000
00000100
00000000
00010000
00000000
01000000
00000000
,
10000000
00010000
00000000
10000000
00100000
00000000
10000000
01000000
00000000
00100000
00010000
00000000
01000000
00000000
00001000
00000000
,
00011000
00000000
00010100
00000000
00001100
00000000
00001001
00000000
00000001
00000010
00000100
00001000
00000010
00000100
00000001
00000010
,
00000100
00001000
00000000
00000001
00001000
00000000
00000010
00010000
00000000
00001000
01000000
00000000
00010000
00000000
10000000
00000000
,
01000000
00100000
00000000
00010000
01000000
00000000
00001000
00010000
00000000
00000010
00001000
00000000
00000001
00000010
00000100
00000010
,
00000001
00001100
00110000
11000000
,
00010000
01000000
00001000
00010000
00000100
00001000
00000001
00000100
00000010
00000000
00000010
00000000
00002002
00003003
00000000
00000000
,
00001000
00000100
00000000
00010000
00001000
00000000
00010000
01000000
00000000
10000000
00010000
00000000
10000000
00000000
00100000
00000000
,
10000000
01000000
00000000
00010000
00001000
00000000
01000000
00010000
00000000
01000000
00001000
00000000
00010000
00000000
00000010
00000000
,
00001000
00000010
00000000
00000100
00000001
00000000
00000010
00001000
00000000
00000010
00000100
00000000
00010000
00000000
00001000
00000000
,
00011000
00000000
01001000
00000000
01010000
00000000
10100000
00000000
10000000
01000000
00100000
00010000
01000000
00001000
00010000
00000010
,
00001000
00000100
00000000
00000001
00000100
00000000
00001000
00000010
00000100
00000001
00000010
00000100
00001000
00000100
00010000
00001000
,
01000000
00010000
00000000
10000000
01000000
00000000
00100000
00010000
10000000
00100000
10000000
00010000
00100000
01000000
00100000
00010000
,
01000000
00001000
00010000
00000100
00001000
00000010
00000100
00000010
00001000
00000001
00000010
00000100
00001000
00000001
00000100
00000010
,
00001000
00000000
00000100
00000000
00010000
00000000
01000000
10000000
01000000
00000000
00100000
00000000
00001000
00010000
00001000
00000000
,
00022000
00000000
00030000
00000000
00000200
00003000
00000000
00000000
,
00000020
00000300
00000000
00000000
00020000
00000030
00000000
00000000
,
00200000
00000000
00030000
00000000
00000000
00000000
00000000
00000000
20000000
00000000
00300000
00000000
00000000
00000000
30100000
00010000
,
00200000
00000000
00000000
00000000
00002000
00300000
00000000
00000000
00000020
00003000
00000000
00000000
00000002
00000030
00000000
00000000
,
00002000
00000003
00000000
00000000
00000000
00000000
00000000
00000000
00000200
00000000
00003000
00000000
00000000
00000000
00000000
00000000
,
00000002
00000000
00000300
00000000
00000000
00000000
00000000
00000000
00000020
00000003
00000000
00000000
00002000
00000030
00000000
00000000
,
02000000
00003000
00000000
00000000
00000000
00000000
00000000
00000000
20000000
00000000
03000000
00000000
00000000
00000000
00000000
00000000
,
30000000
00000000
00000000
00000000
,
20010000
00000000
00000000
30020000
00000000
00000000
02030000
00000000
00000000
00000000
00000000
00000000
00000000
00000000
03001000
00010000
,
00000200
00000000
00000000
00002300
00000000
00000000
00003002
00000000
00000203
00000000
00000000
00002300
00000000
00000000
00023000
00000000
,
00230000
00000000
00000000
20300000
00000000
00000000
32000000
00000000
00000000
00000000
00000000
00000000
00000000
00000000
03100000
00010000
,
00200000
00000000
00300000
00220000
00000000
00330000
00022000
00000000
00000000
00000000
00000000
00000000
00000000
00000000
00033000
00000000
,
00001002
00000000
00000000
00000203
00000000
00000000
00000320
00000000
00000000
00000000
00000000
00000000
00000000
00000000
00001030
00000100
,
00020000
00000000
00000000
00032000
00000000
00000000
00203000
00000000
20300000
00000000
00000000
30200000
00000000
00000000
00320000
00030000
,
02020000
00000000
03030000
00022000
00000000
00033000
00002200
00000000
00000000
00000000
00000000
00000000
00000000
00000000
00003300
00000000
,
00002020
00000000
00003030
00022000
00000000
00033000
00220000
00000000
00000000
00000000
00000000
00000000
00000000
00330000
00000000
00000000
,
00011000
00000000
00000000
00010010
00000000
00000000
00001000
00000000
00000010
00000000
00000000
00000100
00000000
00000000
00000001
00000000
,
00000110
00000000
00000000
00001100
00000000
00000000
00010000
00000000
01010000
00000000
00000000
00000000
10010000
00000000
00000000
00000000
,
11000000
00000000
00000000
00100000
01000000
00000000
00100000
00000000
10010000
00000000
00000000
00010000
01000000
00000000
00001000
00000000
,
00011000
00000000
00000000
00010000
00000100
00000000
00001000
00000000
00001100
00000000
00000000
00000000
00001001
00000000
00000000
00000000
,
00000001
00000100
00001000
00100000
00010000
10000000
01000000
00010000
,
00000010
00001000
00000001
00000100
00001000
00100000
00010000
10000000
,
01000000
10000000
01000000
10000000
00010000
00100000
00010000
00100000
00001000
00010000
00001000
00010000
00000010
00001000
00000010
00001000
,
00000001
00000000
00000100
00000000
00000010
00000000
00001000
00000100
00002000
00003000
00000010
00000000
00011000
00000000
00000000
00000000
,
10010000
00000000
00000000
10000000
00100000
00000000
01000000
00000000
00100000
00000000
00010000
00000000
00001000
00000000
00010000
00000010
,
00001000
00000000
00000000
00000001
00000100
00000000
00001000
00000000
00010000
00000000
00000000
00000010
00001000
00000000
00000100
00000000
,
00010000
00000000
00000000
01000000
10000000
00000000
00010000
00000000
01000000
00000000
00100000
00000000
00001000
00000000
00000010
00000001
,
00000010
00000000
00000000
00001001
00000000
00000000
00000220
00000000
00000000
00000000
00000000
00000000
00000000
00000000
00000330
00000000
,
00001001
00000000
00000000
00001000
00000100
00000000
00010000
00000000
01000000
00000000
10000000
00000000
00010000
00000000
01000000
00100000
,
10000000
00000000
00000000
01000000
00100000
00000000
00010000
00000000
01000000
00000000
00000000
00001000
00010000
00000000
00000100
00000000
,
00001100
00000000
00000000
00001001
00000000
00000000
00000202
00000000
00000303
00000000
00000220
00000000
00000330
00000000
00001001
00000000
,
00001010
00000000
00000000
00011000
00000000
00000000
00220000
00000000
00330000
00000000
10000000
00010000
10000000
01000000
00100000
00010000
,
10000000
00000000
00010000
01000000
00010000
00000000
00100000
00000000
00001000
00000000
00010000
00000000
00000010
00000000
00001000
00000001
,
00001000
00000000
00000001
00000100
00000001
00000000
00001000
00000000
00000010
00000000
00010000
00001000
00010000
00000000
00001000
00000000
,
00100000
00000000
00010000
01000000
00010000
00000000
10000000
00000000
00100000
00000000
10000000
00000000
01000000
00000000
00100000
00010000
,
00100000
00000000
00001000
00010000
00001000
00000000
00010000
00000000
00000010
00000000
00000100
00000000
00010000
00000000
00000100
00000010
,
00000100
00000000
00000001
00000010
00000100
00000000
00010000
00000000
00001000
00000000
00100000
00000000
00010000
00000000
10000000
00100000
,
01000000
00000000
00010000
00100000
01000000
00000000
10000000
00000000
00010000
00000000
01000000
00001000
00010000
00000000
00001000
00000000
,
00011000
00000000
00000000
00010100
00000000
00000000
00002200
00000000
00000000
00000000
00000000
00000000
00000000
00000000
00003300
00000000
,
00000200
00000000
00000000
00020300
00000000
00000000
02030000
00000000
00000000
00000000
03000000
00000000
10010000
00000000
10000000
00100000
,
01000000
00000000
10010000
00000000
10010000
00000000
00000000
00000000
01010000
00000000
00000000
01001000
00000000
00000000
00011000
00000000
,
00000000
00000000
00010000
00000000
00000100
00000000
00000000
00000000
00001100
00000000
00000000
00001001
00000000
00000000
00000101
00000000
,
00000000
00000000
00000100
00000000
00000010
00000000
00001000
00000000
00000100
00000000
00000000
00011000
00000000
00000000
01010000
00000000
,
00000000
00000000
10000000
00000000
01000000
00000000
00000000
00000000
10000000
00100000
01000000
00010000
00100000
01000000
10000000
00010000
,
01000000
00000000
00001000
01000000
00001000
00000000
00000000
00000000
00011000
00000000
00000000
00010100
00000000
00000000
00001100
00000000
,
00001000
00000000
00000001
00000100
00000001
00000000
00000000
00000000
00000110
00000000
00000000
00001010
00000000
00000000
00001100
00000000
,
00000100
00010000
00001000
01000000
00010000
00100000
01000000
10000000
01000000
00100000
00010000
01000000
00001000
00010000
00000100
00001000
,
00000002
00000000
00000000
00000000
00000000
00000000
00000000
00000003
,
00002001
00000000
00000000
00003002
00000000
00000000
00000203
00000000
00000000
00000000
00000000
00000000
00000000
00000000
00001300
00010000
,
02000000
00000000
00000000
23000000
00000000
00000000
30200000
00000000
00320000
00000000
00000000
00032000
00000000
00000000
00003002
00000003
,
00001001
00000000
00000000
00000110
00000000
00000000
00002002
00000000
00000000
00000000
00000000
00000000
00003003
00000000
00001000
00000100
,
00010000
00000000
00000000
00011000
00000000
00000000
02000200
00000000
00000000
00000000
00000000
00000000
03000300
00000000
00000000
00000000
,
00012000
00000000
00000000
02003000
00000000
00000000
03200000
00000000
00000000
00000000
00000000
00000000
00000000
00000000
10300000
01000000
,
00020000
00000000
00000000
00032000
00000000
00000000
00003200
00000000
00000302
00000000
00000000
00000023
00000000
00000000
00002030
00003000
,
00001010
00000000
00000000
00011000
00000000
00000000
00220000
00000000
00330000
00000000
00022000
00000000
00033000
00000000
00200020
00300030
,
00000010
00000000
00010000
00000000
00000100
00000000
00010000
00000010
00002000
00003000
00000002
00000003
00000110
00000000
00000000
00000000
,
00001001
00000000
00001000
00000100
00010000
00000000
00001000
00000000
01000000
00000000
00010000
00000000
00100000
00000000
00010000
01000000
,
00100000
00000000
10000000
01000000
00100000
00000000
00010000
00000000
01000000
00000000
00001000
00010000
00000010
00000000
00001000
00000000
,
00000001
00000000
00000100
00000010
00001000
00000000
00000100
00000000
00010000
00000000
00001000
00000000
00100000
00000000
00010000
01000000
,
00010000
00000000
00000000
11000000
00000000
00000000
02200000
00000000
00000000
00000000
00000000
00000000
00000000
00000000
03300000
00000000
,
10010000
00000000
10000000
01000000
00100000
00000000
00010000
00000000
01000000
00000000
00001000
00000000
00010000
00000000
00000010
00001000
,
00000001
00000000
00000100
00000010
00001000
00000000
00000100
00000000
00010000
00000000
00001000
00100000
00010000
00000000
01000000
00000000
,
01010000
00000000
00000000
00011000
00000000
00000000
00001100
00000000
00000000
00000000
00011000
00000000
00000000
00000000
00101000
00000000
,
01010000
00000000
00000000
11000000
00000000
00000000
00110000
00000000
00000000
00000000
00000000
00000000
00000000
00000000
00000000
00000000
;
