#VERSION:0.83;
#TITLE:Over My Hand;
#SUBTITLE:;
#ARTIST:Srav3R;
#TITLETRANSLIT:;
#SUBTITLETRANSLIT:;
#ARTISTTRANSLIT:;
#GENRE:;
#ORIGIN:;
#CREDIT:;
#BANNER:Over My Hand.png;
#BACKGROUND:Over My Hand-bg.png;
#PREVIEWVID:;
#JACKET:Over My Hand-jacket.png;
#CDIMAGE:;
#DISCIMAGE:;
#LYRICSPATH:;
#CDTITLE:;
#MUSIC:Over My Hand.ogg;
#OFFSET:-0.728840;
#SAMPLESTART:22.672001;
#SAMPLELENGTH:15.000000;
#SELECTABLE:YES;
#BPMS:0.000=175.000,
159.000=87.500,
167.000=175.000;
#STOPS:142.000=0.343,
179.000=1.029;
#DELAYS:;
#WARPS:;
#TIMESIGNATURES:0.000=4=4;
#TICKCOUNTS:0.000=4;
#COMBOS:0.000=1;
#SPEEDS:0.000=1.000=0.000=0;
#SCROLLS:0.000=1.000;
#FAKES:;
#LABELS:0.000=Song Start;
#BGCHANGES:;
#KEYSOUNDS:;
#ATTACKS:
;

//---------------dance-single - ----------------
#NOTEDATA:;
#CHARTNAME:;
#STEPSTYPE:dance-single;
#DESCRIPTION:;
#CHARTSTYLE:;
#DIFFICULTY:Hard;
#METER:10;
#RADARVALUES:0.825498,1.030577,0.580266,0.185363,0.463407,717.000000,645.000000,72.000000,23.000000,0.000000,0.000000,0.000000,0.000000,0.000000,0.825498,1.030577,0.580266,0.185363,0.463407,717.000000,645.000000,72.000000,23.000000,0.000000,0.000000,0.000000,0.000000,0.000000;
#CREDIT:Marten;
#NOTES:
0000
0000
0000
0000
,
0000
0000
0000
0000
,
0000
0000
0000
0000
,
0000
0000
0000
0000
,
2000
0000
0000
0100
0000
0100
0000
0000
,
3002
0000
0000
0100
0000
0100
0000
0000
,
2003
0000
0000
0010
0000
3010
0000
0000
,
1010
0000
0000
0000
0000
0000
0101
0000
0000
0000
0001
0000
0010
0100
0010
0100
,
1000
0001
0100
0001
,
1000
0000
0010
0000
0001
0000
0010
0200
,
0310
2000
3100
1000
,
0001
0010
0110
0000
,
2100
0000
3010
0100
0102
0000
1003
0100
,
0012
0000
0103
0010
2010
0000
3100
0010
,
0001
0000
1000
0010
1000
0000
0001
0010
0001
0000
1000
0100
0010
0001
1000
0001
,
2000
0000
3001
0001
1000
0010
0100
0001
,
1000
0100
0001
0100
1000
0010
1000
0100
,
0010
0000
1000
0000
0010
0000
0001
0000
0100
0001
0000
0100
0001
0000
1000
0000
,
0001
0100
1000
0100
0001
0010
0001
0100
,
0010
0000
0001
0000
0010
0000
1000
0001
0010
0000
0100
0000
0010
0001
0100
0000
,
0001
1000
0010
0001
0010
0100
0001
1000
,
0100
0000
0010
0000
0100
0000
1000
0010
1000
0010
0000
0100
0010
0000
0100
0000
,
0010
0000
1000
0000
0100
0000
0010
0001
0010
0000
0000
0011
0000
0000
1001
0000
,
1000
0000
0010
0000
0001
0000
0010
0000
0100
0010
0000
0110
0000
0000
0101
0000
,
0001
0000
0010
0000
0100
0000
0001
0000
0100
0000
1000
0010
0100
0000
0010
0000
,
1000
0000
0001
0000
0010
0000
0001
0000
0100
0010
0000
0100
0010
0000
1000
0000
,
0100
0010
0100
0001
0100
1000
0001
0100
,
0010
0000
1000
0000
0010
0000
0100
0001
0010
0000
0100
0000
0010
0001
0100
0000
,
0020
0000
0000
0000
1030
0000
0100
0000
0010
0000
0001
1000
0010
0000
0100
0000
,
0010
0000
1000
0000
0001
0000
0010
0001
0010
0001
0000
1000
0100
0000
0000
0000
,
1001
0000
0000
0000
1000
0000
0010
0100
0010
0000
1000
0000
0100
0000
0100
0000
,
0110
0110
0000
1001
0000
0000
0010
0010
,
0001
0000
0000
0000
1000
0000
0000
0000
0010
0000
0000
0010
0000
0000
0010
0000
,
0100
0000
0001
0000
1000
0000
0100
0000
0010
0000
0000
0010
0000
0000
0010
0000
,
0110
0000
0000
0000
1100
0000
0000
0000
1001
0000
0000
0101
0000
0000
1010
0000
,
0000
0011
1001
0000
0110
0000
1010
0000
,
1000
0000
0001
0000
0100
0000
0001
0010
0001
0000
0100
0000
0010
0000
1000
0000
,
0001
0000
0010
0001
0010
0100
0000
1000
0001
0000
0100
0000
0110
0000
1000
0000
,
0100
0010
0001
0100
0010
0100
0110
0010
,
1000
0000
0001
0000
1000
0000
0000
0000
0001
1000
0001
1000
0100
0000
0010
0000
,
0001
1000
0100
0000
1100
0000
1000
0000
0010
0100
0010
0000
0110
0000
0100
0000
,
0001
1000
1001
1001
0000
1010
1010
0000
0101
0000
1000
1000
1001
0000
0000
0000
,
0010
0100
1100
0000
1000
0100
0011
0000
,
0100
0000
0010
0000
1010
0000
0000
0000
1000
0000
0001
0000
1000
0010
1000
0010
,
0100
0010
0100
0010
1000
0001
1000
0001
0010
0100
1000
0001
1000
0000
0000
0000
,
0001
0100
0010
0001
0010
1000
0001
0010
,
0100
0000
0010
0000
0001
0000
1000
0100
1000
0010
0000
0100
0010
0000
0001
0000
,
0010
0100
0001
1000
0100
0010
0100
1000
,
0001
0000
0010
0000
0100
0000
1000
0010
0100
0000
1000
0000
0100
0010
1000
0000
,
0001
1000
0100
0010
1000
0010
0100
1000
,
0001
0100
0001
0010
0011
0011
0000
1100
,
1001
0000
0000
0000
0110
0000
0000
0000
1010
0000
0000
0101
0000
0000
1001
0000
,
1001
0000
0100
0000
0000
0000
0100
0000
0110
0000
0100
0000
0010
0100
0010
0100
,
0001
1000
0010
0001
0010
0100
1000
0100
,
0010
0000
1000
0000
0001
0000
0010
0001
1000
0010
0000
0100
0010
0000
1000
0000
,
0001
0000
0010
0000
0100
0000
0001
0000
0100
0000
0010
0000
0001
0000
1000
0010
,
0100
0000
0000
0101
0000
0000
0000
0000
0000
1100
0000
0000
1001
0000
0000
0000
0001
0000
1000
0000
0010
0000
0100
0000
,
1000
0000
1000
0100
0001
0010
1000
0000
,
1001
0000
0001
0100
1000
0010
0001
0000
,
0110
0000
0010
1010
0000
1001
0000
0011
,
0001
0000
1000
0010
1000
0010
0100
0001
0100
0001
1000
0010
0100
0000
0000
0000
,
0101
0000
0001
0000
1000
0000
0100
1000
0010
0000
0100
0001
1000
0000
0010
0000
,
0100
0000
0001
0000
1000
0000
0100
0010
0100
1000
0000
0001
0010
0000
0001
0000
,
0100
0000
0010
0000
0001
0000
0010
0100
0001
0000
1000
0000
0100
0000
0010
0000
,
1000
0010
0100
0000
1000
0000
0001
0000
1001
0000
1000
0000
0010
1000
0100
0000
,
0020
0000
0000
0000
0031
0000
1000
0000
0010
0000
0100
0010
0001
0000
0010
0000
,
0100
0000
0001
0000
1000
0000
0100
0010
0100
1000
0000
0001
1000
0010
1000
0000
,
0001
0000
1000
0100
0010
0000
1000
0010
0001
1000
0000
1001
0000
0000
0011
0000
,
0010
0000
0110
0000
0000
0000
1001
0000
0000
0000
1100
0000
1000
0010
0100
0000
,
0001
0000
1000
0000
0100
0000
1000
0000
0010
0000
0100
0001
1000
0000
0100
0000
,
0010
0000
0100
0010
0001
0000
1000
0010
0100
0010
0000
1000
0001
0000
0010
0000
,
0100
0000
0010
0000
0001
0000
1000
0001
0100
0000
0010
0000
0001
0000
0010
0000
,
1000
0100
0010
0000
0001
0010
0100
0000
1000
0000
0010
0000
0100
0010
0100
0000
,
0002
0000
0000
0000
2003
0000
0000
0010
0000
0000
3010
0000
1010
0000
0000
0000
,
2000
0000
0000
0000
3002
0000
0013
0100
0000
0010
0000
0010
0000
0000
0001
0000
,
1001
0000
0000
0000
0110
0000
0000
0000
0001
0000
1000
0000
0010
0100
0010
0000
,
1000
0000
0100
0000
0000
0000
0100
0000
1000
0010
1000
0001
1000
0100
0010
0001
,
0010
0001
1000
0010
0001
1000
0100
0001
,
1000
0100
1000
0001
0010
1000
0001
0100
,
1000
0010
1000
0001
0100
1000
0100
0001
,
1001
0000
0100
0000
0110
0000
0110
0000
0000
0000
0001
0010
0100
1000
0001
1000
,
0200
0000
1300
0001
0102
0000
1003
0100
,
0012
0000
0103
0010
2010
0000
3001
1000
,
0010
0000
1000
0100
0010
0000
0001
0100
0010
0000
1000
0100
1000
0001
0100
0010
,
0200
0000
0301
0001
1000
0010
0100
0001
,
2002
3003
0000
0000
;

//---------------dance-single - ----------------
#NOTEDATA:;
#CHARTNAME:;
#STEPSTYPE:dance-single;
#DESCRIPTION:;
#CHARTSTYLE:;
#DIFFICULTY:Medium;
#METER:9;
#RADARVALUES:0.643589,0.755756,0.346548,0.241778,0.088652,559.000000,516.000000,43.000000,30.000000,0.000000,0.000000,0.000000,0.000000,0.000000,0.643589,0.755756,0.346548,0.241778,0.088652,559.000000,516.000000,43.000000,30.000000,0.000000,0.000000,0.000000,0.000000,0.000000;
#CREDIT:Marten;
#NOTES:
0000
0000
0000
0000
,
0000
0000
0000
0000
,
0000
0000
0000
0000
,
0000
0000
0000
0000
,
0002
0000
0000
0100
0000
0100
0000
0000
,
2003
0000
0000
0100
0000
0100
0000
0000
,
3002
0000
0000
0010
0000
0013
0000
0000
,
0011
0000
0000
1100
0000
0001
0100
0100
,
0001
1000
0010
0100
,
0001
0000
1000
0000
0100
0000
0010
0002
,
0000
2003
3010
0100
,
0010
1000
1001
0000
,
0021
0000
0031
0100
0020
0000
1030
0100
,
0020
0000
0031
1000
0020
0000
0130
0001
,
1000
0100
0010
0001
1000
0010
0001
0010
,
1000
0000
0001
0001
1000
0000
0010
0000
,
1010
0000
1000
0100
0010
0100
1000
0001
,
1000
1000
0010
1000
0001
0100
0001
0000
,
0010
0000
0001
0100
0001
0100
0010
0100
,
0001
1000
0100
0010
0100
1000
0001
0000
,
0100
0000
0010
0100
0010
0100
0001
0010
,
0001
1000
0100
0010
0001
0010
0100
0000
,
1000
0000
0000
0000
0001
0000
0100
0000
0010
0000
0000
0010
0000
0000
0010
0000
,
1000
0000
0001
0000
1000
0000
0010
0000
0100
0010
0000
0010
0000
0000
0010
0000
,
1000
0100
0010
0100
1000
0001
0100
1000
,
0100
0001
0010
0001
1000
0010
0100
0000
,
0001
0010
0001
0100
0010
0001
0010
0100
,
0001
1000
0100
0010
0001
0100
0020
0000
,
1030
1000
1001
0000
0001
0010
0100
0000
,
1000
0010
0001
0010
1000
0001
1000
0000
,
0001
0010
0100
1000
0001
0100
1000
0100
,
0001
0001
0000
0001
0000
0000
0001
1000
,
1001
0000
0000
0000
1000
0000
0000
0000
0100
0000
0000
0100
0000
0000
0100
0000
,
1000
0000
0010
0000
1000
0000
0000
0000
0001
0000
0000
0001
0000
0000
0001
0000
,
0100
0000
0000
0000
0110
0000
0000
0000
1010
0000
0000
1001
0000
0000
0011
0000
,
0000
0100
0010
0000
0110
0000
0011
0000
,
0001
0100
0010
0100
0001
1000
0100
0001
,
0100
1000
0001
1000
0010
0000
0110
0000
,
0010
0100
0000
0010
0100
0100
0001
1000
,
0000
0001
1001
0000
0001
1000
1100
0010
,
0001
0000
1000
0000
0010
0000
0100
0000
0010
0000
1000
0001
0000
0000
0020
0000
,
0031
0000
0100
0100
0000
0100
0100
0000
0110
0000
1001
0000
1010
0000
0000
0000
,
1000
0100
0010
0000
0001
1000
0010
0000
,
1000
0001
0010
0000
0001
0100
0010
0100
,
0001
1000
0100
0010
0001
1000
0010
0000
,
1000
0100
0010
0001
0010
0100
0001
0100
,
1000
0010
1000
0001
0100
0010
0100
0000
,
0001
0010
0001
0100
0010
0001
0010
0100
,
0001
1000
0100
0010
0001
0000
1001
0000
,
0010
1000
0100
1000
0001
1000
0010
0100
,
0001
0010
1000
0010
0001
0001
0000
0001
,
0001
0000
0000
0000
0101
0000
0000
0000
1010
0000
0000
1001
0000
0000
1100
0000
,
1000
0010
0000
0010
0100
0010
1000
1000
,
0001
0010
1000
0010
0001
0100
0010
0100
,
0001
1000
0010
0100
0001
0100
0001
0000
,
0010
0001
1000
0100
0010
0100
1000
0001
,
0000
0000
0000
0011
0000
0000
0000
0000
0000
1100
0000
0000
1000
0000
0000
0000
0001
0000
0010
0000
0100
0000
1000
0000
,
0001
0000
0100
0001
1000
0000
0010
0000
,
1001
0000
0100
1000
0001
0000
0010
0000
,
1001
0000
1000
0001
1000
0000
0010
0000
,
0110
0000
0100
0001
1000
0001
0010
0100
,
1000
0010
0100
0010
1000
0001
1000
0100
,
0010
0001
0010
0100
1000
0001
0100
0100
,
0001
1000
0010
1000
0001
0100
1000
0100
,
0001
0010
0100
1000
0001
0100
0100
0100
,
0000
0010
0110
0000
1001
0000
1000
0010
,
1000
0000
0001
0000
0010
0000
0100
0000
0010
0000
0001
1000
0000
0010
1000
0000
,
0001
0000
1000
0000
0100
0000
1000
0010
0000
0100
0000
0110
0000
0000
1001
0000
,
0000
1010
0000
0101
0000
0001
0010
0100
,
2000
0000
3001
0100
1000
0100
0001
0010
,
0100
0010
0001
1000
0010
0100
0010
0010
,
2000
0000
3001
0010
0100
0010
0001
0100
,
0110
0000
1001
0000
1000
0010
0010
0010
,
0200
0000
0000
0000
0302
0000
0000
1003
0000
0000
0100
0000
0110
0000
0000
0000
,
0002
0000
0000
0000
2003
0000
3010
0100
0000
0010
0000
0110
0000
0000
0100
0000
,
0001
0000
1000
0000
0010
0010
0100
0010
,
1000
1001
0000
1001
0000
1000
0010
0100
,
0001
1000
0200
0000
2300
0000
3002
0000
,
0203
0000
0320
0000
2030
0000
3001
0010
,
0001
0000
0201
0000
0310
0000
1000
0001
,
1000
0010
0100
0100
0000
0001
0010
0100
,
2000
0000
3100
1000
0002
0000
0103
0010
,
2000
0000
3100
0010
0002
0000
0103
0010
,
1000
0001
0010
0100
1000
0010
0100
0001
,
1000
0000
0100
0100
1000
0000
0010
0000
,
2002
3003
0000
0000
;

//---------------dance-single - ----------------
#NOTEDATA:;
#CHARTNAME:;
#STEPSTYPE:dance-single;
#DESCRIPTION:;
#CHARTSTYLE:;
#DIFFICULTY:Easy;
#METER:5;
#RADARVALUES:0.377634,0.618346,0.225659,0.032237,0.000000,328.000000,300.000000,28.000000,4.000000,0.000000,0.000000,0.000000,0.000000,0.000000,0.377634,0.618346,0.225659,0.032237,0.000000,328.000000,300.000000,28.000000,4.000000,0.000000,0.000000,0.000000,0.000000,0.000000;
#CREDIT:Marten;
#NOTES:
// measure 0
0000
0000
0000
0000
,  // measure 1
0000
0000
0000
0000
,  // measure 2
0000
0000
0000
0000
,  // measure 3
0000
0000
0000
0000
,  // measure 4
1000
0000
0000
0100
0000
0100
0000
0000
,  // measure 5
0001
0000
0000
0100
0000
0100
0000
0000
,  // measure 6
1000
0000
0000
0010
0000
0010
0000
0000
,  // measure 7
1010
0000
0000
0101
0000
0000
1000
0000
,  // measure 8
0001
0010
0001
0010
,  // measure 9
0100
0000
1000
0000
0100
0000
1000
0001
,  // measure 10
0000
1001
0001
0100
,  // measure 11
0010
0100
0110
0000
,  // measure 12
1010
0100
0011
0001
,  // measure 13
1100
1000
0101
0010
,  // measure 14
1000
0010
0100
0001
,  // measure 15
2000
0000
0010
3010
,  // measure 16
1000
0100
0010
0010
,  // measure 17
0100
1000
0001
1000
,  // measure 18
0001
0100
0010
0010
,  // measure 19
0100
0001
0010
0000
,  // measure 20
0100
1000
0001
1000
,  // measure 21
0010
0100
0001
0001
,  // measure 22
1000
0010
0001
0010
,  // measure 23
1000
0000
1001
0000
,  // measure 24
0001
0100
0001
0001
,  // measure 25
0010
0100
1000
0000
,  // measure 26
1000
0100
1000
1000
,  // measure 27
0010
0100
0001
0000
,  // measure 28
0100
0110
0010
1000
,  // measure 29
0001
0010
0100
0000
,  // measure 30
1001
0001
0010
0100
,  // measure 31
1000
1000
0000
1001
0000
0000
0000
0000
,  // measure 32
0001
0100
1000
0000
,  // measure 33
1000
0100
0001
0000
,  // measure 34
0001
0010
1000
0000
,  // measure 35
1000
0010
0001
1000
,  // measure 36
0010
0100
0100
0001
,  // measure 37
0010
0100
0100
1000
,  // measure 38
0100
0010
0001
1000
,  // measure 39
0000
0000
0001
0000
1000
0000
1001
0001
,  // measure 40
0100
0100
0010
1000
0001
0010
0100
0000
,  // measure 41
0110
0000
0010
0001
1001
0000
1010
0000
,  // measure 42
0100
0011
0001
1100
,  // measure 43
1000
0101
0010
1000
,  // measure 44
0010
0001
0010
1000
,  // measure 45
0001
0010
0100
0100
,  // measure 46
1000
0001
0100
0000
,  // measure 47
0010
1000
0001
0001
,  // measure 48
0010
0100
0010
0000
,  // measure 49
0100
1000
0010
0010
,  // measure 50
1000
0001
0100
0000
,  // measure 51
0010
0100
0001
0001
,  // measure 52
1000
0100
0010
0000
,  // measure 53
0001
0010
0100
1000
,  // measure 54
0001
1000
0100
0100
,  // measure 55
1000
0010
0100
0001
,  // measure 56
1000
0001
0100
0100
,  // measure 57
0010
1000
0100
0000
,  // measure 58
0010
0001
0100
0000
,  // measure 59
0001
1000
0010
0000
,  // measure 60
1000
0001
0010
0010
,  // measure 61
0001
0010
0100
1000
,  // measure 62
0001
0100
0010
0010
,  // measure 63
1000
0100
0010
0001
,  // measure 64
1000
0010
0100
0100
,  // measure 65
0001
1000
0100
0100
,  // measure 66
0010
0001
1000
0001
,  // measure 67
1000
0001
0100
0100
,  // measure 68
0010
1000
0001
0000
,  // measure 69
1000
0010
0001
0010
,  // measure 70
1000
0100
0010
0010
,  // measure 71
0001
0010
1000
0010
,  // measure 72
0001
0100
0010
0010
,  // measure 73
1000
0100
1100
0000
,  // measure 74
0001
0100
0101
0000
,  // measure 75
0001
1000
0010
0100
,  // measure 76
0001
1000
0001
0000
,  // measure 77
1001
0001
0100
1000
,  // measure 78
0100
0001
1000
0100
,  // measure 79
0001
0100
1000
0001
,  // measure 80
1000
0010
0110
0000
,  // measure 81
1010
0100
0011
0001
,  // measure 82
1100
1000
0101
0010
,  // measure 83
1000
0010
0001
0010
,  // measure 84
2000
0000
0010
3010
,  // measure 85
2002
3003
0000
0000
;
