#TITLE:GIVE IT UP;
#SUBTITLE:;
#ARTIST:CUT 'N' MOVE;
#TITLETRANSLIT:;
#SUBTITLETRANSLIT:;
#ARTISTTRANSLIT:;
#GENRE:;
#CREDIT:;
#BANNER:[Round 2] - GIVE IT UP.png;
#BACKGROUND:[Round 2] - GIVE IT UP-bg.png;
#LYRICSPATH:;
#CDTITLE:cdtitle.png;
#MUSIC:[Round 2] - GIVE IT UP.ogg;
#OFFSET:-0.148000;
#SAMPLESTART:48.100281;
#SAMPLELENGTH:13.000000;
#SELECTABLE:YES;
#DISPLAYBPM:120.000000;
#BPMS:0.000000=120.000000
;
#STOPS:
;
#BGCHANGES:;
#KEYSOUNDS:;
#ATTACKS:;

//---------------dance-single - ----------------
#NOTES:
     dance-single:
     :
     Beginner:
     1:
     0.117998,0.171440,0.000000,0.000000,0.000000,86.000000,86.000000,0.000000,0.000000,0.000000,0.000000,0.117998,0.171440,0.000000,0.000000,0.000000,86.000000,86.000000,0.000000,0.000000,0.000000,0.000000:
0000
0000
0000
0000
,
0000
0000
0000
0000
,
0000
0000
0000
0000
,
0000
0000
0000
0000
,
0001
0001
0001
0001
,
0001
0000
0000
0000
,
1000
0000
0001
0000
,
1000
0000
0000
0000
,
0010
0000
0010
0000
,
0010
0000
0000
0000
,
0100
0000
0100
0000
,
0100
0000
0000
0000
,
1000
0000
0001
0000
,
1000
0000
0000
0000
,
0001
0000
1000
0000
,
0001
0000
0000
0000
,
0010
0010
0010
0000
,
0010
0000
0000
0000
,
0100
0100
0100
0000
,
0100
0000
0000
0000
,
1000
1000
1000
0000
,
0001
0001
0001
0000
,
1000
0000
0000
0000
,
0000
0000
0000
0000
,
0100
0100
0100
0100
,
0100
0000
0010
0000
,
0100
0000
0000
0000
,
1000
0000
0001
0000
,
1000
1000
1000
1000
,
1000
0000
0000
0000
,
0100
0000
0010
0000
,
0100
0000
0000
0000
,
0001
0000
1000
0000
,
0010
0000
0000
0000
,
0100
0000
0001
0000
,
1000
0000
0000
0000
,
0010
0000
1000
0000
,
0100
0000
0000
0000
,
0010
0000
0001
0000
,
0100
0000
0000
0000
,
0010
0010
0010
0000
,
0100
0000
0000
0000
,
0001
0000
1000
0000
,
0001
0000
0000
0000
,
0100
0100
0100
0000
,
0010
0000
0000
0000
,
1000
0000
0001
0000
,
1000
0000
0000
0000
,
0100
0100
0100
0100
,
0100
0000
0000
0000
,
0001
0000
1000
0000
,
0010
0000
0000
0000
;

//---------------dance-single - ----------------
#NOTES:
     dance-single:
     :
     Easy:
     3:
     0.220903,0.296779,0.000000,0.028813,0.000000,161.000000,161.000000,0.000000,3.000000,0.000000,0.000000,0.220903,0.296779,0.000000,0.028813,0.000000,161.000000,161.000000,0.000000,3.000000,0.000000,0.000000:
// measure 0
0000
0000
0000
0000
,  // measure 1
0000
0000
0000
0000
,  // measure 2
0000
0000
0000
0000
,  // measure 3
0000
0000
0000
0000
,  // measure 4
0001
1000
0001
1000
0001
1000
0001
1000
,  // measure 5
0001
0000
1000
0001
,  // measure 6
0010
0100
1000
0000
,  // measure 7
0010
0100
0001
0000
,  // measure 8
1000
1000
0001
0001
,  // measure 9
1000
0001
0010
0000
,  // measure 10
0001
0001
1000
1000
,  // measure 11
0020
0000
0000
0030
,  // measure 12
0100
0100
0010
0010
,  // measure 13
0100
0010
1000
0000
,  // measure 14
0100
0100
0010
0010
,  // measure 15
0002
0000
0000
0003
,  // measure 16
1000
0100
0001
0000
,  // measure 17
1000
0100
0001
0000
,  // measure 18
0001
0100
1000
0000
,  // measure 19
0001
0100
1000
0000
,  // measure 20
0010
1000
0100
0000
,  // measure 21
0010
0001
0100
0000
,  // measure 22
0010
1000
0001
0010
,  // measure 23
0200
0000
0300
0000
,  // measure 24
0001
1000
0001
1000
0001
1000
0001
1000
,  // measure 25
0001
0000
0010
0100
,  // measure 26
1000
0000
0010
0000
,  // measure 27
0100
0001
1000
0000
,  // measure 28
1000
0001
1000
0001
1000
0001
1000
0001
,  // measure 29
1000
0000
0100
0010
,  // measure 30
0001
0000
0100
0000
,  // measure 31
0010
1000
0100
0000
,  // measure 32
0010
0001
1000
0001
,  // measure 33
0100
0000
0010
0000
,  // measure 34
1000
0010
0001
0000
,  // measure 35
1000
0010
0001
0000
,  // measure 36
0010
1000
0100
1000
,  // measure 37
0001
0000
0010
0000
,  // measure 38
0100
1000
0010
0000
,  // measure 39
0100
1000
0010
0000
,  // measure 40
0100
0001
0010
0001
,  // measure 41
0100
0000
0010
0000
,  // measure 42
1000
0010
0001
0000
,  // measure 43
1000
0010
0001
0000
,  // measure 44
0010
1000
0100
1000
,  // measure 45
0001
0000
0010
0000
,  // measure 46
0100
1000
0001
0000
,  // measure 47
0100
1000
0001
0000
,  // measure 48
0100
0010
0100
0010
0100
0010
0100
0010
,  // measure 49
0100
0000
0010
0100
,  // measure 50
0001
0010
1000
0000
,  // measure 51
1000
0010
0001
0000
;

//---------------dance-single - ----------------
#NOTES:
     dance-single:
     :
     Medium:
     5:
     0.312832,0.346242,0.115254,0.019209,0.000000,228.000000,216.000000,12.000000,2.000000,0.000000,0.000000,0.312832,0.346242,0.115254,0.019209,0.000000,228.000000,216.000000,12.000000,2.000000,0.000000,0.000000:
0000
0000
0000
0000
,
0000
0000
0000
0000
,
0000
0000
0000
0000
,
0000
0000
0000
0000
,
1000
0001
1000
0001
1000
0001
1000
0000
,
0001
0000
0010
0100
,
1000
0001
0100
0000
,
0010
0000
0000
0000
,
1000
0001
0100
0000
0010
0000
0100
0000
,
0001
0000
0010
0000
0100
1000
0001
0000
,
1000
0001
0100
0000
0010
0000
0100
0000
,
0002
0000
0000
0003
,
1000
0001
0010
0000
0100
0000
1000
0000
,
0010
0000
0100
0000
0001
0100
0010
0000
,
1000
0001
0010
0000
0100
0000
1000
0000
,
0002
0000
0000
0003
0000
0001
0001
0000
,
1000
0010
1000
0000
0010
1000
0010
0000
,
0100
0001
0010
0100
,
1000
0010
1000
0000
0010
1000
0010
0000
,
0100
0001
0010
0100
,
1000
0010
1000
0000
0001
0100
0001
0000
,
1000
0100
0010
0001
,
1000
1000
0001
0001
,
1001
0000
0010
0010
,
1000
0100
1000
0001
1000
0010
1000
0001
,
1000
1001
0010
0100
,
0001
0010
0100
0000
,
1000
0010
0100
0000
,
0001
0010
0001
1000
0001
0100
0001
1000
,
0001
1001
0010
0100
,
1000
0010
0100
0001
,
1001
0000
0000
0000
0000
0000
0001
0010
,
0001
0000
0010
0001
0010
0000
0100
1000
,
0100
1000
0010
0100
,
0001
1000
0100
1000
0001
0000
0100
0000
,
0010
0000
0101
0101
,
1000
0100
1000
0000
0010
0000
0100
0000
,
0001
0010
0001
1000
,
0010
0100
0001
0100
0010
0000
1000
0000
,
0100
0000
1100
1100
,
0001
1000
0100
0000
1000
0000
0001
0100
,
0010
0000
0000
0000
1000
0100
1000
0000
,
0001
0010
0100
0010
0001
0000
1000
0000
,
0010
0000
0110
0110
,
0001
1000
0100
0000
1000
0000
0001
0000
,
0100
0010
1000
0100
,
1000
0010
0100
0010
1000
0000
0001
0000
,
0010
0000
0011
0011
,
1000
0001
1000
0001
1000
0001
1000
0001
,
1000
0000
0010
0100
,
0001
1000
0100
1000
0001
0000
0100
0000
,
0010
1000
0001
0000
;

//---------------dance-single - ----------------
#NOTES:
     dance-single:
     :
     Hard:
     7:
     0.406133,0.445168,0.230508,0.057627,0.144067,296.000000,272.000000,24.000000,6.000000,0.000000,0.000000,0.406133,0.445168,0.230508,0.057627,0.144067,296.000000,272.000000,24.000000,6.000000,0.000000,0.000000:
0000
0000
0000
0000
,
0000
0000
0000
0000
,
0000
0000
0000
0000
,
0000
0000
0000
0000
,
1000
0001
0000
1000
0001
0000
1000
0001
0000
1000
0001
0000
1000
0000
0001
0000
,
1000
0000
0010
0100
,
0001
0000
0010
0100
1000
0000
0000
0001
,
0000
0001
0010
0100
1000
0000
0000
0000
,
0011
0000
0100
0000
1000
0010
0100
0000
,
0001
0000
0010
0000
0001
0100
1000
0100
,
0001
0000
0000
0000
0010
0000
0100
0000
1000
0000
0000
0010
0000
0000
0200
0000
,
0000
0000
0000
0300
,
0010
0000
1000
0000
0100
0010
0001
0000
,
0100
0000
0010
0000
1000
0010
0001
0010
,
1000
0000
0000
0000
0100
0000
0010
0000
0001
0000
0000
0100
0000
0000
0020
0000
,
0000
0000
0000
0000
0030
0110
0110
0000
,
1000
0100
0010
0000
0100
0010
0001
0000
,
0100
0010
0110
1001
,
0001
0100
0010
0000
0100
0010
1000
0000
,
0001
0010
0110
1001
,
1000
0001
0100
0000
0001
1000
0100
0000
,
1000
0000
0010
0000
0100
0001
1000
0000
,
0010
0000
0000
0010
0000
0000
0010
0000
1000
0000
0000
1000
0000
0000
0001
0000
,
0010
0000
1100
0011
,
1000
0100
0000
1000
0001
0000
1000
0010
0000
1000
0001
0000
1000
0000
0100
0000
,
1000
0000
1100
0000
0001
0100
1000
0100
,
0001
0000
1000
0010
0100
0000
0001
0010
,
0000
0001
0010
0100
1000
0000
0001
0000
,
0001
0100
0000
0001
1000
0000
0001
0010
0000
0001
1000
0000
0001
0000
0100
0000
,
0001
0000
0101
0000
1000
0010
0001
0010
,
1000
0000
0001
1000
0100
0000
1000
0010
,
0000
0100
0001
1000
0100
0000
1000
0001
,
0010
0010
0001
1000
0010
0010
1000
0001
,
0100
0000
0000
0001
0010
0001
0100
0100
,
0010
0000
1000
0010
1000
0000
0010
1000
0010
0000
1000
0000
0000
0000
0002
0000
,
0000
0000
0003
0000
1001
1001
1001
0000
,
0001
0010
0001
1000
1000
0010
1000
0001
,
0000
0000
0010
0010
,
0100
0000
1000
0001
1000
0000
0001
1000
0001
0000
0010
0000
0000
0000
0002
0000
,
0000
0000
0003
0000
1100
1100
1100
0000
,
0010
1000
0100
0000
1000
0000
0010
0100
,
0001
0000
0000
0010
0001
0010
0100
1000
,
0001
0000
0100
0010
0100
0000
0010
0100
0010
0000
0100
0000
0000
0000
0002
0000
,
0000
0000
0003
0000
1010
1010
1010
0000
,
0001
1000
0100
0100
1000
0001
0100
0010
,
0000
0000
1000
1000
,
0100
0000
0010
0001
0010
0000
0001
0010
0001
0000
0010
0000
0000
0000
0002
0000
,
0000
0000
0003
0000
0110
0110
0110
0000
,
1000
0001
0000
1000
0001
0000
1000
0001
0000
1000
0001
0000
1000
0000
0001
0000
,
1000
0000
0010
0100
,
0001
0000
0010
0100
0010
0000
0100
0010
0100
0000
0010
0000
0000
0000
0011
0000
,
0000
0000
0010
0100
1000
0000
0000
0000
;
