#TITLE:Froot (Oliver Nelson Remix);
#SUBTITLE:;
#ARTIST:Marina and the Diamonds;
#TITLETRANSLIT:;
#SUBTITLETRANSLIT:;
#ARTISTTRANSLIT:;
#GENRE:;
#CREDIT:;
#BANNER:[Round 2] - Froot (Oliver Nelson Remix).png;
#BACKGROUND:[Round 2] - Froot (Oliver Nelson Remix)-bg.png;
#LYRICSPATH:;
#CDTITLE:;
#MUSIC:[Round 2] - Froot (Oliver Nelson Remix).ogg;
#OFFSET:0.000000;
#SAMPLESTART:66.406998;
#SAMPLELENGTH:14.634008;
#SELECTABLE:YES;
#DISPLAYBPM:116.000000;
#BPMS:0.000000=116.000000
;
#STOPS:
;
#BGCHANGES:0.000=[Round 2] - Froot (Oliver Nelson Remix).avi=1.000=0=0=0=StretchNoLoop====,
99999=-nosongbg-=1.000=0=0=0 // don't automatically add -songbackground-
;
#KEYSOUNDS:;
#ATTACKS:;

//---------------dance-single - ----------------
#NOTES:
     dance-single:
     :
     Hard:
     8:
     0.460289,0.475248,0.253159,0.023014,0.245487,420.000000,387.000000,33.000000,3.000000,0.000000,0.000000,0.460289,0.475248,0.253159,0.023014,0.245487,420.000000,387.000000,33.000000,3.000000,0.000000,0.000000:
// measure 0
0000
0000
0000
0000
,  // measure 1
0000
0000
0000
0000
,  // measure 2
0000
0000
0000
0000
,  // measure 3
0000
0000
0000
0000
,  // measure 4
0000
0000
0000
0000
,  // measure 5
0001
0000
0100
0000
0001
0000
0000
1000
0001
0000
0100
0010
0000
0000
0100
0000
,  // measure 6
0000
0000
0100
0000
0000
0000
0100
0000
0010
0000
0000
0010
0100
0000
0001
0000
,  // measure 7
0010
0000
0001
0000
0010
0000
0001
0000
0100
0000
0000
0100
0010
0000
0010
0000
,  // measure 8
1000
0100
0010
0001
0100
0100
0001
0000
,  // measure 9
0100
0000
0001
0000
0010
0000
0000
0001
0010
0000
0100
0000
1000
0000
0010
0000
,  // measure 10
1000
0000
0100
0000
0010
0000
0000
0100
1000
0000
0001
0000
1001
0000
0000
0000
,  // measure 11
0100
0100
0110
0000
0010
0010
1010
0000
,  // measure 12
1000
0100
1000
0010
0100
0101
0101
0000
,  // measure 13
0001
0000
0010
0001
0000
0001
0000
0001
0100
0000
0000
0000
0110
0000
0010
0100
,  // measure 14
0010
0000
0100
0000
0001
0010
0000
0010
0001
0000
0000
0000
0101
0000
0000
0000
,  // measure 15
0100
0000
0100
0000
0010
1000
0000
1000
0010
0000
0000
0000
1010
0000
0000
0000
,  // measure 16
1000
0000
0100
0000
1000
0010
0000
0100
0001
0000
0010
0000
0011
0000
0000
0000
,  // measure 17
0001
0100
0010
1000
1000
0100
0010
0100
,  // measure 18
1000
0001
0100
0010
0100
0001
0010
0001
,  // measure 19
0100
0100
0001
0001
0010
0010
0001
0001
,  // measure 20
0100
0010
1000
0100
0010
0100
1000
0000
,  // measure 21
0001
0000
0001
0000
0100
0001
0000
0001
0100
0000
0000
0000
0101
0000
0000
0000
,  // measure 22
0010
0000
1000
0000
0100
1000
0000
1000
0010
0000
0000
0000
0110
0000
0000
0000
,  // measure 23
0100
0000
0001
0000
0100
0001
0000
0001
0010
0000
0000
0000
0011
0000
0000
0000
,  // measure 24
0001
0000
0100
0000
0010
0100
0000
0100
0010
0000
0010
0000
0110
0000
0000
0000
,  // measure 25
0100
0100
0100
0100
0100
0000
0010
0000
,  // measure 26
1000
1000
1000
1000
0001
0000
1000
0000
,  // measure 27
0001
0000
0101
0000
0110
0000
0100
0110
,  // measure 28
0000
0000
0011
0000
0000
0000
0100
0000
1100
0000
0000
1000
0010
0000
0010
0000
,  // measure 29
0010
0100
0001
0100
0010
0010
0110
0000
,  // measure 30
0010
1000
0100
1000
0001
0001
0100
0000
,  // measure 31
0001
0001
0010
0010
0001
0000
0100
0001
,  // measure 32
0000
0000
0001
0000
0000
0000
0010
0000
0001
0000
0000
0001
1000
0000
0001
0000
,  // measure 33
1000
0000
0100
0000
1000
0000
0010
0000
0100
0001
0000
0001
0100
0000
0100
0000
,  // measure 34
0001
0000
0010
0000
0001
0000
0100
0000
0010
0001
0000
0001
0010
0000
1000
0000
,  // measure 35
0100
0000
1000
0000
0010
0000
0010
0000
0100
0010
0000
0010
0100
0000
0100
0000
,  // measure 36
0001
0000
0010
0000
0001
0000
0100
0000
0010
1000
0000
1000
0010
0000
0100
0000
,  // measure 37
0001
0000
0010
0000
0100
0000
0010
0000
0001
1000
0000
1000
0001
0000
0001
0000
,  // measure 38
0100
0000
0010
0000
0100
0000
1000
0000
0100
0001
0000
0001
0010
0000
0100
0000
,  // measure 39
0010
0000
0001
0000
0010
0000
0010
0000
0001
0100
0000
0100
0001
0000
0010
0000
,  // measure 40
0000
0000
0001
0000
0000
0000
0100
0000
0010
0000
0000
0010
0100
0000
0100
0000
,  // measure 41
0001
0000
0010
0000
0001
0000
0100
0000
0010
1000
0000
1000
0010
0000
0010
0000
,  // measure 42
1000
0000
0100
0000
1000
0000
0010
0000
1000
0100
0000
1000
0100
0000
0010
0000
,  // measure 43
0001
0000
0100
0000
0010
0000
0100
0000
0010
0100
0000
0100
0010
0000
0010
0000
,  // measure 44
1000
0000
0100
0000
1000
0000
0010
0000
0100
0001
0000
0001
0100
0000
0010
0000
,  // measure 45
1000
0000
0100
0000
0010
0000
0100
0000
1000
0001
0000
0001
1000
0000
1000
0000
,  // measure 46
0010
0000
0010
0000
0100
0000
0001
0000
0010
0001
0000
0001
0100
0000
0010
0000
,  // measure 47
2000
0000
0000
0000
0100
0000
0000
0000
0100
0000
0000
0100
3000
0000
0100
0000
,  // measure 48
0010
0001
0100
0010
1000
0100
1000
0000
,  // measure 49
1001
0000
0000
0000
0101
0000
0000
0000
0011
0000
0001
0010
0000
0010
0001
0000
,  // measure 50
0000
0000
0100
0000
0000
0000
0001
0000
0010
0000
0000
0010
0001
0000
0100
0000
,  // measure 51
1010
0000
0000
0000
1100
0000
0000
0000
1001
0000
0001
1000
0000
1000
0001
0000
,  // measure 52
0100
0010
0100
0010
0100
0100
0110
0000
,  // measure 53
1010
0000
0000
0000
0101
0000
0000
0000
0011
0000
0001
0010
0000
0010
0001
0000
,  // measure 54
0000
0000
0001
0000
0000
0000
0100
0000
0010
0000
0000
0010
0100
0000
0100
0000
,  // measure 55
0101
0000
0000
0000
1010
0000
0000
0000
0110
0000
0010
0100
0000
0100
0010
0000
,  // measure 56
1000
0010
0001
0100
1000
0000
0001
0000
,  // measure 57
2002
0000
0000
0000
,  // measure 58
0000
0000
0000
0000
,  // measure 59
3003
0000
0000
0000
;
