#TITLE:Automagic;
#SUBTITLE:;
#ARTIST:Televisor;
#TITLETRANSLIT:;
#SUBTITLETRANSLIT:;
#ARTISTTRANSLIT:;
#GENRE:Nu Disco;
#CREDIT:;
#BANNER:[Round 2] - Automagic.png;
#BACKGROUND:[Round 2] - Automagic-bg.png;
#LYRICSPATH:;
#CDTITLE:cdtitle.png;
#MUSIC:[Round 2] - Automagic.ogg;
#OFFSET:-1.465147;
#SAMPLESTART:32.185150;
#SAMPLELENGTH:15.360001;
#SELECTABLE:YES;
#BPMS:0.000000=124.999992
;
#STOPS:
;
#BGCHANGES:;
#KEYSOUNDS:;
#ATTACKS:;

//---------------dance-single - ----------------
#NOTES:
     dance-single:
     10-14:
     Challenge:
     10:
     0.566473,0.653331,0.236500,0.346866,0.788333,503.000000,473.000000,30.000000,44.000000,29.000000,0.000000,0.566473,0.653331,0.236500,0.346866,0.788333,503.000000,473.000000,30.000000,44.000000,29.000000,0.000000:
// measure 0
0000
0000
0000
0000
,  // measure 1
0000
0000
0000
0000
,  // measure 2
0000
0000
0000
0000
,  // measure 3
0000
0000
0000
0000
,  // measure 4
0001
0000
0000
0000
0100
0000
0000
2100
0000
0000
0000
0000
3001
0000
0000
0000
,  // measure 5
1000
0000
0000
0000
0100
0000
0000
0102
0000
0000
0000
0000
1003
0000
0000
0000
,  // measure 6
0001
0000
0000
0000
0010
0000
0000
2010
0000
0000
0000
0000
3001
0000
0000
0000
,  // measure 7
1000
0000
0000
0000
0000
0000
0000
0000
0010
0000
0000
0000
0000
0000
0012
0000
0000
0000
0000
0000
0000
0000
0000
0003
000M
0000
0000
0000
0000
0000
0000
0000
,  // measure 8
0001
0000
1000
0010
0100
0000
0010
0000
1020
0000
0030
1000
0010
0000
0100
0000
,  // measure 9
0102
0000
0003
0100
0000
0100
0001
0010
0000
0000
0000
0010
0001
0000
0100
0000
,  // measure 10
0010
0000
0000
0010
1000
0001
1000
0200
0000
0000
0000
0000
0001
0000
0000
0000
,  // measure 11
2300
0000
0000
0000
3010
0000
0000
2020
0000
3030
0000
0001
0100
0000
0010
0000
,  // measure 12
1000
0000
0001
0010
0100
0000
0010
0000
0021
0000
0030
0001
0010
0000
0100
0000
,  // measure 13
2100
0000
3000
0100
0000
0100
1000
0010
0000
0000
0000
0010
1000
0000
0001
0000
,  // measure 14
0010
0000
0000
0010
0001
1000
0001
0200
0000
0000
0000
0000
1000
0000
0000
0000
,  // measure 15
0302
0000
0000
0000
0013
0000
0000
0010
0000
0001
0000
1000
0010
0000
0010
1000
,  // measure 16
0001
0000
1000
0000
0100
0000
0010
0000
0200
0000
0000
0000
1300
0000
0100
0010
,  // measure 17
0000
0001
0100
0010
0000
1000
0010
0100
0020
0000
0000
0000
1030
0010
0000
0002
,  // measure 18
0000
0000
0000
0000
0013
0000
1000
0010
1000
0000
0100
0000
0010
0000
0002
0000
,  // measure 19
0000
0103
0001
1000
0000
0100
1000
0002
0000
0000
0103
0010
1000
0000
0001
0010
,  // measure 20
0000
0000
0010
0000
1001
0000
0001
0000
0200
0000
0000
0000
0301
0000
0100
0010
,  // measure 21
0000
1000
0100
0010
0000
0001
0010
0100
0020
0000
0000
0000
0031
0010
0000
2000
,  // measure 22
0000
0000
0000
0000
3010
0000
0001
0010
0001
0000
0100
0000
0010
1000
0010
1000
,  // measure 23
0002
0000
0003
0000
2002
0000
3003
0000
0001
1000
0001
1000
0100
0000
0010
0001
,  // measure 24
1000
0000
0001
0100
0001
0000
0010
0000
0001
0100
M00M
0100
1000
0001
0000
0001
,  // measure 25
0010
0000
0001
0000
1000
0001
1000
0100
M00M
0100
0000
0001
1000
0001
0000
0010
,  // measure 26
0001
0000
1000
0100
1000
0000
0010
0000
1000
0100
M00M
0100
0001
1000
0000
1000
,  // measure 27
0010
0000
1000
0000
0001
1000
0001
0100
M00M
0100
0000
1000
0001
1000
0000
0010
,  // measure 28
0100
0000
0010
1000
0010
0000
1000
0000
0001
0010
M00M
0010
1000
0100
0000
0100
,  // measure 29
1000
0000
0001
0000
1000
0100
1000
0010
M00M
0010
0000
0001
1000
0010
0000
1000
,  // measure 30
0100
0000
0000
0100
0000
0000
0010
0000
0000
0010
0000
0100
0000
0010
0000
0000
,  // measure 31
0011
0000
0000
1100
0000
0000
0011
0000
0000
1000
0010
0100
0001
0000
0010
0100
,  // measure 32
1000
0000
0001
0000
0101
0000
0000
0000
0110
0000
0010
0100
0001
0000
0000
0000
,  // measure 33
1001
0000
0001
1000
0100
0010
0000
0001
0010
0001
0100
0000
1000
0000
0100
0000
,  // measure 34
0001
0000
0010
0000
0110
0000
0000
0000
0011
0000
0010
0001
1000
0000
0000
0000
,  // measure 35
1001
0000
0001
0100
0010
1000
0000
0100
0010
0001
0000
0100
0010
0000
1000
0000
,  // measure 36
0001
0000
1000
0000
1100
0000
0000
0000
0110
0000
0010
0100
1000
0000
0000
0000
,  // measure 37
1001
0000
1000
0001
0100
0010
0000
1000
0010
1000
0100
0000
0001
0000
0100
0000
,  // measure 38
1000
0000
0010
0000
0110
0000
0000
0000
1010
0000
0010
1000
0001
0000
0000
0000
,  // measure 39
1001
0000
1000
0100
0010
0001
0000
0100
0010
0000
0010
1000
0002
0000
0000
0000
,  // measure 40
1003
0100
1000
0100
0010
0100
0010
0100
1000
0001
0000
0200
0000
0301
0100
0010
,  // measure 41
0100
0001
0000
1000
0000
0100
0000
0010
0001
1000
0010
0000
0200
0000
0310
0100
,  // measure 42
0010
0000
0000
1010
0000
0010
0000
0102
0000
0000
0013
0000
0011
0000
0100
2000
,  // measure 43
0000
0000
0000
0000
3001
0000
0400
0040
0000
0000
0000
0000
0000
0000
0330
0000
,  // measure 44
2000
0000
0000
3010
0000
0010
1000
0200
0000
0000
0301
0000
0100
1000
0000
0020
,  // measure 45
0000
0000
1030
0000
0010
0001
0010
2000
0000
0000
3100
0010
0001
0000
0100
0010
,  // measure 46
2000
0000
0000
0000
3100
0000
1000
0001
1000
0000
0001
0100
0000
0000
1001
0000
,  // measure 47
0001
0100
0001
0000
1000
0100
1000
0200
0000
0310
0000
0010
0100
0000
0000
0000
,  // measure 48
0010
0000
0001
1000
0001
0000
0100
0000
0001
0100
M00M
0100
1000
0010
0000
0010
,  // measure 49
0001
0000
0010
0000
1000
0010
1000
0100
M00M
0100
0000
0001
0010
0001
0000
1000
,  // measure 50
0010
0000
1000
0001
1000
0000
0100
0000
1000
0100
M00M
0100
0001
0010
0000
0010
,  // measure 51
1000
0000
0010
0000
0001
0010
0001
0100
M00M
0100
0000
1000
0010
1000
0000
0001
,  // measure 52
0010
0000
0100
1000
0010
0000
0100
0000
0001
0010
M00M
0010
1000
0100
0000
0100
,  // measure 53
0001
0000
0100
0000
1000
0100
1000
0010
M00M
0010
0000
0001
0100
0010
0000
1000
,  // measure 54
0010
0000
0100
0001
0010
0000
0100
0000
1000
0010
M00M
0010
0001
0100
0000
0100
,  // measure 55
1000
0000
0100
0000
0001
0100
0001
0010
M00M
0010
0000
1000
0100
0010
0000
0010
,  // measure 56
0002
0000
0000
0000
0103
0000
0000
2000
0000
0000
0000
0000
3000
0000
0000
0000
,  // measure 57
2000
0000
0000
0000
3100
0000
0000
0002
0000
0000
0000
0000
0003
0000
0000
0000
,  // measure 58
0002
0000
0000
0000
0013
0000
0000
2000
0000
0000
0000
0000
3000
0000
0000
0000
,  // measure 59
2000
0000
0000
0000
3010
0000
0000
0002
0000
0000
0000
0000
0000
0000
0000
0000
,  // measure 60
0000
0000
0000
0000
,  // measure 61
0000
0000
0000
0000
,  // measure 62
0000
0000
0000
0000
,  // measure 63
0000
0000
0000
0003
;

//---------------dance-single - ----------------
#NOTES:
     dance-single:
     08-11:
     Hard:
     8:
     0.376147,0.427178,0.126133,0.307450,0.283800,334.000000,318.000000,16.000000,39.000000,1.000000,0.000000,0.376147,0.427178,0.126133,0.307450,0.283800,334.000000,318.000000,16.000000,39.000000,1.000000,0.000000:
// measure 0
0000
0000
0000
0000
,  // measure 1
0000
0000
0000
0000
,  // measure 2
0000
0000
0000
0000
,  // measure 3
0000
0000
0000
0000
,  // measure 4
0001
0000
0000
0000
0100
0000
0000
0002
0000
0000
0000
0000
0100
0000
0000
0000
,  // measure 5
1003
0000
0000
0000
0100
0000
0000
2000
0000
0000
0000
0000
0100
0000
0000
0000
,  // measure 6
3001
0000
0000
0000
0010
0000
0000
0002
0000
0000
0000
0000
0010
0000
0000
0000
,  // measure 7
1003
0000
0000
0000
0000
0000
0000
0000
0010
0000
0000
0000
0000
0000
2000
0000
0000
0000
0000
0000
0000
0000
0000
3000
M000
0000
0000
0000
0000
0000
0000
0000
,  // measure 8
1000
0000
0000
1000
0010
0000
0000
0000
2000
0000
0000
3100
0000
0000
1000
0000
,  // measure 9
0200
0000
0000
0310
0000
0000
0000
0011
0000
0000
0000
0001
0000
0000
0001
0000
,  // measure 10
0100
0000
1000
0100
0002
0000
0010
0000
,  // measure 11
2003
0000
0000
0000
3010
0000
0000
0110
0000
0000
0000
0010
0000
0000
1000
0000
,  // measure 12
0001
0000
0000
0001
0010
0000
0000
0000
0002
0000
0000
0103
0000
0000
0001
0000
,  // measure 13
0200
0000
0000
0310
0000
0000
0000
1010
0000
0000
0000
1000
0000
0000
1000
0000
,  // measure 14
0100
0000
0001
0100
2000
0000
0010
0000
,  // measure 15
3002
0000
0000
0000
0013
0000
0000
0200
0000
0000
0000
0000
0010
0000
0310
0000
,  // measure 16
0000
0000
0010
0000
0001
0000
1000
0000
0020
0000
0000
0000
1030
0000
0000
0010
,  // measure 17
0000
0100
0000
0010
0000
0000
1000
0000
0200
0000
0000
0000
0301
0000
0000
0210
,  // measure 18
0000
0000
1300
0100
0010
0001
0100
0020
,  // measure 19
0000
0000
1030
0000
0001
0000
0000
0020
0000
0000
0031
0000
1000
0000
0000
0010
,  // measure 20
0000
0000
0010
0000
1000
0000
0001
0000
0020
0000
0000
0000
0031
0000
0000
0010
,  // measure 21
0000
0100
0000
0010
0000
0000
0001
0000
0200
0000
0000
0000
1300
0000
0000
0210
,  // measure 22
0000
0000
0301
0100
0010
1000
0100
0010
,  // measure 23
0002
0000
0203
0000
0310
1000
0100
0010
,  // measure 24
0001
0000
0011
0000
0010
0001
0100
0000
,  // measure 25
0001
0000
0100
0000
0010
0000
0100
0000
0001
0000
1000
0000
0100
0010
0000
0100
,  // measure 26
1000
0000
1010
0000
0010
1000
0100
0000
,  // measure 27
1000
0000
0100
0000
0010
0000
0100
0000
1000
0000
0001
0000
0100
0010
0000
0100
,  // measure 28
0001
0000
1001
0000
1000
0001
1000
0000
,  // measure 29
0010
0000
1000
0000
0100
0000
0010
0000
0001
0000
0100
0000
0010
1000
0000
0020
,  // measure 30
0200
0000
0000
0300
0000
0000
0030
0000
,  // measure 31
1010
0000
0000
1001
0000
0000
1100
0000
0000
0000
0001
0000
0010
0000
0100
0000
,  // measure 32
1000
0000
1000
0000
0010
0000
0000
0000
1000
0000
0000
1000
0100
0000
0000
0000
,  // measure 33
0010
0000
0000
0010
0100
0000
0000
0000
1000
0000
0000
0010
0000
0000
0100
0000
,  // measure 34
0001
0000
0001
0000
0010
0000
0000
0000
0001
0000
0000
0001
0100
0000
0000
0000
,  // measure 35
0010
0000
0000
0010
0100
0000
0000
0000
0001
0000
0000
0001
0100
0000
0010
0000
,  // measure 36
1000
0000
1000
0000
0100
0000
0000
0000
0010
0000
0000
0100
1000
0000
0000
0000
,  // measure 37
0010
0000
0000
0100
0001
0000
0000
0000
0010
0000
0000
0100
0000
0000
1000
0000
,  // measure 38
0001
0000
0001
0000
0100
0000
0000
0000
0010
0000
0000
1000
0100
0000
0000
0000
,  // measure 39
0010
0000
0000
0001
0100
0000
0000
0000
0001
0000
1000
0000
0001
0000
0000
0000
,  // measure 40
1000
0000
0010
0000
0100
0000
0001
0000
0010
0000
0000
0200
0000
0000
0310
0000
,  // measure 41
0001
0000
0000
1000
0000
1000
0000
0000
0010
0000
0100
0000
0002
0000
0000
1003
,  // measure 42
0000
0000
0000
1000
0000
0100
0000
0001
0000
0000
0001
0000
0100
0000
2000
0000
,  // measure 43
0000
0000
3010
0000
1000
0010
0001
0010
,  // measure 44
2000
0000
0000
3010
0000
0100
0000
0002
0000
0000
0013
0000
0000
0100
0000
2000
,  // measure 45
0000
0000
3001
0000
0000
0100
0000
0020
0000
0000
1000
0000
1030
0000
0001
0000
,  // measure 46
0020
0000
0000
0000
0130
0000
0010
0000
0100
0000
0000
1000
0000
0000
0002
0000
,  // measure 47
0000
0103
1000
0100
0001
1000
1001
0000
,  // measure 48
0001
0000
0011
0000
0010
0100
0001
0000
,  // measure 49
0001
0000
0100
0000
0010
0000
0001
0000
0010
0000
0100
0000
1000
0001
0000
0100
,  // measure 50
0010
0000
1010
0000
0010
0100
1000
0000
,  // measure 51
1000
0000
0100
0000
0010
0000
1000
0000
0010
0000
0100
0000
0001
1000
0000
1000
,  // measure 52
0100
0000
1100
0000
0100
1000
0010
0000
,  // measure 53
0001
0000
0010
0000
1000
0000
0100
0000
1000
0000
0010
0000
1000
0100
0000
0010
,  // measure 54
0001
0000
0101
0000
0100
0001
0020
0000
,  // measure 55
1000
0000
0000
0000
0100
0000
0000
0000
0001
0000
0000
0000
0031
0100
0000
0010
,  // measure 56
1000
0000
0000
0000
0100
0000
0000
0020
0000
0000
0000
0000
0000
0000
0000
0000
,  // measure 57
0031
0000
0000
0000
0100
0000
0000
0020
0000
0000
0000
0000
0000
0000
0000
0000
,  // measure 58
1030
0000
0000
0000
0001
0000
0000
0020
0000
0000
0000
0000
0000
0000
0000
0000
,  // measure 59
0130
0000
0000
0000
1000
0000
0000
0002
0000
0000
0000
0000
0000
0000
0000
0000
,  // measure 60
0000
0000
0000
0000
,  // measure 61
0000
0000
0000
0000
,  // measure 62
0000
0000
0000
0000
,  // measure 63
0000
0000
0000
0003
;

//---------------dance-single - ----------------
#NOTES:
     dance-single:
     05-07:
     Medium:
     5:
     0.315333,0.351793,0.197083,0.110367,0.003942,280.000000,255.000000,25.000000,14.000000,0.000000,0.000000,0.315333,0.351793,0.197083,0.110367,0.003942,280.000000,255.000000,25.000000,14.000000,0.000000,0.000000:
// measure 0
0000
0000
0000
0000
,  // measure 1
0000
0000
0000
0000
,  // measure 2
0000
0000
0000
0000
,  // measure 3
0000
0000
0000
0000
,  // measure 4
1000
0100
2000
0100
,  // measure 5
3001
0100
0002
0100
,  // measure 6
1003
0010
2000
0010
,  // measure 7
3001
0010
0002
0003
,  // measure 8
0001
0011
1000
1100
,  // measure 9
0001
0000
0010
0000
0100
0000
0100
0010
,  // measure 10
0001
0000
0001
0100
0020
0000
1030
0000
,  // measure 11
0001
0000
0011
0000
1010
0000
1000
0010
,  // measure 12
1000
1010
0001
0101
,  // measure 13
1000
0000
0010
0000
0100
0000
0100
0010
,  // measure 14
1000
0000
1000
0100
0020
0000
0031
0000
,  // measure 15
1000
0000
1010
0000
0011
0000
1000
1000
,  // measure 16
0001
0000
0100
0010
0100
0000
0001
0000
,  // measure 17
0010
0100
0010
0000
0100
0000
1000
0100
,  // measure 18
0001
0100
1000
0010
,  // measure 19
0100
0001
0010
0000
0001
0000
0100
0010
,  // measure 20
1000
1001
0100
1000
,  // measure 21
0010
0100
0010
0000
0100
0000
0001
0100
,  // measure 22
1000
0000
0100
0000
0001
0000
0010
0001
,  // measure 23
1000
0000
1001
0000
1000
0100
0010
0000
,  // measure 24
0001
0000
0100
0000
0001
0100
0010
0000
,  // measure 25
0010
0100
0001
0000
0010
0000
0001
0000
,  // measure 26
1000
0000
0100
0000
1000
0100
0010
0000
,  // measure 27
0010
0100
1000
0000
0010
0000
1000
0000
,  // measure 28
0001
0000
0010
0000
0100
0010
0001
0000
,  // measure 29
1000
0010
0100
0000
0010
0000
1000
0000
,  // measure 30
2002
0000
0000
3000
0000
0000
0003
0000
,  // measure 31
0010
0000
0000
0010
0000
0000
0010
0000
0000
0000
0000
0000
0110
0000
0000
0000
,  // measure 32
0001
0101
1000
1001
,  // measure 33
0100
0000
1100
0000
0001
0010
0001
0000
,  // measure 34
1000
1100
0001
1001
,  // measure 35
0100
0000
0101
0000
1000
0010
1000
0000
,  // measure 36
0001
0011
1000
1001
,  // measure 37
0010
0000
1010
0000
0001
0100
0010
0000
,  // measure 38
1000
1010
0001
1001
,  // measure 39
0010
0000
0011
0000
1000
0100
0010
0000
,  // measure 40
0001
0000
0001
0000
0001
0000
0100
0010
,  // measure 41
1000
0000
1000
0000
0100
0010
0001
0000
,  // measure 42
0100
0000
1000
0000
1000
0100
0001
0000
,  // measure 43
0020
0000
0000
0000
1030
0010
0001
0000
,  // measure 44
1000
0000
0010
1000
0001
0000
0010
0001
,  // measure 45
1000
0000
0100
1000
0001
0000
0100
0000
,  // measure 46
0020
0000
0130
0100
,  // measure 47
0001
1000
0100
0000
0010
0000
0110
0000
,  // measure 48
0001
0000
0100
0000
1000
0100
0001
0000
,  // measure 49
0100
0001
0010
0000
0100
0000
0100
0000
,  // measure 50
1000
0000
0100
0000
0001
0100
1000
0000
,  // measure 51
0100
1000
0010
0000
0100
0000
0100
0000
,  // measure 52
0001
0000
0010
0000
0001
0010
1000
0000
,  // measure 53
0010
1000
0100
0000
0001
0000
0001
0000
,  // measure 54
1000
0000
0010
0000
1000
0010
0001
0000
,  // measure 55
0010
0001
0100
0000
1000
0000
1000
0000
,  // measure 56
0010
0100
0020
0000
,  // measure 57
1030
0001
2000
0000
,  // measure 58
3100
0010
0200
0000
,  // measure 59
0301
1000
0002
0000
,  // measure 60
0000
0000
0000
0000
,  // measure 61
0000
0000
0000
0000
,  // measure 62
0000
0000
0000
0000
,  // measure 63
0000
0000
0000
0003
;

//---------------dance-single - ----------------
#NOTES:
     dance-single:
     03-04:
     Easy:
     3:
     0.181317,0.226153,0.023650,0.141900,0.000000,161.000000,158.000000,3.000000,18.000000,0.000000,0.000000,0.181317,0.226153,0.023650,0.141900,0.000000,161.000000,158.000000,3.000000,18.000000,0.000000,0.000000:
// measure 0
0000
0000
0000
0000
,  // measure 1
0000
0000
0000
0000
,  // measure 2
0000
0000
0000
0000
,  // measure 3
0000
0000
0000
0000
,  // measure 4
1000
0100
2000
0000
,  // measure 5
3001
0100
0002
0000
,  // measure 6
1003
0010
2000
0000
,  // measure 7
3001
0010
0002
0003
,  // measure 8
0100
0000
0010
0000
,  // measure 9
0100
0010
1000
0001
,  // measure 10
0010
0000
0100
0000
,  // measure 11
1000
0001
1000
0000
,  // measure 12
0100
0000
0010
0000
,  // measure 13
0100
0010
0001
1000
,  // measure 14
0010
0000
0100
0000
,  // measure 15
0001
1000
0001
0000
,  // measure 16
0010
0010
0020
0030
,  // measure 17
0100
0010
0001
0100
,  // measure 18
2020
3030
0001
0000
,  // measure 19
0100
0001
1000
0000
,  // measure 20
0010
0010
0020
0030
,  // measure 21
0100
0010
1000
0100
,  // measure 22
0022
0033
1000
0000
,  // measure 23
0010
0010
0010
0010
,  // measure 24
1000
0100
1000
0000
,  // measure 25
0001
0100
0001
0000
,  // measure 26
1000
0010
1000
0000
,  // measure 27
0001
0010
0001
0000
,  // measure 28
0100
0010
0100
0000
,  // measure 29
0001
1000
0001
0000
,  // measure 30
2002
0000
0000
3000
0000
0000
0003
0000
,  // measure 31
0020
0000
0000
0030
0000
0000
0000
0000
,  // measure 32
0001
0001
1000
0000
,  // measure 33
0010
0000
0100
0100
,  // measure 34
0010
1000
1000
0000
,  // measure 35
0001
0000
0010
0100
,  // measure 36
1000
1000
0001
0000
,  // measure 37
0010
0000
0100
0100
,  // measure 38
0010
0001
0001
0000
,  // measure 39
1000
0000
0010
0100
,  // measure 40
0001
0000
0010
0000
,  // measure 41
0100
0000
1000
0000
,  // measure 42
0001
0100
0010
1000
,  // measure 43
0002
0000
1003
0000
,  // measure 44
0100
0000
0010
0000
,  // measure 45
0001
0000
1000
0000
,  // measure 46
0010
0000
0100
0000
,  // measure 47
0010
0010
0010
0000
,  // measure 48
1000
0100
1000
0000
,  // measure 49
0100
0001
0100
0000
,  // measure 50
0001
0010
0001
0000
,  // measure 51
0010
1000
0010
0000
,  // measure 52
0001
0010
0001
0000
,  // measure 53
0100
0001
0100
0000
,  // measure 54
1000
0100
1000
0000
,  // measure 55
0010
1000
0010
0000
,  // measure 56
1000
1000
2000
0000
,  // measure 57
3001
0001
0002
0000
,  // measure 58
1003
1000
2000
0000
,  // measure 59
3001
0001
0002
0000
,  // measure 60
0000
0000
0000
0000
,  // measure 61
0000
0000
0000
0000
,  // measure 62
0000
0000
0000
0000
,  // measure 63
0000
0000
0000
0003
;

//---------------dance-single - ----------------
#NOTES:
     dance-single:
     01-02:
     Beginner:
     1:
     0.121628,0.140717,0.007883,0.094600,0.000000,108.000000,107.000000,1.000000,12.000000,0.000000,0.000000,0.121628,0.140717,0.007883,0.094600,0.000000,108.000000,107.000000,1.000000,12.000000,0.000000,0.000000:
// measure 0
0000
0000
0000
0000
,  // measure 1
0000
0000
0000
0000
,  // measure 2
0000
0000
0000
0000
,  // measure 3
0000
0000
0000
0000
,  // measure 4
2000
0000
3000
0000
,  // measure 5
0002
0000
0003
0000
,  // measure 6
2000
0000
3000
0000
,  // measure 7
0002
0000
0003
0000
,  // measure 8
0100
0000
0100
0000
,  // measure 9
0010
0010
0010
0000
,  // measure 10
1000
0000
0001
0000
,  // measure 11
0010
0010
0010
0000
,  // measure 12
0100
0000
0100
0000
,  // measure 13
0010
0010
0010
0000
,  // measure 14
0001
0000
1000
0000
,  // measure 15
0010
0010
0010
0000
,  // measure 16
1000
0000
1000
0000
,  // measure 17
0100
0000
0010
0000
,  // measure 18
0002
0000
0003
0000
,  // measure 19
1000
1000
1000
0000
,  // measure 20
0001
0000
0001
0000
,  // measure 21
0100
0000
0010
0000
,  // measure 22
2000
0000
3000
0000
,  // measure 23
0010
0010
0010
0000
,  // measure 24
1000
0000
1000
0000
,  // measure 25
0100
0000
0100
0000
,  // measure 26
0010
0000
0010
0000
,  // measure 27
0001
0000
0001
0000
,  // measure 28
0100
0000
0100
0000
,  // measure 29
0010
0000
0010
0000
,  // measure 30
2000
0000
3000
0000
,  // measure 31
1001
0000
0000
0000
,  // measure 32
1000
0000
0001
0000
,  // measure 33
1000
0000
0001
0000
,  // measure 34
0010
0000
0100
0000
,  // measure 35
0010
0000
0100
0000
,  // measure 36
1000
0000
0001
0000
,  // measure 37
1000
0000
0001
0000
,  // measure 38
0100
0000
0010
0000
,  // measure 39
0100
0000
0010
0000
,  // measure 40
1000
0000
1000
0000
,  // measure 41
0100
0000
0010
0000
,  // measure 42
0001
0000
0001
0001
,  // measure 43
0002
0000
0003
0000
,  // measure 44
0100
0000
0100
0000
,  // measure 45
0010
0000
0010
0000
,  // measure 46
1000
0000
0001
0000
,  // measure 47
0010
0010
0010
0000
,  // measure 48
0001
0000
0001
0000
,  // measure 49
0100
0000
0100
0000
,  // measure 50
1000
0000
1000
0000
,  // measure 51
0010
0000
0010
0000
,  // measure 52
0001
0000
0001
0000
,  // measure 53
0100
0000
0100
0000
,  // measure 54
1000
0000
1000
0000
,  // measure 55
0010
0000
0010
0000
,  // measure 56
0002
0000
0003
0000
,  // measure 57
2000
0000
3000
0000
,  // measure 58
0002
0000
0003
0000
,  // measure 59
2000
0000
3000
0000
;
