#VERSION:0.83;
#TITLE:e-motion;
#SUBTITLE:(RAVING RAVE mix);
#ARTIST:e.o.s rmx by megawolf77;
#TITLETRANSLIT:;
#SUBTITLETRANSLIT:;
#ARTISTTRANSLIT:;
#GENRE:;
#ORIGIN:;
#CREDIT:;
#BANNER:;
#BACKGROUND:;
#PREVIEWVID:;
#JACKET:;
#CDIMAGE:;
#DISCIMAGE:;
#LYRICSPATH:;
#CDTITLE:;
#MUSIC:e-motion.ogg;
#OFFSET:-0.034000;
#SAMPLESTART:25.691566;
#SAMPLELENGTH:12.000000;
#SELECTABLE:YES;
#BPMS:0.000=144.986;
#STOPS:;
#DELAYS:;
#WARPS:;
#TIMESIGNATURES:0.000=4=4;
#TICKCOUNTS:0.000=4;
#COMBOS:0.000=1;
#SPEEDS:0.000=1.000=0.000=0;
#SCROLLS:0.000=1.000;
#FAKES:;
#LABELS:0.000=Song Start;
#BGCHANGES:;
#KEYSOUNDS:;
#ATTACKS:
;

//---------------dance-single - ----------------
#NOTEDATA:;
#CHARTNAME:;
#STEPSTYPE:dance-single;
#DESCRIPTION:;
#CHARTSTYLE:;
#DIFFICULTY:Hard;
#METER:9;
#RADARVALUES:0.646998,0.781364,0.045747,0.128093,0.622164,495.000000,490.000000,5.000000,14.000000,0.000000,0.000000,0.000000,0.000000,0.000000,0.646998,0.781364,0.045747,0.128093,0.622164,495.000000,490.000000,5.000000,14.000000,0.000000,0.000000,0.000000,0.000000,0.000000;
#CREDIT:TonyAkita;
#NOTES:
// measure 0
0000
0000
0000
0000
,  // measure 1
0000
0000
0000
0000
,  // measure 2
0000
0000
0000
0000
,  // measure 3
0000
0000
0000
0000
,  // measure 4
1000
0100
0010
0001
,  // measure 5
0200
0000
0000
0000
0000
0000
0000
0000
0010
0000
0000
0010
0000
0000
0001
0000
,  // measure 6
0301
0100
0010
1000
,  // measure 7
0100
0010
0001
1000
,  // measure 8
0002
0000
0000
0100
0000
0000
0000
0000
,  // measure 9
1003
0100
0001
1000
0010
0001
1000
0100
,  // measure 10
0020
0000
0000
0001
0000
0000
0000
0000
,  // measure 11
0031
0010
1000
0001
0100
1000
0001
0010
,  // measure 12
0100
0000
0000
0000
0000
0000
1000
0001
1000
0000
0000
0000
0000
0000
0010
0000
,  // measure 13
0010
0000
0000
0000
0000
0000
0000
0000
1000
0000
0000
0100
0000
0000
0010
0000
,  // measure 14
0001
0000
0000
0000
0000
0000
1000
0001
1000
0000
0000
0000
0000
0000
0001
0000
,  // measure 15
0100
0000
0010
0000
1000
0010
1000
0010
0100
0000
0000
1001
0000
0000
0110
0000
,  // measure 16
0011
0000
0000
0000
0000
0000
1000
0001
0100
0000
0000
0000
0000
0000
0000
0000
,  // measure 17
0001
0000
0010
0000
0001
0000
1000
0000
0010
0000
0100
0000
0001
0000
1000
0001
,  // measure 18
0100
0000
0010
0000
0100
0000
0001
0000
1000
0000
0100
0000
0010
0000
0001
1000
,  // measure 19
0100
0000
0010
0000
0010
0000
0001
1000
0100
0000
0010
0000
0001
0000
1000
0000
,  // measure 20
0010
1000
0000
0010
1000
0000
0001
1000
0000
0000
0001
0000
0010
0000
0100
0000
,  // measure 21
1000
0100
0000
1000
0100
0000
1000
0001
0000
0000
1000
0000
0001
1000
0100
0000
,  // measure 22
0010
0001
0000
0010
0001
0000
1000
0001
0000
0000
1000
0000
0010
0000
0100
0000
,  // measure 23
0001
0100
0000
0001
0100
0000
0001
1000
0000
0000
0001
0000
1000
0001
0100
0000
,  // measure 24
0010
1000
0000
0001
1000
0000
0010
1000
0000
0000
0001
0000
1000
0000
0100
0000
,  // measure 25
0010
0001
0000
1000
0001
0000
0010
0001
0000
0000
1000
0000
0001
0100
0010
0000
,  // measure 26
1000
0010
0000
0100
0010
0000
1000
0010
0000
0000
1000
0000
0001
0000
0010
0000
,  // measure 27
0100
0010
0000
0001
0010
0000
0100
0010
0000
0000
0001
0000
1000
0010
0100
0000
,  // measure 28
0001
0000
0100
0000
0001
0000
0010
0000
0100
0000
1000
0000
0001
0100
0010
0000
,  // measure 29
1000
0000
0010
0000
0100
0000
0001
0000
0100
0000
0010
0000
1000
0001
0100
0000
,  // measure 30
0001
0000
0010
0000
0001
0000
0100
0000
0010
0000
1000
0000
0001
0010
0100
0000
,  // measure 31
1000
0000
0100
0000
0010
0000
0001
0000
1000
0010
1000
0010
1000
0001
1000
0001
,  // measure 32
1000
0000
0100
0000
0001
0000
0100
0000
1000
0000
0001
0000
0100
0010
1000
0000
,  // measure 33
0001
0000
0010
0000
1000
0000
0010
0000
0001
0000
1000
0000
0010
0100
0001
0000
,  // measure 34
1000
0100
0001
0100
1000
0010
0001
0010
,  // measure 35
1000
0010
1000
0000
0001
1000
0001
0000
1000
0010
0100
0001
1000
0100
0010
0001
,  // measure 36
0010
0001
0010
0001
1000
0000
0001
1000
0000
0010
1000
0000
0001
1000
0010
0000
,  // measure 37
0100
0001
0100
0001
1000
0000
0001
1000
0000
0100
1000
0000
0001
1000
0100
0000
,  // measure 38
0010
0001
0010
0001
1000
0000
0010
1000
0000
0010
0100
0000
0001
1000
0010
0000
,  // measure 39
0100
0001
0100
0001
1000
0000
0001
1000
0001
1000
0010
0000
1000
0000
0001
0000
,  // measure 40
0010
0001
0010
0000
0100
0010
0100
0000
1000
0100
1000
0100
0010
0000
0001
0000
,  // measure 41
1000
0010
1000
0000
0010
0100
0010
0000
0100
0001
0100
0001
1000
0000
0100
0000
,  // measure 42
0010
0001
0010
0000
0001
0000
1000
0000
0010
1000
0010
0000
1000
0000
0001
0000
,  // measure 43
1000
0100
0010
0000
0001
0100
0010
0000
1000
0100
0010
0001
1000
0010
0100
0001
,  // measure 44
2000
0000
0001
0000
3001
0000
1000
0000
0010
0100
0000
0100
0000
0000
0010
0100
,  // measure 45
0002
0000
1000
0000
1003
0000
0001
0000
0010
0100
0000
0100
0000
0000
0010
0100
,  // measure 46
0020
0000
0001
0000
0031
0000
1000
0000
0010
0100
0000
0100
0000
0000
0001
1000
,  // measure 47
0020
0000
1000
0000
1030
0000
0001
0000
0010
0100
0000
0100
0000
0000
1000
0001
,  // measure 48
0020
0000
0100
0000
0130
0000
0010
0000
0001
1000
0000
1000
0000
0000
0001
0010
,  // measure 49
0200
0000
0010
0000
0310
0000
0100
0000
1000
0001
0000
0001
0000
0000
1000
0010
,  // measure 50
0200
0000
0001
0000
0301
0000
1000
0000
0100
0010
0000
0010
0000
0000
0001
1000
,  // measure 51
0200
0000
1000
0000
1300
0000
0001
0000
0100
0010
0000
0010
0000
0000
1000
0001
,  // measure 52
0200
0000
0000
0300
,  // measure 53
1002
0000
0000
0000
0010
0000
0000
0013
0000
0000
0001
0000
0000
0000
1000
0000
,  // measure 54
0001
0000
0000
0010
0100
0000
1000
0000
0000
0010
0100
0000
0001
0000
1000
0000
,  // measure 55
2010
0000
0000
0000
0001
0000
0000
3001
0000
0000
1000
0000
0000
0000
0001
0000
,  // measure 56
0100
0000
0000
0001
1000
0000
0010
0000
0000
1000
0001
0000
0100
0000
0001
1000
,  // measure 57
0001
0000
0010
0000
0100
1000
0100
1000
0100
0000
0010
0000
0001
0010
0001
0010
,  // measure 58
0001
0000
1000
0000
0010
1000
0010
1000
0010
0000
0100
0000
0001
0100
0001
0100
,  // measure 59
0001
0000
1000
0000
0100
0010
0001
0010
0100
0000
1000
0000
0001
0100
0010
0100
,  // measure 60
0001
0000
1000
0000
0100
0001
0100
1000
0100
0000
0010
0000
0001
0010
1000
0010
,  // measure 61
0001
0000
0000
0000
;
