#TITLE:WHOOMP!;
#SUBTITLE:(THERE IT IS);
#ARTIST:TAG TEAM;
#TITLETRANSLIT:;
#SUBTITLETRANSLIT:;
#ARTISTTRANSLIT:;
#CREDIT:;
#BANNER:;
#BACKGROUND:;
#LYRICSPATH:;
#CDTITLE:cdtitle.png;
#MUSIC:Whoomp! (There It Is).ogg;
#OFFSET:-2.160;
#SAMPLESTART:31.820;
#SAMPLELENGTH:12.000;
#SELECTABLE:YES;
#BPMS:0.000=129.400;
#STOPS:;
#BGCHANGES:;

//---------------dance-single - ----------------
#NOTES:
     dance-single:
     :
     Hard:
     7:
     0.511,0.518,0.333,0.031,0.094:
0000
0000
0000
0000
,
0000
0000
0000
0000
,
0000
0000
0000
0000
,
0000
0000
0000
0000
,
1001
0000
1000
0100
0010
0001
1000
0000
,
1001
0000
0001
0100
0010
1000
0001
0000
,
1001
0000
1000
0100
0001
0100
1000
0000
,
1001
0000
0001
0010
1000
0010
0001
0000
,
1001
0000
0000
0000
1100
0000
0000
0000
1000
0000
0100
1000
0000
0000
0000
0000
,
0100
0000
1000
0000
0100
0000
0010
0000
0001
0000
0100
0001
0000
0000
0100
0000
,
1000
0000
0100
0000
0001
0000
0100
0000
0010
0000
1000
0001
0000
0000
1000
0000
,
1000
0000
0001
1000
0001
0000
1001
0000
1001
0000
1000
0001
0000
0000
1000
0000
,
0010
0100
0001
0000
0001
0100
0010
1000
,
0001
0000
0010
0000
0001
0000
1000
0000
0001
0000
0100
0001
0000
0000
0000
0000
,
0001
1000
0001
0100
0010
1000
0001
0000
,
1001
0000
1000
0100
0010
0100
1000
0001
,
1001
0000
1000
0100
0010
1000
0100
0000
,
1001
0000
0001
0100
0010
0001
0100
0000
,
1001
0000
1000
0100
0010
1000
0100
0000
,
1001
0000
0001
0100
0010
0001
0100
0000
,
1001
0000
1000
0010
0100
1000
0010
0000
,
1001
0000
0001
0010
0100
0001
0010
0000
,
1001
0000
1000
0010
0100
1000
0010
0000
,
1001
0000
0001
0010
0100
0001
0010
0000
,
1000
0000
0010
0000
0100
0000
0001
0010
0000
0100
0000
0010
0000
0000
0001
0000
,
0100
0000
1000
0000
0100
0000
0001
0000
1000
0000
0001
1000
0000
0001
0000
0000
,
1000
0000
0100
0000
0010
0000
0100
0000
1000
0000
0010
0100
0000
0000
0001
0000
,
0010
0000
0001
0000
0010
0001
0000
0000
0100
0000
0010
1000
0000
0000
0000
0000
,
1000
0000
0010
0000
0100
0000
0001
0000
2000
0000
0000
3100
0000
0000
0001
0000
,
2000
0000
0000
3100
0000
0000
0001
0000
2000
0000
0000
3001
0000
0000
1000
0000
,
0001
0000
0010
0000
0100
0000
0010
0000
0001
0000
1000
0001
0000
0000
0000
0000
,
1001
0000
1000
0100
0001
0100
1000
0001
,
1001
0000
1000
0100
0001
1000
0100
0000
,
1001
0000
0001
0100
1000
0001
0100
0000
,
1001
0000
1000
0100
0001
1000
0100
0000
,
1001
0000
0001
0100
1000
0001
0100
0000
,
1001
0000
1000
0010
0001
1000
0010
0000
,
1001
0000
0001
0010
1000
0001
0010
0000
,
1001
0000
1000
0010
0001
1000
0010
0000
,
1001
0000
0001
0010
1000
0001
0010
0000
,
0110
0000
0010
1000
0100
1000
0010
1000
,
0100
1000
0010
1000
0100
1000
0010
1000
,
1001
0000
1000
0100
0001
0100
1000
0100
,
0001
0100
1000
0100
0001
0100
1000
0100
,
0110
0000
0100
0001
0010
0001
0100
0001
,
0010
0001
0100
0001
0010
0001
0100
0001
,
1001
0000
0001
0010
1000
0010
0001
0010
,
1000
0010
0001
0010
1000
0010
0001
0010
,
0110
0000
0010
0001
0100
1000
0010
0000
,
0110
0000
0010
0001
0100
1000
0010
0000
;

//---------------dance-double - ----------------
#NOTES:
     dance-double:
     :
     Hard:
     8:
     0.542,0.596,0.323,0.031,0.214: // measure 1
00000000
00000000
00000000
00000000
,  // measure 2
00000000
00000000
00000000
00000000
,  // measure 3
00000000
00000000
00000000
00000000
,  // measure 4
00000000
00000000
00000000
00000000
,  // measure 5
10010000
00000000
10000000
01000000
00010000
00001000
00000100
00000000
,  // measure 6
00001001
00000000
00000001
00000100
00001000
00010000
01000000
00000000
,  // measure 7
10010000
00000000
10000000
00100000
00010000
00001000
00000010
00000001
,  // measure 8
00000100
00000000
00001000
00000000
00010000
00000000
00100000
00000000
10000000
00010000
10000000
00000000
00010000
00000000
00000000
00000000
,  // measure 9
10010000
00000000
00000000
00000000
01010000
00000000
00000000
00000000
01000000
00000000
00001000
00010000
00000000
00000000
00000000
00000000
,  // measure 10
00001000
00000000
00010000
00001000
00010000
00000000
00000100
00000000
00001000
00000000
00000001
00001000
00000000
00000000
00000001
00001000
,  // measure 11
00000001
00000000
00001000
00000001
00001000
00000001
00001000
00000100
00000010
00000000
00000001
00001000
00000000
00000000
00000001
00000000
,  // measure 12
00000001
00000000
00000100
00000010
00000100
00000000
00000110
00000000
00001001
00000000
00000001
00001000
00000000
00000000
00000100
00000000
,  // measure 13
00010000
00001000
01000000
00010000
10000000
00000000
00000000
01000000
00010000
00001000
00010000
00000100
00001000
00000000
00000100
00000000
,  // measure 14
00000010
00000000
00000001
00000000
00001000
00000000
00000010
00000100
00000001
00000000
00001000
00000001
00000000
00000000
00000000
00000000
,  // measure 15
00000100
00000000
00000100
00000000
00000100
00000000
00001000
00000000
00010000
00000000
01000000
10000000
00000000
00010000
00000000
00000000
,  // measure 16
10010000
00000000
10000000
01000000
00010000
01000000
10000000
00010000
,  // measure 17
10010000
00000000
10000000
01000000
00100000
10000000
01000000
00000000
,  // measure 18
10010000
00000000
00010000
01000000
00100000
00010000
01000000
00000000
,  // measure 19
10010000
00000000
10000000
01000000
00010000
10000000
01000000
00000000
,  // measure 20
10010000
00000000
00010000
01000000
10000000
00010000
01000000
00000000
,  // measure 21
10010000
00000000
10000000
00100000
01000000
10000000
00100000
00000000
,  // measure 22
10010000
00000000
00010000
00100000
01000000
00010000
00100000
00000000
,  // measure 23
10010000
00000000
10000000
00100000
00010000
10000000
00100000
00000000
,  // measure 24
10010000
00000000
00010000
00100000
10000000
00010000
00100000
00000000
,  // measure 25
00100000
00000000
10000000
00000000
01000000
00000000
10000000
00100000
00000000
00010000
00000000
00001000
00000000
00000000
00000100
00000000
,  // measure 26
00000001
00000000
00001000
00000001
00001000
00000000
00000001
00001000
00000001
00000000
00001000
00000001
00000000
00001000
00000000
00000000
,  // measure 27
00000001
00000000
00000100
00000000
00000010
00000100
00000010
00000000
00001000
00000000
00000001
00001000
00000000
00000000
00000100
00000000
,  // measure 28
00010000
00000000
00001000
00000000
00100000
01000000
00000000
00000000
10000000
00000000
00010000
10000000
00000000
00000000
00000000
00010000
,  // measure 29
10000000
00010000
01000000
00100000
00000000
10000000
00000000
00010000
20000000
00000000
00000000
31000000
00000000
00000000
00010000
00000000
,  // measure 30
00002000
00000000
00000000
00003100
00000000
00000000
00000001
00000000
00000200
00000000
00000000
00001300
00000000
00000000
00010000
00000000
,  // measure 31
00100000
00000000
10000000
00000000
00100000
00000000
00010000
00000000
00001000
00000000
00000100
00000010
00000000
00000000
00000000
00000000
,  // measure 32
00001001
00000000
00000000
00000000
00001000
00000000
00000100
00000000
00000001
00000000
00000100
00000000
00001000
00000001
00001000
00000000
,  // measure 33
00001001
00000000
00001000
00000100
00000010
00001000
00000100
00000000
,  // measure 34
00001001
00000000
00000001
00000100
00000010
00000001
00000100
00000000
,  // measure 35
00001001
00000000
00001000
00000100
00000001
00001000
00000100
00000000
,  // measure 36
00001001
00000000
00000001
00000100
00001000
00000001
00000100
00000000
,  // measure 37
00001001
00000000
00001000
00000010
00000100
00001000
00000010
00000000
,  // measure 38
00001001
00000000
00000001
00000010
00000100
00000001
00000010
00000000
,  // measure 39
00001001
00000000
00001000
00000010
00000001
00001000
00000010
00000000
,  // measure 40
00001001
00000000
00000001
00000010
00001000
00000001
00000010
00000000
,  // measure 41
00001001
00000000
00000001
00000100
00001000
00000100
00000010
00000100
,  // measure 42
00001000
00010000
01000000
00100000
00010000
00100000
01000000
10000000
,  // measure 43
10010000
00000000
10000000
01000000
00010000
01000000
10000000
01000000
,  // measure 44
00100000
01000000
00010000
00001000
00000100
00000010
00000100
00000001
,  // measure 45
00001001
00000000
00000001
00000010
00001000
00000010
00000001
00000010
,  // measure 46
00000100
00000010
00001000
00010000
01000000
00100000
00010000
10000000
,  // measure 47
10010000
00000000
10000000
00100000
00010000
00100000
10000000
00100000
,  // measure 48
01000000
00100000
00010000
00001000
00000100
00000010
00001000
00000001
,  // measure 49
00001001
00000000
00000001
00000100
00001000
00010000
01000000
00000000
,  // measure 50
10010000
00000000
10000000
01000000
00010000
00001000
00000100
00000000
;

//---------------dance-single - ----------------
#NOTES:
     dance-single:
     :
     Medium:
     6:
     0.411,0.415,0.302,0.188,0.016:
0000
0000
0000
0000
,
0000
0000
0000
0000
,
0000
0000
0000
0000
,
0000
0000
0000
0000
,
1000
1000
0001
0100
,
0001
0000
0001
0100
0000
0100
0001
0000
,
0001
0001
1000
0100
,
1000
0000
1000
0100
0000
0100
1000
0000
,
1001
1001
0001
0100
,
0010
0010
1000
0001
,
1000
1000
0100
0010
,
0001
1000
1001
0100
,
1001
0010
1001
0100
,
0010
1000
0100
0100
,
0010
0010
0010
0000
0001
0000
1000
0000
,
1001
0000
0001
0100
2000
0000
3100
0000
,
1001
0000
1000
0100
0002
0000
0013
0000
,
1001
0000
1000
0100
0002
0000
0013
0000
,
1001
0000
1000
0100
0020
0000
1030
0000
,
1001
0000
1000
0100
0020
0000
1030
0000
,
1001
0000
0001
0100
2000
0000
3010
0000
,
1001
0000
0001
0100
2000
0000
3010
0000
,
1001
0000
0001
0100
0020
0000
0031
0000
,
1001
0000
0001
0100
0020
0000
0031
0000
,
0001
0000
0100
0000
0010
0100
0010
0000
,
0100
0000
0001
0000
1000
0001
1000
0000
,
0010
0000
0100
0000
0001
1000
0001
0000
,
1000
0000
0100
0000
0010
0100
0010
0000
,
0001
0000
0000
0000
1000
0000
0000
0000
0100
0000
0000
0100
0000
0000
0001
0000
,
0100
0000
0000
0100
0000
0000
1000
0000
0100
0000
0000
0100
0000
0000
0000
0000
,
0010
0001
0100
0010
,
1001
0000
1000
0010
0002
0000
0013
0000
,
1001
0000
1000
0010
0002
0000
0103
0000
,
1001
0000
1000
0010
0002
0000
0103
0000
,
1001
0000
1000
0010
0200
0000
1300
0000
,
1001
0000
1000
0010
0200
0000
1300
0000
,
1001
0000
0001
0010
2000
0000
3100
0000
,
1001
0000
0001
0010
2000
0000
3100
0000
,
1001
0000
0001
0010
0200
0000
0301
0000
,
1001
0000
0001
0010
0200
0000
0301
0000
,
1001
0000
1000
0100
1000
0000
0100
0001
,
0100
0000
0001
0010
0001
0000
0010
1000
,
1010
0000
1000
0010
1000
0000
0010
0001
,
0010
0000
0001
0100
0001
0000
0100
1000
,
1100
0000
1000
0100
0001
0000
0100
0001
,
0010
0000
0001
0010
1000
0000
0010
1000
,
1010
0000
1000
0010
0001
0000
0010
0001
,
0100
0000
0001
0100
1000
0000
0100
1000
,
1100
0000
1000
0100
0001
0000
0100
0000
,
1001
0000
1000
0010
0001
0000
0010
0000
;

//---------------dance-single - ----------------
#NOTES:
     dance-single:
     :
     Easy:
     3:
     0.243,0.259,0.021,0.229,0.000:
0000
0000
0000
0000
,
0000
0000
0000
0000
,
0000
0000
0000
0000
,
0000
0000
0000
0000
,
1000
1000
1000
0000
,
0000
0000
0000
0000
,
0001
0001
0001
0000
,
0000
0000
0000
0000
,
1000
0000
1000
0000
,
0100
0010
0100
0000
,
1000
0000
1000
0000
,
0001
0001
0001
0000
,
0100
0000
0100
0000
,
0010
0000
0010
0010
,
1000
0001
1000
0001
,
1001
1000
0002
0003
,
0001
1000
0200
0300
,
0001
1000
0200
0300
,
0100
0001
2000
3000
,
0001
1000
0200
0300
,
1000
0001
0200
0300
,
1000
0001
0200
0300
,
0100
1000
0002
0003
,
1000
0001
0200
0300
,
0001
0010
0001
0010
,
0100
0100
1000
0000
,
1000
0010
1000
1000
,
0001
0001
1000
0000
,
0001
0000
0000
0000
0000
0000
0000
0000
0200
0000
0000
0300
0000
0000
0000
0000
,
2000
0000
0000
3000
0000
0000
0000
0000
0200
0000
0000
0300
0000
0000
0000
0000
,
0001
0001
1000
0010
,
0110
0100
0001
0000
,
0001
1000
0020
0030
,
0001
1000
0020
0030
,
0010
0001
2000
3000
,
0001
1000
0020
0030
,
1000
0001
0020
0030
,
1000
0001
0020
0030
,
0010
1000
0002
0003
,
1000
0001
0020
0030
,
0100
1000
0100
1000
,
0100
1000
0100
1000
,
0100
0001
0100
0001
,
0100
0001
0100
0001
,
0010
0001
0010
0001
,
0010
0001
0010
0001
,
0010
1000
0010
1000
,
0010
1000
0010
1000
,
0001
0010
0200
0300
,
1000
0010
0200
0300
;

//---------------dance-single - ----------------
#NOTES:
     dance-single:
     :
     Beginner:
     1:
     0.153,0.232,0.229,0.000,0.000:
0000
0000
0000
0000
,
0000
0000
0000
0000
,
0000
0000
0000
0000
,
0000
0000
0000
0000
,
0000
0000
0000
0000
,
0000
0000
0000
0000
,
0000
0000
0000
0000
,
0000
0000
0000
0000
,
1000
0000
0000
0000
,
0001
0000
0000
0000
,
1000
0000
0000
0000
,
0001
0000
0000
0000
,
0100
0000
0100
0000
,
0010
0000
0010
0000
,
1000
0000
0000
0000
,
1001
0000
0000
0000
,
1001
0000
1000
0000
,
1001
0000
0001
0000
,
1001
0000
0001
0000
,
1001
0000
1000
0000
,
1001
0000
0100
0000
,
1001
0000
0010
0000
,
1001
0000
0100
0000
,
1001
0000
0010
0000
,
0001
0000
0000
0000
,
0100
0000
0000
0000
,
0010
0000
0000
0000
,
1000
0000
0000
0000
,
0001
0000
1000
0000
,
1000
0000
0001
0000
,
0010
0000
0100
0000
,
1001
0000
0000
0000
,
1001
0000
0001
0000
,
1001
0000
1000
0000
,
1001
0000
1000
0000
,
1001
0000
0001
0000
,
1001
0000
0100
0000
,
1001
0000
0010
0000
,
1001
0000
0010
0000
,
1001
0000
0100
0000
,
1001
0001
0001
0000
,
0100
0100
0100
0000
,
1001
1000
1000
0000
,
0100
0100
0100
0000
,
1001
0001
0001
0000
,
0010
0010
0010
0000
,
1001
1000
1000
0000
,
0010
0010
0010
0000
,
1000
0000
0001
0000
,
0001
0000
1000
0000
;

//---------------dance-double - ----------------
#NOTES:
     dance-double:
     :
     Medium:
     5:
     0.375,0.389,0.281,0.208,0.000:
00000000
00000000
00000000
00000000
,
00000000
00000000
00000000
00000000
,
00000000
00000000
00000000
00000000
,
00000000
00000000
00000000
00000000
,
00011000
00010000
01000000
10000000
,
00100000
00000000
00000000
00100000
00000000
00000000
00010000
00000000
,
00011000
00001000
00000100
00000001
,
00000010
00001000
00000010
00000010
,
00001000
00010000
01000000
10000000
,
10000000
00100000
00010000
00010000
,
00100000
00000000
10000000
00000000
01000000
00000000
00010000
00001000
,
00001000
00000000
00000100
00000001
00000001
00000000
00001001
00000000
,
00000001
00000110
00010000
00011000
,
00010000
01000000
20000000
31000000
,
10000000
10000000
10000000
00000000
00100000
00000000
01000000
00000000
,
00011000
00000000
00010000
00001000
00000200
00000000
00000301
00000001
,
00000101
00000000
00000100
00000001
00000020
00000000
00000030
00000000
,
00000011
00000000
00000001
00000010
00002000
00000000
00003000
00000000
,
00001010
00000000
00000010
00001000
00020000
00000000
00030000
00000000
,
00011000
00000000
00001000
00010000
02000000
00000000
03000000
00000000
,
01010000
00000000
00010000
01000000
20000000
00000000
30000000
00000000
,
11000000
00000000
01000000
10000000
00200000
00000000
00300000
00000000
,
10100000
00000000
10000000
00100000
00020000
00000000
00030000
00000000
,
00110000
00000000
00100000
00010000
00002000
00000000
00003000
00000000
,
00000010
00001000
00010000
00100000
,
00010000
00001000
00000100
00000001
,
00000001
00000100
00001000
00010000
,
01000000
10000000
00100000
10000000
,
01000000
00010000
00001000
00001000
,
00000100
00000100
00000001
00000001
,
00000010
00000100
00001000
00010000
,
01100000
00000000
10000000
01000000
00010000
00000000
00001000
00000000
,
00011000
00000000
00001000
00010000
02000000
00000000
03000000
00000000
,
01100000
00000000
01000000
00010000
00002000
00000000
00003000
00000000
,
00011000
00000000
00010000
00001000
00000200
00000000
00000300
00000000
,
00000110
00000000
00000100
00001000
00020000
00000000
00030000
00000000
,
00011000
00000000
00010000
00100000
02000000
00000000
03000000
00000000
,
01100000
00000000
00100000
00010000
00002000
00000000
00003000
00000000
,
00011000
00000000
00001000
00000010
00000200
00000000
00000300
00000000
,
00000110
00000000
00000010
00001000
00010000
00000000
00000000
00000000
,
00011000
00000000
00010000
00100000
00010000
00000000
00100000
10000000
,
00100000
00000000
10000000
01000000
10000000
00000000
10000000
00010000
,
10000000
00000000
10000000
01000000
10000000
00000000
01000000
00010000
,
01000000
00000000
00010000
00001000
00010000
00000000
00001000
00010000
,
00001000
00000000
00001000
00000100
20001000
30000000
00000100
00000001
,
00000100
00000000
00000001
00000010
00000001
00000000
00000010
00000001
,
00000010
00000000
00000010
00001000
00000010
00000000
00001000
00010000
,
00001000
00000000
00010000
00100000
00010000
00000000
00100000
10000000
,
10010000
00000000
10000000
01000000
00020000
00000000
00030000
00000000
,
00011000
00000000
00001000
00000100
00000002
00000000
00000003
00000000
;

//---------------dance-double - ----------------
#NOTES:
     dance-double:
     :
     Easy:
     4:
     0.283,0.311,0.135,0.240,0.000:
00000000
00000000
00000000
00000000
,
00000000
00000000
00000000
00000000
,
00000000
00000000
00000000
00000000
,
00000000
00000000
00000000
00000000
,
00011000
00010000
00001000
00010000
,
00001000
00000000
00001000
00000000
,
00010000
00001000
01000000
00010000
,
10000000
00000000
00010000
00010000
,
10000000
01000000
10000000
00000000
,
00100000
01000000
00010000
00000000
,
00100000
00001000
00010000
00000000
,
00000010
00010000
00001000
00000000
,
00000010
00001000
00010000
00100000
,
00100000
00010000
00001000
00001000
,
00010000
00000010
00000100
00000001
,
00001001
00001000
00000200
00000300
,
00000110
00000010
00000002
00000003
,
00000100
00001000
00020000
00030000
,
01000000
10000000
00200000
00300000
,
00010000
00001000
00000020
00000030
,
00000110
00000010
00002000
00003000
,
00010000
00100000
20000000
30000000
,
01000000
00010000
00002000
00003000
,
00000100
00000001
00000020
00000030
,
00000001
00000010
00000001
00000100
,
00001000
00000100
00000001
00000000
,
00000001
00000010
00001000
00010000
,
01000000
00100000
00010000
00000000
,
10000000
00100000
20000000
30000000
,
02000000
03000000
00020000
00030000
,
00001000
00010000
00000100
00000010
,
00001001
00000001
00000200
00000300
,
00000101
00000100
00002000
00003000
,
00010000
01000000
00200000
00300000
,
00010000
10000000
00200000
00300000
,
01000000
00001000
00020000
00030000
,
00011000
00010000
00000200
00000300
,
00000010
00000001
00000200
00000300
,
00001000
00010000
00200000
00300000
,
10000000
01000000
00200000
00300000
,
00110000
00010000
10000000
00100000
,
01000000
00001000
00010000
00000100
,
00000110
00000010
00000001
00001000
,
00000010
00000100
00001000
00010000
,
00011000
00010000
00001000
00100000
,
00010000
01000000
00100000
10000000
,
10010000
00010000
00100000
01000000
,
00010000
00001000
00000100
00000001
,
00001001
00000001
00000020
00000130
,
00000110
00001000
00020000
00031000
;
