#VERSION:0.83;
#TITLE:Set Me Up;
#SUBTITLE:;
#ARTIST:Banya;
#TITLETRANSLIT:;
#SUBTITLETRANSLIT:;
#ARTISTTRANSLIT:;
#GENRE:;
#ORIGIN:;
#CREDIT:;
#BANNER:setmeup_bn.png;
#BACKGROUND:setmeup_bg.png;
#PREVIEWVID:;
#JACKET:setmeup_jacket.png;
#CDIMAGE:;
#DISCIMAGE:;
#LYRICSPATH:;
#CDTITLE:cdtitle.png;
#MUSIC:setmeup.ogg;
#OFFSET:0.000000;
#SAMPLESTART:54.000000;
#SAMPLELENGTH:16.000000;
#SELECTABLE:YES;
#BPMS:0.000=120.000;
#STOPS:;
#DELAYS:;
#WARPS:;
#TIMESIGNATURES:0.000=4=4;
#TICKCOUNTS:0.000=4;
#COMBOS:0.000=1;
#SPEEDS:0.000=1.000=0.000=0;
#SCROLLS:0.000=1.000;
#FAKES:;
#LABELS:0.000=Song Start;
#BGCHANGES:;
#KEYSOUNDS:;
#ATTACKS:
;

//---------------dance-single - ----------------
#NOTEDATA:;
#CHARTNAME:;
#STEPSTYPE:dance-single;
#DESCRIPTION:;
#CHARTSTYLE:;
#DIFFICULTY:Beginner;
#METER:1;
#RADARVALUES:0.089286,0.123798,0.028846,0.009615,0.000000,65.000000,62.000000,3.000000,1.000000,0.000000,0.000000,0.000000,0.000000,0.000000,0.089286,0.123798,0.028846,0.009615,0.000000,65.000000,62.000000,3.000000,1.000000,0.000000,0.000000,0.000000,0.000000,0.000000;
#CREDIT:;
#NOTES:
0000
0000
0000
0000
,
0000
0000
0000
0000
,
0000
0000
0000
0000
,
0010
0000
0000
0000
,
0010
0000
0000
0000
,
0100
0000
0000
0000
,
0100
0000
0000
0000
,
0010
0000
0000
0000
,
0010
0000
0000
0000
,
1001
0000
0000
0000
,
0001
0000
1000
0000
,
0010
0000
0000
0000
,
0010
0000
0000
0000
,
0100
0000
0000
0000
,
0100
0000
0000
0000
,
0010
0000
0000
0000
,
0010
0000
0000
0000
,
1001
0000
0000
0000
,
1000
0000
0001
0000
,
0010
0000
0000
0000
,
0001
0000
0000
0000
,
1000
0000
0000
0000
,
0010
0000
0000
0000
,
0100
0000
0000
0000
,
0001
0000
0000
0000
,
1000
0000
0000
0000
,
0001
0000
1000
0000
,
0010
0000
0100
0000
,
0010
0000
1000
0000
,
0100
0000
0010
0000
,
0001
0000
0100
0000
,
0010
0000
0100
0000
,
0001
0000
0010
0000
,
0100
0000
1000
0000
,
0010
0000
0100
0000
,
0010
0000
0000
0000
,
0010
0000
0000
0000
,
0100
0000
0000
0000
,
0100
0000
0000
0000
,
0010
0000
0000
0000
,
0010
0000
0000
0000
,
1001
0000
0000
0000
,
1000
0000
0001
0000
,
0010
0000
0000
0000
,
0001
0000
0000
0000
,
0100
0000
0000
0000
,
0010
0000
0000
0000
,
1000
0000
0000
0000
,
0100
0000
0000
0000
,
0010
0000
0000
0000
,
0001
0000
1000
0000
,
0020
0000
0030
0000
;

//---------------dance-single - ----------------
#NOTEDATA:;
#CHARTNAME:;
#STEPSTYPE:dance-single;
#DESCRIPTION:;
#CHARTSTYLE:;
#DIFFICULTY:Easy;
#METER:3;
#RADARVALUES:0.210165,0.271695,0.057692,0.086538,0.004808,153.000000,147.000000,6.000000,9.000000,0.000000,0.000000,0.000000,0.000000,0.000000,0.210165,0.271695,0.057692,0.086538,0.004808,153.000000,147.000000,6.000000,9.000000,0.000000,0.000000,0.000000,0.000000,0.000000;
#CREDIT:;
#NOTES:
0000
0000
0000
0000
,
0000
0000
0000
0000
,
0000
0000
0000
1000
,
0010
0000
0010
0000
,
0100
0001
0000
1000
,
0100
0000
0100
0000
,
0010
0001
0000
1000
,
0010
0000
0010
0000
,
0100
0001
0010
1000
,
0200
0000
0300
0000
,
0010
0010
0100
0100
,
0010
0000
0010
0000
,
1000
0001
0000
0001
,
0100
0000
0100
0000
,
0100
0001
0000
1000
,
0010
0000
0010
0000
,
0010
1000
0100
0001
,
0020
0000
0030
0000
,
0100
0100
0010
0010
,
2000
3000
0000
0010
,
0100
0000
0100
0001
,
0020
0030
0000
0100
,
1000
0010
0000
0100
,
0002
0003
0000
0010
,
0100
1000
0000
1000
,
0010
0100
0001
1000
,
0100
1100
0001
0101
,
0010
0010
0100
0100
,
1000
0010
0001
0010
,
1000
0100
0001
0010
,
1000
0001
0100
0100
,
0010
0010
0100
0100
,
0001
0010
1000
0010
,
0001
0100
1000
0010
,
0001
1000
0100
0100
,
0010
0000
0010
0000
,
0001
1000
0010
0010
,
0100
0000
0100
0000
,
0100
0001
1000
0100
,
0010
0000
0010
0000
,
0010
0001
0100
1000
,
0020
0000
0030
0000
,
0001
0101
1000
1100
,
0200
0300
0000
1000
,
0001
0100
0000
0010
,
0200
0300
0000
0001
,
1000
0010
0000
1000
,
0002
0003
0000
0001
,
0010
0100
0000
0100
,
1000
0010
0100
0010
,
1000
1010
0001
0011
,
0001
0000
0000
1000
0000
0000
0001
0000
0000
0000
0000
0000
0000
0000
0000
0000
;

//---------------dance-single - ----------------
#NOTEDATA:;
#CHARTNAME:;
#STEPSTYPE:dance-single;
#DESCRIPTION:;
#CHARTSTYLE:;
#DIFFICULTY:Medium;
#METER:5;
#RADARVALUES:0.342033,0.345793,0.096154,0.125000,0.004808,249.000000,239.000000,10.000000,13.000000,0.000000,0.000000,0.000000,0.000000,0.000000,0.342033,0.345793,0.096154,0.125000,0.004808,249.000000,239.000000,10.000000,13.000000,0.000000,0.000000,0.000000,0.000000,0.000000;
#CREDIT:;
#NOTES:
0000
0000
0000
0000
,
0000
0000
0000
0000
,
0000
0000
0000
0000
0000
0000
1000
0100
,
0010
0010
0001
0100
,
0010
0000
0010
0100
0000
0000
0001
1000
,
0100
0100
1000
0001
,
0100
0000
0100
0001
0000
0000
1000
0001
,
0010
0001
1000
0100
,
1000
0000
0010
0100
0000
0000
0100
1000
,
0010
0001
1000
0010
,
0100
0000
0101
0000
0001
0000
0101
0001
,
0010
0000
0100
0000
0010
0000
0001
1000
,
0001
0000
1000
0001
0000
0000
0010
0001
,
0100
0000
0010
0000
0100
0000
0001
1000
,
0001
0000
1000
0001
0000
0000
0001
1000
,
0010
0000
0100
0000
0010
0000
1000
0100
,
1000
0000
0100
1000
0000
0000
0010
0001
,
0100
1000
0001
0100
,
0010
0000
1010
0000
1000
0000
1000
0001
,
0020
0031
0001
0100
,
0010
0000
0100
0000
0010
0000
1000
0100
,
2000
3100
0100
1000
,
0010
0000
0100
0000
0001
0000
0010
0001
,
0020
0031
0001
1000
,
0010
0000
0100
0010
0000
0010
0000
0010
,
0100
0000
0001
0000
1000
0000
0100
0010
,
0100
1100
0001
0101
,
0001
0010
0001
0000
1000
0100
1000
0000
,
1000
0010
0001
0000
0001
0010
1000
0000
,
1000
0100
0001
0000
0010
0100
0001
0000
,
0020
0032
2003
3200
,
1300
0010
1000
0000
0001
0100
0001
0000
,
0001
0010
1000
0000
1000
0010
0001
0000
,
0001
0100
1000
0000
0010
0100
1000
0000
,
0020
0000
2030
0000
3002
0000
0103
0001
,
0010
0000
0010
0000
0001
0000
1000
0010
,
1000
0000
0010
0100
0000
0000
0001
0010
,
0100
0000
0100
0000
0010
0000
0001
1000
,
0001
0000
0100
0010
0000
0000
1000
0100
,
0010
0000
0001
0000
1000
0000
0001
0100
,
0001
0000
1000
0010
0000
0000
0010
0001
,
0100
1000
0001
0100
,
0010
0000
1010
0000
0001
0000
0011
0001
,
0200
0000
0310
0000
0100
0000
0001
1000
,
0100
0000
0010
0100
0000
0100
0000
1000
,
0200
0000
1300
0000
0010
0000
0100
0001
,
1000
0000
0100
0010
0000
0010
0000
0001
,
0020
0000
0031
0000
0100
0000
0010
0100
,
0001
0000
0001
1000
0000
1000
0000
1000
,
0100
1000
0010
0100
,
0010
0000
1010
0000
0001
0000
0011
0001
,
1000
0000
0000
0001
0000
0000
1001
0000
0000
0000
0000
0000
0000
0000
0000
0000
;

//---------------dance-single - ----------------
#NOTEDATA:;
#CHARTNAME:;
#STEPSTYPE:dance-single;
#DESCRIPTION:;
#CHARTSTYLE:;
#DIFFICULTY:Hard;
#METER:8;
#RADARVALUES:0.428571,0.570913,0.240385,0.240385,0.072115,312.000000,287.000000,25.000000,25.000000,0.000000,0.000000,0.000000,0.000000,19.000000,0.428571,0.570913,0.240385,0.240385,0.072115,312.000000,287.000000,25.000000,25.000000,0.000000,0.000000,0.000000,0.000000,19.000000;
#CREDIT:;
#OFFSET:0.000000;
#BPMS:0.000000=120.000000
;
#STOPS:;
#DELAYS:;
#WARPS:9.000000=8.000000
,18.000000=12.000000
,31.000000=12.000000
;
#TIMESIGNATURES:0.000000=4=4
;
#TICKCOUNTS:0.000000=4
;
#COMBOS:0.000000=1
;
#SPEEDS:0.000000=1.000000=0.000000=0
,2.000000=10.000000=0.000000=0
,8.000000=0.100000=0.000000=0
,8.125000=1.000000=0.875000=0
,17.000000=0.100000=0.000000=0
,17.125000=1.000000=0.875000=0
,30.000000=0.100000=0.000000=0
,30.125000=1.000000=0.875000=0
,43.000000=0.100000=0.000000=0
,43.125000=1.000000=0.875000=0
,236.000000=1.400000=0.625000=0
,236.625000=1.000000=0.125000=0
,236.750000=1.400000=0.625000=0
,237.375000=1.000000=0.125000=0
;
#SCROLLS:0.000000=1.000000
;
#FAKES:;
#LABELS:0.000000=Song Start
;
#NOTES:
// measure 0
0000
0000
0000
0000
,  // measure 1
0000
0000
0000
0000
,  // measure 2
0000
0000
0010
0000
,  // measure 3
0000
0000
0010
0000
,  // measure 4
0000
0000
0000
1000
,  // measure 5
0010
0000
0010
0000
,  // measure 6
0100
0001
0000
0000
,  // measure 7
0000
0000
0000
0000
,  // measure 8
1000
0100
0010
0000
0010
0000
0001
0000
,  // measure 9
0100
0000
0010
0000
0010
0100
0000
0000
,  // measure 10
0001
1000
0100
0000
0000
0000
0000
0000
,  // measure 11
1010
1000
0100
0010
0100
1000
0010
0100
,  // measure 12
0001
0000
0001
1000
0000
0000
1000
0010
,  // measure 13
0100
0000
0100
0001
0100
0001
1000
0100
,  // measure 14
0010
0000
0001
0100
0000
0000
0100
0001
,  // measure 15
0010
0000
0010
0001
1000
0100
1000
0001
,  // measure 16
0100
0000
0000
0000
0100
0000
0001
0000
0000
0000
0000
0000
0001
0000
0100
1000
,  // measure 17
0000
0020
0000
0230
0000
0300
0000
0000
,  // measure 18
1100
0000
0101
0000
1100
0000
0100
1000
,  // measure 19
0010
0000
0010
1000
0010
0100
0001
0010
,  // measure 20
0001
0000
0001
1000
0000
0000
0010
1000
,  // measure 21
0100
0000
0100
1000
0100
0010
0001
0100
,  // measure 22
0010
0000
1000
0001
0000
0000
0100
0001
,  // measure 23
0010
0001
0010
0100
1000
0010
0100
0010
,  // measure 24
1000
0000
0000
0000
0010
0000
0100
0000
0000
0000
0000
0000
0001
0000
0010
1000
,  // measure 25
0000
0200
0000
0320
0000
0030
0000
0000
,  // measure 26
0101
0000
1100
0000
0101
0000
1100
0100
,  // measure 27
0002
0200
0303
0000
0000
0001
0100
1000
,  // measure 28
0100
0001
0100
0010
0000
1000
0000
0100
,  // measure 29
2000
0200
3300
0000
0000
1000
0100
0001
,  // measure 30
0100
0000
0010
0001
0000
1000
0000
0010
,  // measure 31
0200
0002
0303
0000
0000
0001
0100
1000
,  // measure 32
0100
0000
0010
1000
0000
1000
0000
1000
,  // measure 33
0100
0001
1000
0010
0001
1000
0010
0100
,  // measure 34
0101
0000
1100
0000
0101
0000
1100
0100
,  // measure 35
0001
0000
1000
0010
0000
0000
0010
0000
1000
0000
0001
0100
0000
0000
0001
0100
,  // measure 36
0001
0000
1000
0000
0010
0000
1000
0000
0100
0000
0001
0100
0000
0000
1000
0100
,  // measure 37
1000
0100
0001
1000
0010
0001
0100
1000
,  // measure 38
0020
0032
2003
3200
,  // measure 39
1300
0000
0001
0010
0000
0000
0010
0000
0001
0000
1000
0100
0000
0000
1000
0100
,  // measure 40
1000
0000
0001
0000
0010
0000
0001
0000
0100
0000
1000
0100
0000
0000
0001
0100
,  // measure 41
0001
0100
1000
0001
0010
1000
0100
0001
,  // measure 42
0020
0000
2030
0000
3002
0000
0103
0001
,  // measure 43
0011
0010
0001
0010
1000
0010
0100
1000
,  // measure 44
0010
0000
0000
0000
0010
0000
1000
0000
0000
0000
0000
0000
0001
0000
1000
0100
,  // measure 45
0000
0000
0100
0001
0100
1000
0001
0010
,  // measure 46
0001
0000
1000
0100
0000
0000
0100
1000
,  // measure 47
1010
0000
1000
0010
0001
1000
0100
0010
,  // measure 48
1000
0000
0000
0000
1000
0000
0001
0000
0000
0000
0000
0000
1000
0000
0100
0001
,  // measure 49
0000
0020
0000
0230
0000
0300
0000
0000
,  // measure 50
1010
0000
0011
0000
1010
0000
0011
0010
,  // measure 51
2000
0020
3030
0000
0000
1000
0100
0001
,  // measure 52
0100
0010
0001
1000
0000
0001
0000
1000
,  // measure 53
0020
2000
3030
0000
0000
1000
0010
0001
,  // measure 54
1000
0000
0100
0001
0000
1000
0000
0001
,  // measure 55
0020
0200
0330
0000
0000
0100
1000
0001
,  // measure 56
1000
0000
0010
0100
0000
0100
0000
0001
,  // measure 57
0100
1000
0001
0010
1000
0100
0001
1000
,  // measure 58
1010
0000
0011
0000
1010
0000
0011
0001
,  // measure 59
0101
0000
0000
1001
0000
0000
1010
0000
0000
0000
0000
0000
0000
0000
0000
0000
;
