#TITLE:Quon;
#SUBTITLE:;
#ARTIST:DJ Noriken;
#TITLETRANSLIT:;
#SUBTITLETRANSLIT:;
#ARTISTTRANSLIT:;
#GENRE:;
#CREDIT:;
#BANNER:;
#BACKGROUND:;
#LYRICSPATH:;
#CDTITLE:;
#MUSIC:Quon.ogg;
#OFFSET:-1.399001;
#SAMPLESTART:97.388702;
#SAMPLELENGTH:11.292786;
#SELECTABLE:YES;
#BPMS:0.000000=170.020004
,198.000000=85.010002
,214.000000=170.020004
;
#STOPS:61.500000=0.706000
;
#BGCHANGES:;
#KEYSOUNDS:;
#ATTACKS:;

//---------------dance-single - ----------------
#NOTES:
     dance-single:
     :
     Hard:
     9:
     0.684593,0.835192,0.323248,0.218192,0.242436,593.000000,553.000000,40.000000,27.000000,0.000000,0.000000,0.684593,0.835192,0.323248,0.218192,0.242436,593.000000,553.000000,40.000000,27.000000,0.000000,0.000000:
0000
0000
0000
0000
,
0000
0000
0000
0000
,
0000
0000
0000
0000
,
0000
0000
0000
0000
,
1000
0000
0001
0000
0010
0000
0001
1000
,
0100
0000
1000
0000
0001
0000
0100
0010
,
1000
0001
0010
0000
0001
0010
0000
0001
,
0100
1000
0010
0001
1000
0000
0110
0000
,
0000
0000
0100
0001
0010
0000
0000
0000
,
0100
0010
0001
0100
1000
0100
0010
1000
,
0000
0000
0010
1000
0100
0000
0000
0000
,
0010
0100
1000
0001
0010
1000
0010
0001
,
1000
0100
0010
0100
1000
0001
0100
0010
,
0100
0001
0010
0100
0010
0001
1000
0010
,
1000
0001
0010
0001
1000
0010
0100
0001
,
1000
0001
0100
0001
2000
0000
3010
0000
,
0100
0001
0010
0000
0200
0000
0310
0000
,
0100
1000
0001
0000
0200
0000
0310
0000
,
0100
0001
0010
0000
0200
0000
0310
0000
,
0100
0010
0001
0000
2000
0000
3100
0000
,
1000
0010
0100
0000
0020
0000
1030
0000
,
0010
0100
0001
0000
0010
0100
1000
0000
,
0100
0000
1000
0000
0000
0000
0000
0000
0001
1000
0001
0000
1000
0000
0010
0000
,
0100
0001
0010
0000
0100
0010
0001
0100
,
0010
0000
0000
1000
0000
0000
0001
0010
0001
0000
0010
0000
0001
0000
0000
0000
,
1000
0000
0000
0010
0000
0000
0100
0000
0001
0000
1000
0000
0100
0000
0010
0100
,
0010
0000
0000
0100
0000
0000
1000
0001
1000
0000
0001
0000
0100
0000
0010
1000
,
0010
0000
0100
0001
0100
0000
0001
0000
1000
0000
0100
0000
0010
0000
0100
0000
,
1000
0000
0001
0000
0100
0000
0010
0000
1000
0001
1000
0001
0100
0010
0100
0010
,
1000
0010
1000
0010
0100
0001
0100
0001
0010
0000
0100
0000
1000
0000
0000
0000
,
0100
1000
0000
1000
0100
0001
0010
1000
,
0001
0000
0110
0000
1002
0000
0013
0001
,
0100
0010
1000
0100
0010
0100
1000
0001
,
0100
0001
0020
0000
0130
0010
0001
1000
,
0010
1000
0100
0010
0100
1000
0001
0100
,
0001
0010
0200
0000
0310
0100
1000
0001
,
0100
0001
1000
0100
0010
0100
1000
0001
,
0010
0100
0020
0000
0031
0100
0010
1000
,
0100
0000
0000
0010
0000
0000
0100
0000
0000
1000
0000
0000
1001
0000
0000
0000
0000
0000
0100
0010
0100
0010
0000
0000
,
0100
0000
0010
0000
1010
0000
0011
0010
,
0100
1000
1100
1000
0001
0100
0101
0001
,
1000
0100
1100
1000
0001
0010
0011
0001
,
1000
0010
0110
0000
1001
0001
1001
1000
,
1001
0001
0020
0000
0031
0010
0110
0100
,
1000
0010
0110
0100
0001
1000
1100
1000
,
0001
0000
0010
0000
0110
0000
0010
0000
0001
1000
0001
1000
0010
0100
0010
0100
,
0001
0100
0010
1000
0001
0010
0100
0000
0010
0000
0001
0000
1000
0000
0100
0000
,
0010
0000
1001
0000
0001
0001
1000
0100
,
0010
0100
1000
0010
0100
0100
0010
1000
,
0001
0000
0000
0000
0000
0000
0000
0000
0200
0300
1010
1000
0002
0000
0013
0100
,
0010
0001
1000
0010
0200
0000
0310
1000
0002
0000
0013
0100
2000
0000
3100
0010
,
0001
0100
0010
0100
0002
0000
0003
0000
1000
0000
1000
0001
0010
0000
0010
0001
,
0100
0010
1000
0100
0020
0000
0130
0010
0002
0000
1003
0001
0200
0000
0310
1000
,
0001
0010
1000
0010
0002
0000
0003
0000
1001
0000
0000
0000
1000
0000
0010
0000
,
1000
0000
0000
0010
0000
0000
0100
0000
0001
0000
0010
0000
0001
0000
0000
0000
,
0010
0000
0000
0100
0000
0000
1000
0000
0001
0000
0000
0000
1000
0000
0001
0000
,
0010
0000
0000
0001
0000
0000
0100
0000
0010
0000
1000
0000
0010
0000
0100
0000
,
0010
1000
0001
0010
0200
0000
0310
0000
,
0002
1003
0020
0130
,
2000
0000
3001
0000
1000
0100
0010
0001
,
0010
0000
0100
0000
0010
0000
0001
0000
1000
0001
1000
0000
0001
0000
0100
0000
,
0010
1000
0100
0000
0000
0000
0000
0000
,
0000
0000
0000
1000
1001
0001
1001
1000
,
1001
0000
0110
0000
1000
0010
0100
0001
,
0010
0100
0010
0001
1000
0010
1000
0001
,
0010
0100
0010
0001
1000
0001
0010
0001
,
1000
0100
0010
0100
1000
0001
0100
0010
,
1000
0100
0010
0100
1000
0001
0100
0001
,
0010
0100
0010
0001
1000
0010
1000
0100
,
0010
0100
2000
3000
1001
0000
0110
0000
,
1001
1001
1001
0000
0110
0000
1001
1001
,
1001
0000
0002
0000
0013
0001
0100
0010
,
1000
0000
0001
1000
0000
0100
1000
0000
0100
0000
0010
0000
0100
0000
1000
0000
,
0001
0000
0100
0010
0000
0100
0001
0000
0010
0000
0100
0000
0010
0000
0001
0000
,
1000
0000
0001
0100
0000
0010
1000
0000
0100
0000
0010
0000
0100
0000
1000
0000
,
0001
0000
0100
0001
0000
0010
0100
0000
1000
0000
0100
0000
0010
0000
0001
0000
,
0100
0000
0010
1000
0000
0001
0100
0000
0001
0000
0010
0000
0100
0000
1000
0000
,
0001
0000
1000
0010
0000
0100
0010
0000
0100
0000
0010
0000
1000
0000
0001
0000
,
0010
1000
0010
0001
1001
1001
0110
0110
,
1001
0010
1001
0000
;

//---------------dance-single - ----------------
#NOTES:
     dance-single:
     :
     Medium:
     8:
     0.535668,0.803069,0.323248,0.250517,0.064650,464.000000,424.000000,40.000000,31.000000,0.000000,0.000000,0.535668,0.803069,0.323248,0.250517,0.064650,464.000000,424.000000,40.000000,31.000000,0.000000,0.000000:
0000
0000
0000
0000
,
0000
0000
0000
0000
,
0000
0000
0000
0000
,
0000
0000
0000
0000
,
1000
0000
0010
0000
0100
0000
0001
0010
,
0001
0000
0010
0000
0100
0000
1000
0001
,
0100
0010
1000
0000
0010
1000
0000
0010
,
1000
0001
0010
1000
0010
0000
1100
0000
,
0000
0000
1000
0001
0100
0000
0000
0000
,
0010
0100
0001
0000
1000
0100
0010
0100
,
0000
0000
0010
0001
1000
0000
0000
0000
,
0001
0010
0100
0010
0001
1000
0010
1000
,
0000
0000
0001
0010
0100
0000
0000
0000
,
0010
0001
1000
0010
0100
0001
0010
0100
,
0000
0000
0010
0100
1000
0000
0000
0000
,
1000
0001
0100
0010
1000
0000
0001
0000
,
0020
0130
0010
0001
,
2000
3100
1000
0001
,
0200
0301
0010
0100
,
0020
0031
1100
0100
,
2000
3010
0100
0001
,
2000
0000
3001
0000
0010
0100
1000
0000
,
0100
1000
0000
0000
0001
0001
1000
0100
,
0001
0100
1000
0000
0001
0000
1000
0010
,
1000
0000
0100
0000
0010
0000
0001
0010
,
0001
0000
1000
0000
1001
0000
0001
0100
,
0001
0000
0010
0000
0100
0000
0010
0001
,
0010
0000
0001
0000
1000
0001
0100
0000
,
0010
1000
0100
0000
0010
0100
1000
0000
,
0100
0010
0001
0000
1001
1000
0001
0000
,
1000
0001
0000
1000
0010
0001
0010
1000
,
0100
0011
2001
3010
,
1000
0001
0010
0000
0100
0000
0010
0000
,
0001
0100
0010
1000
0001
0000
1000
0000
,
0001
1000
0100
0000
0010
0000
0100
0000
,
0010
0001
0200
0000
0310
0000
0100
0000
,
0010
1000
0100
0000
0010
0000
0100
0000
,
0010
0001
1000
0100
0010
0100
1000
0000
,
0100
1000
0000
1000
0010
0001
0010
0100
,
0001
1010
2001
3010
,
0100
0001
0011
0000
0010
0000
0110
0000
,
0100
1000
1010
0000
1000
0000
1001
0000
,
0001
0010
0110
0000
1001
0000
0110
0000
,
1001
0110
0010
1010
,
1000
0001
0011
0000
0010
0000
0110
0000
,
0100
1000
1010
0000
1000
0001
0010
0000
,
0001
0010
0000
0100
0010
0001
1000
0010
,
0100
1010
2000
3200
,
0310
0100
0010
0000
0020
0000
0032
0000
,
0103
0000
0010
0000
0100
0000
0000
0000
0010
0000
1000
0001
0100
0000
0010
1000
,
0100
0000
0010
0000
0100
0000
1000
0100
1000
0000
0100
0010
0100
0000
0010
0001
,
0010
0100
1000
0010
0100
0000
0000
0000
0010
0000
1000
0001
0010
0000
0100
0010
,
0001
1000
0010
1000
0100
0000
0010
0001
0100
0000
0010
1000
0100
0000
0010
0100
,
1000
0010
0100
0001
0020
0000
0030
0000
0100
0000
0000
0000
1000
0000
0000
0000
,
0002
0103
0010
1000
,
0200
0310
0110
1000
,
0002
1003
0011
0110
,
1002
0103
1010
0010
,
0100
0001
0011
0010
,
0100
1000
1100
1000
,
0011
0000
0001
0000
0100
0100
0010
1000
,
0001
0010
0100
0000
0000
0010
0001
0000
,
0010
0001
0000
0010
0001
0100
1000
0100
,
0010
0101
0001
1010
,
1000
0001
0010
0100
0010
0000
0011
0000
,
0010
0001
1000
0100
0010
0000
1100
0000
,
0100
1000
0001
0100
0010
0000
1010
0000
,
1000
0001
0010
0001
1000
0000
1001
0000
,
0001
0010
0001
1000
0010
0000
0110
0000
,
0100
0010
1000
0000
0101
0000
1010
0000
,
1000
1000
1000
0000
0001
0000
0010
0010
,
0010
0000
0200
0000
1300
0100
0010
0100
,
2000
0000
3002
0000
0103
0001
0010
0100
,
0020
0000
0032
0000
0103
0010
1000
0100
,
0020
0000
0230
0000
0310
0001
1000
0010
,
0200
0000
0302
0000
0013
0001
1000
0010
,
0200
0000
0302
0000
0013
0100
0010
0001
,
2000
0000
3002
0000
0103
0010
0100
1000
,
0100
0010
0100
0001
1000
1000
1000
1000
,
1000
0001
0110
0000
;

//---------------dance-single - ----------------
#NOTES:
     dance-single:
     :
     Easy:
     5:
     0.359036,0.449719,0.129299,0.096974,0.000000,311.000000,295.000000,16.000000,12.000000,0.000000,0.000000,0.359036,0.449719,0.129299,0.096974,0.000000,311.000000,295.000000,16.000000,12.000000,0.000000,0.000000:
0000
0000
0000
0000
,
0000
0000
0000
0000
,
0000
0000
0000
0000
,
0000
0000
0000
0000
,
1000
0001
1000
1000
,
0010
0100
0010
0010
,
1000
0000
0010
0000
0100
0000
0000
0001
,
1000
0100
0010
0001
0010
0000
0100
0000
,
0000
0010
0001
0000
,
0010
0001
0100
0010
,
0000
1000
0010
0000
,
1000
0010
0100
0001
,
0000
1000
0100
0000
,
1000
0100
0010
0100
,
0000
0010
0001
0000
,
0010
0001
1000
0001
,
0100
0100
0001
1000
,
0010
0010
1000
0001
,
1000
1000
0001
0100
,
0010
0010
0100
0001
,
0010
0010
0100
1000
,
0100
0100
1000
0001
,
0100
0000
0010
0000
0100
0100
0010
1000
,
0001
0010
0100
0000
0011
0000
0000
0000
,
0001
0000
1010
0000
,
1000
0000
1001
0000
,
0100
0000
0110
0000
,
0010
0000
1010
0000
,
1000
0000
0011
0000
,
1000
0000
0001
0000
,
1000
0000
0000
0010
0100
0001
1000
0100
,
0010
1100
0010
0100
,
1000
0100
1000
0010
,
0100
0002
0013
0100
,
0010
0001
1000
0010
,
0100
0002
0013
0100
,
0010
0001
1000
0010
,
0100
0020
0130
0010
,
1000
0000
0001
0000
1000
0100
0010
0001
,
0010
0110
0100
1000
,
0100
1000
0010
0100
,
0001
0020
0130
0010
,
0001
1000
1001
0110
,
1001
0110
0001
1000
,
0010
1000
0100
1000
,
0010
0100
0010
1000
,
0010
0000
0000
0100
0010
1000
0001
0010
,
0100
0010
0001
1000
,
0010
0010
1000
0001
,
0100
0000
0001
1000
,
0100
1000
0010
0000
0100
0000
0001
0000
,
0010
0100
1000
0100
0010
0000
0100
0000
,
1000
0010
0100
0000
0010
0000
0100
0000
,
0001
0100
0020
0000
1030
0000
0010
0000
,
0100
0000
0010
1000
,
0001
0000
0010
0100
,
1000
0000
0100
1000
,
0001
0000
1000
0001
,
0100
0000
0001
1000
,
0010
0000
0100
0010
,
1000
0100
0010
0100
,
1000
0001
1000
0000
,
0001
0000
0000
1000
0001
0100
0010
1000
,
0001
1000
0001
0100
,
0010
0010
0100
0001
,
1000
0100
0010
0100
,
1000
1000
0100
1000
,
0010
0100
0001
0010
,
0100
0100
0010
0001
,
1000
0010
0110
1001
,
0001
1000
0010
0000
1001
0000
1000
0001
,
0100
0000
0001
1000
,
0020
1030
0010
0100
,
0002
0013
0100
0010
,
0002
1003
0100
1000
,
0020
0130
0010
1000
,
0200
1300
0100
1000
,
0020
0130
0010
0100
,
0002
0000
1003
0000
0001
0100
0010
1000
,
0100
0010
1001
0000
;

//---------------dance-single - ----------------
#NOTES:
     dance-single:
     :
     Beginner:
     2:
     0.121218,0.224859,0.072731,0.000000,0.000000,105.000000,96.000000,9.000000,0.000000,0.000000,0.000000,0.121218,0.224859,0.072731,0.000000,0.000000,105.000000,96.000000,9.000000,0.000000,0.000000,0.000000:
// measure 0
0000
0000
0000
0000
,  // measure 1
0000
0000
0000
0000
,  // measure 2
0000
0000
0000
0000
,  // measure 3
0000
0000
0000
0000
,  // measure 4
1000
0000
0000
0000
,  // measure 5
0001
0000
0000
0000
,  // measure 6
0100
0000
0000
0000
,  // measure 7
0010
0000
0000
0000
,  // measure 8
1001
0000
0000
0000
,  // measure 9
0000
0000
1000
0000
,  // measure 10
0000
0000
0000
0000
,  // measure 11
0000
0000
0001
0000
,  // measure 12
0100
0000
0000
0000
,  // measure 13
0010
0000
0000
0000
,  // measure 14
1000
0000
0000
0000
,  // measure 15
0001
0000
0100
0000
,  // measure 16
0000
0000
0010
0000
,  // measure 17
0000
0000
1000
0000
,  // measure 18
0000
0000
0001
0000
,  // measure 19
0000
0000
0010
0000
,  // measure 20
0000
0000
0001
0000
,  // measure 21
0000
0000
1000
0000
,  // measure 22
0000
0000
1001
0000
,  // measure 23
0000
0000
0110
0000
,  // measure 24
0000
0000
0010
0000
,  // measure 25
0000
1000
1000
0000
,  // measure 26
0000
0000
0001
0000
,  // measure 27
0000
0000
0010
0000
,  // measure 28
0000
0000
0001
0000
,  // measure 29
0000
0000
1001
0000
,  // measure 30
0000
0000
0000
0000
,  // measure 31
0000
0000
1001
0000
,  // measure 32
0000
0000
0001
0000
,  // measure 33
1000
0000
0010
0000
,  // measure 34
0000
0000
0100
0000
,  // measure 35
0010
0000
1000
0000
,  // measure 36
0000
0000
0001
0000
,  // measure 37
0010
0000
0100
0000
,  // measure 38
0000
0000
0010
0000
,  // measure 39
0001
0000
1001
0000
,  // measure 40
0000
0000
1000
0000
,  // measure 41
0000
0000
0010
0000
,  // measure 42
0000
0000
0100
0000
,  // measure 43
0100
0000
0010
0000
,  // measure 44
0000
0000
1000
0000
,  // measure 45
0000
0000
0001
0000
,  // measure 46
0000
0000
1000
0000
,  // measure 47
0000
0000
0010
0000
,  // measure 48
0000
0000
0100
0000
,  // measure 49
0000
0000
1000
0000
,  // measure 50
0100
0000
0010
0000
,  // measure 51
0001
0000
1000
0000
,  // measure 52
0010
0000
0100
0000
,  // measure 53
0001
0000
1000
0000
,  // measure 54
0000
0000
0001
0000
,  // measure 55
0000
0000
0100
0000
,  // measure 56
0000
0000
0001
0001
,  // measure 57
0001
0000
1000
0000
,  // measure 58
0000
0000
0001
0000
,  // measure 59
0000
0000
0100
0000
,  // measure 60
0010
0000
1001
0000
,  // measure 61
0000
0000
0010
0000
,  // measure 62
0000
0000
0100
0100
,  // measure 63
0100
0000
1001
0000
,  // measure 64
0000
0000
1000
0000
,  // measure 65
0000
0000
0010
0000
,  // measure 66
0000
0000
0100
0000
,  // measure 67
0000
0000
0001
0000
,  // measure 68
0000
0000
0010
0000
,  // measure 69
0000
0000
0001
0000
,  // measure 70
1000
0000
0010
0010
,  // measure 71
0010
0000
0100
0000
,  // measure 72
0000
0000
0010
0000
,  // measure 73
0000
0000
1000
0000
,  // measure 74
0000
0000
0001
0000
,  // measure 75
0000
0000
1000
0000
,  // measure 76
0000
0000
0100
0000
,  // measure 77
0000
0000
0010
0000
,  // measure 78
0000
0000
0100
0100
,  // measure 79
0100
0100
1001
0000
;
