#TITLE:MILLION DOLLAR BILL;
#SUBTITLE:(Freemasons Radio Mix);
#ARTIST:WHITNEY HOUSTON;
#TITLETRANSLIT:;
#SUBTITLETRANSLIT:;
#ARTISTTRANSLIT:;
#GENRE:;
#CREDIT:;
#BANNER:[Round 1] - MILLION DOLLAR BILL (Freemasons Radio Mix).png;
#BACKGROUND:[Round 1] - MILLION DOLLAR BILL (Freemasons Radio Mix)-bg.png;
#LYRICSPATH:;
#CDTITLE:;
#MUSIC:[Round 1] - MILLION DOLLAR BILL (Freemasons Radio Mix).ogg;
#OFFSET:-2.269000;
#SAMPLESTART:62.720367;
#SAMPLELENGTH:13.000000;
#SELECTABLE:YES;
#DISPLAYBPM:126.000000;
#BPMS:0.000000=125.999992
;
#STOPS:
;
#BGCHANGES:;
#KEYSOUNDS:;
#ATTACKS:;

//---------------dance-single - ----------------
#NOTES:
     dance-single:
     :
     Beginner:
     1:
     0.102539,0.163992,0.139567,0.039876,0.000000,72.000000,58.000000,14.000000,4.000000,0.000000,0.000000,0.102539,0.163992,0.139567,0.039876,0.000000,72.000000,58.000000,14.000000,4.000000,0.000000,0.000000:
// measure 0
0000
0000
0000
0000
,  // measure 1
0000
0000
0000
0000
,  // measure 2
0000
0000
0000
0000
,  // measure 3
0000
0000
0000
0000
,  // measure 4
0001
0000
1000
0000
,  // measure 5
0001
0000
0000
0000
,  // measure 6
1000
0000
1000
0000
,  // measure 7
1000
0000
0000
0000
,  // measure 8
2002
0000
0000
0000
,  // measure 9
0000
0000
3003
0000
,  // measure 10
0010
0000
0000
0000
,  // measure 11
0000
0000
0000
0000
,  // measure 12
0220
0000
0000
0000
,  // measure 13
0000
0000
0330
0000
,  // measure 14
0100
0000
0000
0000
,  // measure 15
0000
0000
0000
0000
,  // measure 16
1000
0000
0001
0000
,  // measure 17
0010
0000
0100
0000
,  // measure 18
1000
0000
0001
0000
,  // measure 19
1000
0000
0010
0010
,  // measure 20
0000
0000
1000
0000
,  // measure 21
0001
0000
0010
0000
,  // measure 22
0001
0000
0100
0000
,  // measure 23
0010
0000
0010
0010
,  // measure 24
0010
0000
0000
0000
,  // measure 25
0100
0000
0000
0000
,  // measure 26
0001
0000
1000
0000
,  // measure 27
0010
0000
0000
0000
,  // measure 28
1000
0000
0000
0000
,  // measure 29
0001
0000
0000
0000
,  // measure 30
0010
0010
0010
0000
,  // measure 31
0010
0010
0010
0000
,  // measure 32
0100
0000
0010
0000
,  // measure 33
0100
0000
0000
0000
,  // measure 34
1001
0000
0000
0000
,  // measure 35
1001
0000
0000
0000
,  // measure 36
1001
0000
0000
0000
,  // measure 37
0110
0000
0000
0000
,  // measure 38
1001
0000
0000
0000
,  // measure 39
1001
0000
0000
0000
,  // measure 40
0001
0000
1000
0000
,  // measure 41
0001
0000
0000
0000
,  // measure 42
0110
0000
0000
0000
,  // measure 43
0110
0000
0000
0000
,  // measure 44
1001
0000
0000
0000
,  // measure 45
0110
0000
0000
0000
,  // measure 46
1001
0000
0000
0000
,  // measure 47
1001
0000
0000
0000
;

//---------------dance-single - ----------------
#NOTES:
     dance-single:
     :
     Easy:
     3:
     0.193685,0.238012,0.019938,0.209351,0.000000,136.000000,134.000000,2.000000,21.000000,0.000000,0.000000,0.193685,0.238012,0.019938,0.209351,0.000000,136.000000,134.000000,2.000000,21.000000,0.000000,0.000000:
0000
0000
0000
0000
,
0000
0000
0000
0000
,
0000
0000
0000
0000
,
0000
0001
0001
0001
,
2000
0010
0010
0010
,
0001
0001
0001
3100
,
1000
0100
0010
0001
,
1000
0010
0100
0001
,
2002
0000
0000
0000
,
0000
0000
0000
3003
,
0010
0000
0010
0000
,
0010
0010
0010
0000
,
2002
0000
0000
0000
,
0000
0000
0000
3003
,
0100
0000
0100
0000
,
0100
0100
0100
0000
,
0001
0010
1000
0010
,
0001
0100
0010
1000
,
0100
1000
0100
1000
,
0000
0000
0010
0100
,
0001
0010
1000
0010
,
0001
0100
0010
1000
,
0001
0100
0001
0100
,
0000
0000
0001
0010
,
0200
1000
0010
0301
,
0200
0001
0010
1300
,
0020
1000
0100
0031
,
0020
0001
0100
1030
,
0002
0023
0230
2300
,
3002
0203
0320
2030
,
3002
0020
0030
0020
,
0030
0020
0030
0013
,
0001
1000
0001
1000
,
0010
0100
0010
0000
,
0100
0000
0000
0000
,
0100
0000
0000
0000
,
1000
0001
0010
0100
,
1000
0100
0001
0010
,
1000
0000
0000
0000
,
1000
0010
0100
0001
,
1000
0010
0100
0001
,
1000
0100
0010
0001
,
1000
0000
0000
0000
,
1000
0000
0000
0010
,
1000
0001
0010
0100
,
1000
0010
0001
0100
,
1000
0000
0000
0000
,
1000
0010
0100
0001
;

//---------------dance-single - ----------------
#NOTES:
     dance-single:
     :
     Medium:
     5:
     0.263469,0.311036,0.099691,0.289104,0.000000,185.000000,175.000000,10.000000,29.000000,0.000000,0.000000,0.263469,0.311036,0.099691,0.289104,0.000000,185.000000,175.000000,10.000000,29.000000,0.000000,0.000000:
0000
0000
0000
0000
,
0000
0000
0000
0000
,
0000
0000
0000
0000
,
0000
0001
0001
0001
,
2000
0010
0001
0100
,
0010
0001
0100
0010
,
3001
0000
1000
0001
0000
1000
0001
0000
,
0000
0010
0010
0010
,
0220
0000
0000
0000
,
0000
0000
0000
0330
,
0110
0000
0000
1001
0000
0000
0110
0000
,
0000
0001
0001
1000
1000
0000
1000
0000
,
2002
0000
0000
0000
,
0000
0000
0000
3003
,
1001
0000
0000
0110
0000
0000
1001
0000
,
0000
0001
0001
0010
0010
0000
0010
0000
,
0100
0100
0100
0000
1000
0000
0001
0000
,
0100
0000
0010
0010
0010
0000
1000
0000
,
0100
0000
1000
0001
0000
1000
0001
0000
,
0000
0000
0010
0010
,
0001
0001
0001
0000
1000
0000
0010
0000
,
0100
0000
0010
0010
0010
0000
1000
0000
,
0001
0000
0010
0100
0000
0010
0100
0000
,
0000
0000
2000
0010
,
3001
0010
0100
1000
,
0001
0010
0100
0000
1000
0000
0001
0000
,
1000
0010
0100
0001
,
1000
0010
0100
0000
0001
0000
1000
0000
,
0001
0010
0100
1000
,
1000
0010
0100
0000
0001
0000
1000
0000
,
0002
0013
0002
0013
,
0200
1300
1100
1100
,
0001
0100
1000
0100
,
0001
0001
0010
0000
0100
0000
0000
0000
,
2000
0010
3001
0000
,
1000
0010
0100
0001
1000
0000
0001
0000
,
2000
3002
0023
0230
,
2300
3200
0302
0023
,
2030
0010
3001
0000
,
1000
0010
0100
0001
1000
0000
0001
0000
,
1000
0100
0001
0100
,
1000
1000
0010
0000
0100
0000
0001
0000
,
2000
0100
3001
0000
,
0001
0010
0100
1000
0001
0000
0000
0000
,
2000
3002
0023
0230
,
2300
3020
0032
0203
,
2300
0100
3001
0000
,
0001
0010
0100
1000
0001
0000
1000
0000
,
0010
0000
0000
0000
;

//---------------dance-single - ----------------
#NOTES:
     dance-single:
     :
     Hard:
     7:
     0.356039,0.406739,0.059815,0.119629,0.034892,250.000000,244.000000,6.000000,12.000000,0.000000,0.000000,0.356039,0.406739,0.059815,0.119629,0.034892,250.000000,244.000000,6.000000,12.000000,0.000000,0.000000:
0000
0000
0000
0000
,
0000
0000
0000
0000
,
0000
0000
0000
0000
,
0000
0001
0010
0100
,
0000
0000
0001
0010
0100
0000
1000
0000
,
0001
0010
0100
0010
0001
0000
1000
0000
,
0001
0000
1000
0010
0000
1000
0010
0000
,
0100
0001
0101
0101
,
2000
0010
0010
0001
0001
0000
0000
0010
,
0010
0001
0001
0000
0000
0001
0000
0000
,
3001
0000
0000
1000
0000
0000
0001
0000
,
0000
0010
0010
0100
0100
0000
1000
0000
,
0002
0100
0100
1000
1000
0000
0000
0100
,
0100
1000
1000
0000
0000
1000
0000
0000
,
1003
0000
0000
0001
0000
0000
1000
0000
,
0000
0010
0010
0100
0100
0000
0001
0000
,
1000
0000
0001
0000
0010
0000
0100
1000
0000
0000
0001
0000
0010
0000
0100
1000
,
0000
0000
0001
0000
0010
0000
0100
1000
0000
0000
0010
0000
0100
0000
0001
0000
,
1000
0000
0010
0100
0000
0010
0100
0000
,
0001
0000
0000
0000
1000
0000
0000
0000
0010
0000
0000
0100
0000
0000
0001
0000
,
0000
0000
0001
0000
0010
0000
0100
1000
0000
0000
0001
0000
0010
0000
0100
1000
,
0000
0000
0001
0000
0010
0000
0100
1000
0000
0000
0010
0000
0100
0000
0001
0000
,
1000
0000
0010
0100
0000
0010
0100
0000
,
0001
0000
1000
0000
0001
0010
0100
1000
,
0002
0013
0200
1300
,
0001
0010
0100
0000
0010
0100
1000
0000
,
2000
0000
3010
0000
0200
0000
0301
1000
,
0000
0001
2000
0000
0000
0000
3010
0000
,
2000
3100
0020
0031
,
1000
0100
0010
0000
0100
0010
0001
0000
,
0002
0010
1003
0000
2000
0010
3001
0000
,
0002
0100
1003
0000
1001
0000
1001
0000
,
0010
1000
0100
1000
0010
0000
0100
0000
,
0001
0010
0100
0010
0001
0000
0100
0000
,
0010
0000
1000
0001
0000
0001
0010
0100
,
1000
0000
1000
0001
0000
0001
0010
0100
,
1000
0001
0010
0100
,
1000
0010
0001
0100
,
1000
0000
0010
0100
0000
0010
0100
0001
,
1000
0000
0010
0100
0000
0010
0100
0001
,
0010
0100
1000
0000
0010
0100
0001
0000
,
1000
0100
0001
0100
1000
0000
0010
0000
,
0101
0000
1000
0010
0000
1000
0010
0100
,
0101
0000
0010
1000
0000
0010
1000
0100
,
1000
0100
0001
0100
0010
0001
0100
0001
,
1000
0100
0001
0000
0100
0001
0010
0000
,
1000
0000
0001
0010
0000
0001
0010
0100
,
1000
0010
0010
0100
0100
0000
0001
0000
,
1000
0000
0000
0000
;
