#TITLE:Light up my love!!;
#SUBTITLE:;
#ARTIST:onoken feat. moco;
#TITLETRANSLIT:;
#SUBTITLETRANSLIT:;
#ARTISTTRANSLIT:;
#GENRE:;
#CREDIT:;
#BANNER:Light up my love!!.png;
#BACKGROUND:Light up my love!!-bg.png;
#LYRICSPATH:;
#CDTITLE:;
#MUSIC:Light up my love!!.ogg;
#OFFSET:-2.924801;
#SAMPLESTART:86.779999;
#SAMPLELENGTH:15.000000;
#SELECTABLE:YES;
#BPMS:0.000000=166.000000
;
#STOPS:
;
#BGCHANGES:;
#KEYSOUNDS:;
#ATTACKS:;

//---------------dance-single - ----------------
#NOTES:
     dance-single:
     :
     Easy:
     3:
     0.266849,0.325399,0.166922,0.151025,0.000000,235.000000,214.000000,21.000000,19.000000,0.000000,0.000000,0.266849,0.325399,0.166922,0.151025,0.000000,235.000000,214.000000,21.000000,19.000000,0.000000,0.000000:
// measure 0
0000
0000
0000
0000
,  // measure 1
0000
0000
0000
0000
,  // measure 2
0000
0000
0000
0000
,  // measure 3
0000
0000
0000
0000
,  // measure 4
0001
0001
1000
1000
,  // measure 5
0010
0000
0100
0000
,  // measure 6
0001
0000
0000
0000
1000
0000
0000
0001
,  // measure 7
0000
0000
2002
0000
,  // measure 8
0000
0000
0000
0000
,  // measure 9
0000
0000
3003
0000
,  // measure 10
0010
0010
0100
0100
,  // measure 11
0010
0000
1000
0000
,  // measure 12
0100
0100
0010
0010
,  // measure 13
0100
0000
1000
0000
,  // measure 14
0001
0001
1000
1000
,  // measure 15
0001
0000
0100
0000
,  // measure 16
0010
0000
0000
0000
0010
0000
0000
0110
,  // measure 17
0000
0100
0200
0000
,  // measure 18
0301
0001
1000
0100
,  // measure 19
1000
0000
0010
0000
,  // measure 20
0100
0100
0001
0010
,  // measure 21
0001
0000
1000
0000
,  // measure 22
0001
0001
0100
0010
,  // measure 23
0100
0000
0001
0000
,  // measure 24
1000
0000
0000
0000
0100
0000
0000
0110
,  // measure 25
0000
0100
0200
0000
,  // measure 26
0300
1000
0000
0010
,  // measure 27
0000
1000
0000
0010
,  // measure 28
0000
0001
0000
0010
,  // measure 29
0000
0001
0010
1000
,  // measure 30
0100
1000
0000
0100
,  // measure 31
0000
1000
0000
0100
,  // measure 32
0000
0001
0000
0100
,  // measure 33
0000
0001
0100
1000
,  // measure 34
0010
0100
0110
0000
,  // measure 35
0010
1000
1010
0000
,  // measure 36
1000
0000
0001
0000
1000
0000
0000
0100
,  // measure 37
0000
0100
0000
0100
0000
0100
0000
0010
,  // measure 38
0000
0100
0110
0000
,  // measure 39
0010
0001
0011
0000
,  // measure 40
1000
0000
0001
0000
1000
0000
0000
0010
,  // measure 41
0000
0010
0000
0010
0000
0020
0000
0000
,  // measure 42
0130
0000
0001
0001
,  // measure 43
1000
1000
0001
0001
,  // measure 44
0020
0000
0230
0000
,  // measure 45
2300
0000
3001
0100
,  // measure 46
0002
0000
2003
0000
,  // measure 47
0000
3000
0010
0100
,  // measure 48
0020
0000
0230
0000
,  // measure 49
0000
0001
0001
0301
,  // measure 50
0001
0000
1000
1000
,  // measure 51
1000
0000
0001
0001
,  // measure 52
0020
0000
0130
0010
,  // measure 53
0020
0000
0130
0110
,  // measure 54
0100
1000
0001
0000
,  // measure 55
0100
0001
1000
0000
,  // measure 56
0010
0100
0010
0100
,  // measure 57
0020
0000
0030
0110
,  // measure 58
0010
1000
0010
0010
,  // measure 59
0100
0000
0001
0000
,  // measure 60
0010
0001
0010
0010
,  // measure 61
0100
0000
1000
0100
,  // measure 62
1000
0001
0100
0100
,  // measure 63
0001
0000
1000
0000
,  // measure 64
0010
0000
0000
0000
0100
0000
0000
1001
,  // measure 65
0000
0002
2000
3003
,  // measure 66
0001
1000
0001
0001
,  // measure 67
1001
0000
1000
0000
,  // measure 68
0010
0100
0010
0010
,  // measure 69
0110
0000
0010
0000
,  // measure 70
1000
0010
0100
0001
,  // measure 71
1001
0000
0110
0000
,  // measure 72
0001
0000
1000
0000
0100
0000
0000
0110
,  // measure 73
0000
0020
0200
0330
,  // measure 74
0000
0010
0000
0001
,  // measure 75
0000
0000
0010
0000
0000
0110
0000
0110
,  // measure 76
0000
0100
0000
1000
,  // measure 77
0000
0000
0100
0000
0010
0000
0000
0110
,  // measure 78
0000
0001
0000
1000
,  // measure 79
0000
0000
0001
0000
0000
1001
0000
1001
,  // measure 80
0000
1000
0000
0001
,  // measure 81
0000
0000
1000
0000
0010
0000
0000
0110
;

//---------------dance-single - ----------------
#NOTES:
     dance-single:
     :
     Medium:
     6:
     0.421280,0.488099,0.429229,0.206666,0.000000,371.000000,317.000000,54.000000,26.000000,0.000000,0.000000,0.421280,0.488099,0.429229,0.206666,0.000000,371.000000,317.000000,54.000000,26.000000,0.000000,0.000000:
// measure 0
0000
0000
0000
0000
,  // measure 1
0000
0000
0000
0000
,  // measure 2
0000
0000
0000
0000
,  // measure 3
0000
0000
0000
0000
,  // measure 4
1000
1000
0001
0001
,  // measure 5
0110
0000
0010
1000
,  // measure 6
0100
0000
0100
0000
0010
0100
0000
1000
,  // measure 7
0000
0001
1000
0000
2002
0000
0000
0000
,  // measure 8
0000
0000
0000
0000
,  // measure 9
0000
0000
3003
1001
,  // measure 10
0001
1000
0010
0010
,  // measure 11
0100
0000
0000
0000
0001
0100
0001
0000
,  // measure 12
1000
0100
0010
0010
,  // measure 13
0001
0000
0000
0000
1000
0010
1000
0000
,  // measure 14
0001
0100
0001
0001
,  // measure 15
0010
0000
0000
0000
0100
1000
0100
0000
,  // measure 16
0010
0000
0001
0000
0100
0010
0000
0010
,  // measure 17
0000
0010
0100
0000
0120
0000
0000
0000
,  // measure 18
1030
0100
0010
0100
,  // measure 19
1000
0000
0000
0000
1000
0001
1000
0000
,  // measure 20
0001
0100
0010
0100
,  // measure 21
0001
0000
0000
0000
0001
1000
0001
0000
,  // measure 22
0010
0100
1000
0010
,  // measure 23
0100
0000
0000
0000
0010
0100
0010
0000
,  // measure 24
1000
0000
0001
0000
0010
0100
0000
0100
,  // measure 25
0000
0100
0010
0000
0210
0000
0000
0000
,  // measure 26
0310
0000
0010
0000
0001
0010
0000
0110
,  // measure 27
0000
0000
0100
0000
1000
0010
0000
0110
,  // measure 28
0000
0000
1000
0000
0001
0100
0000
0110
,  // measure 29
0000
0000
0010
0000
1000
0001
1000
0001
,  // measure 30
0000
0000
0010
0000
0100
0010
0000
0110
,  // measure 31
0000
0000
0010
0000
0001
0100
0000
0110
,  // measure 32
0000
0000
0010
0000
1000
0100
0000
0110
,  // measure 33
0000
0000
0010
0000
0001
1000
0001
2000
,  // measure 34
0000
0000
3010
0000
0100
0100
0000
0002
,  // measure 35
0000
0000
0013
0000
0100
0100
0000
2000
,  // measure 36
0000
0000
3001
0000
1000
0001
0000
1010
,  // measure 37
0000
1010
0000
0110
0000
0110
0000
0102
,  // measure 38
0000
0000
0103
0000
0010
0010
0000
2000
,  // measure 39
0000
0000
3100
0000
0010
0010
0000
0002
,  // measure 40
0000
0000
1003
0000
0001
0000
0000
0011
,  // measure 41
0000
0011
0000
0110
0000
0110
0000
0000
,  // measure 42
2100
0000
0000
3001
1000
0000
0010
0100
,  // measure 43
0000
0010
0000
1000
0100
0000
0110
0000
,  // measure 44
0002
0000
0000
1003
0001
0000
0100
0010
,  // measure 45
0000
1000
0000
0010
0100
0000
0101
0000
,  // measure 46
0002
0000
0000
1003
0001
0000
0100
0010
,  // measure 47
0000
1000
0000
0100
0010
0000
0011
0000
,  // measure 48
2000
0000
0000
3001
1000
0000
0010
0100
,  // measure 49
0000
0100
0000
0010
1000
0000
0100
0000
,  // measure 50
0110
0000
0020
0230
,  // measure 51
2300
3020
0230
0302
,  // measure 52
2003
0000
0000
3001
2000
0000
3020
0000
,  // measure 53
0230
0000
0000
0301
0100
0000
0010
0000
,  // measure 54
1000
0000
0100
0000
0010
0010
0000
0011
,  // measure 55
0000
0001
0000
0100
0010
0010
0000
1010
,  // measure 56
0000
0110
0000
0100
0001
0000
2000
0002
,  // measure 57
0000
0000
3003
1001
,  // measure 58
1000
1010
1001
1001
,  // measure 59
0011
0000
0001
0000
1000
0010
1000
0000
,  // measure 60
0100
0110
1100
1100
,  // measure 61
1001
0000
0000
0000
1000
0001
1000
0000
,  // measure 62
0010
0110
0101
0101
,  // measure 63
1001
0000
1000
0000
0001
0010
0001
0000
,  // measure 64
0100
0000
0010
0000
1000
1000
0000
0001
,  // measure 65
0000
1000
0001
0000
1001
0000
0000
0000
,  // measure 66
1000
0010
1000
0000
0001
0100
0001
0000
,  // measure 67
1001
0000
0001
1000
,  // measure 68
0001
0010
0001
0000
1000
0100
1000
0000
,  // measure 69
1001
0000
0010
0010
,  // measure 70
0100
0010
0100
0000
0001
1000
0001
0000
,  // measure 71
1001
0000
0000
0000
1000
0001
1000
0000
,  // measure 72
0010
0000
0100
0000
0001
0001
0000
1000
,  // measure 73
0000
0001
1000
0000
1001
0000
0000
0000
,  // measure 74
1000
0000
0010
0000
0100
0001
0000
0101
,  // measure 75
0000
0000
0001
0000
0010
0110
0000
0110
,  // measure 76
0000
0000
1000
0000
0001
1000
0000
1100
,  // measure 77
0000
0000
0010
0000
0100
0010
0100
0010
,  // measure 78
0000
0000
0001
0000
1000
0010
0000
1010
,  // measure 79
0000
0000
0010
0000
0100
0110
0000
0110
,  // measure 80
0000
0000
0100
0000
0001
0010
0000
0011
,  // measure 81
0000
0000
0001
0000
1000
0001
1000
0001
;

//---------------dance-single - ----------------
#NOTES:
     dance-single:
     :
     Hard:
     8:
     0.564357,0.618259,0.635895,0.254358,0.007949,497.000000,417.000000,80.000000,32.000000,0.000000,0.000000,0.564357,0.618259,0.635895,0.254358,0.007949,497.000000,417.000000,80.000000,32.000000,0.000000,0.000000:
// measure 0
0000
0000
0000
0000
,  // measure 1
0000
0000
0000
0000
,  // measure 2
0000
0000
0000
0000
,  // measure 3
0000
0000
0000
0000
,  // measure 4
0001
1000
1010
1010
,  // measure 5
1001
0000
0001
0000
0010
0100
0010
0100
,  // measure 6
1000
0000
0010
0000
1000
0010
0000
0100
,  // measure 7
0000
0001
1000
0000
2002
0000
0000
0000
,  // measure 8
0000
0000
0000
0000
,  // measure 9
0000
0000
3003
1001
,  // measure 10
1000
0010
0100
0000
0101
0000
1100
0000
,  // measure 11
0101
0000
0001
0100
0010
1000
0010
1000
,  // measure 12
0100
0010
0001
0000
0011
0000
1010
0000
,  // measure 13
0011
0000
0000
0000
0001
0010
0100
1000
,  // measure 14
0001
0101
1010
1010
,  // measure 15
1100
0000
1000
0010
1000
0010
0100
0001
,  // measure 16
1000
0000
0100
0000
0010
0100
0000
1000
,  // measure 17
0000
1000
0010
0000
0210
0000
0000
0000
,  // measure 18
0301
0010
0100
0000
1100
0000
0101
0000
,  // measure 19
1100
0000
1000
0100
0010
0001
0100
0001
,  // measure 20
0100
0010
1000
0000
1010
0000
0011
0000
,  // measure 21
1010
0000
0000
0000
1000
0010
0100
0001
,  // measure 22
1000
1100
0011
0011
,  // measure 23
0101
0000
0001
0010
0001
0010
0100
1000
,  // measure 24
0001
0000
0100
0000
0010
0100
0000
0001
,  // measure 25
0000
0001
0010
0000
0120
0000
0000
0130
,  // measure 26
0000
1000
0010
1000
0001
1000
0000
1100
,  // measure 27
0000
0010
0001
1000
0001
0100
0000
0101
,  // measure 28
0000
0010
1000
0001
0010
0100
0000
0110
,  // measure 29
0000
0010
0100
0000
1000
1000
1000
1000
,  // measure 30
0000
0001
0010
0001
1000
0001
0000
0101
,  // measure 31
0000
0010
1000
0001
1000
0100
0000
1100
,  // measure 32
0000
0010
0001
1000
0010
0100
0000
0110
,  // measure 33
0000
0010
0100
0000
0001
0001
0001
0002
,  // measure 34
0000
1003
0100
1000
0010
0010
0000
0200
,  // measure 35
0000
0301
1000
0100
0010
0010
0000
0200
,  // measure 36
0000
1300
0001
0100
0001
1000
0000
1010
,  // measure 37
0000
0011
0000
1100
0000
0101
0000
1002
,  // measure 38
0000
1003
0010
0100
0001
0001
0000
0021
,  // measure 39
0000
0130
1000
0001
1000
1000
0000
1020
,  // measure 40
0000
0130
0001
1000
0020
0000
0130
0001
,  // measure 41
0000
0011
0000
0110
0000
1100
0000
0000
,  // measure 42
2001
0000
0000
3001
0100
0000
0010
0100
,  // measure 43
0000
0010
0000
1000
0100
0000
0110
0000
,  // measure 44
0012
0000
0000
1003
0001
0000
0100
0010
,  // measure 45
0000
1000
0000
0100
1000
0010
0100
0001
,  // measure 46
2000
0000
0000
3001
0200
0000
0310
0100
,  // measure 47
0000
0100
0000
0100
0001
0000
1000
0000
,  // measure 48
0200
0000
0000
0310
0100
0000
1000
0100
,  // measure 49
0000
0110
0000
0010
0001
1000
0001
1000
,  // measure 50
0200
0000
0300
1000
0200
0000
2300
0000
,  // measure 51
3020
0230
0302
0023
,  // measure 52
0230
0000
0000
1300
0002
0000
0203
0000
,  // measure 53
0320
0000
0000
0130
0002
0000
2003
0000
,  // measure 54
3010
1000
0010
1000
0001
0100
0000
0101
,  // measure 55
0000
0001
0010
0001
0010
0100
0000
1100
,  // measure 56
0000
1000
0001
1000
0001
0100
0010
1000
,  // measure 57
0000
1000
0000
1000
0001
0000
1001
0000
,  // measure 58
0010
1000
0100
0000
1100
0000
0101
0000
,  // measure 59
1100
0000
1000
0010
0100
0010
1000
0100
,  // measure 60
0010
0001
0100
0000
0101
0000
0110
0000
,  // measure 61
1010
0000
0010
0000
1000
0010
0100
0001
,  // measure 62
1000
0100
0110
0000
1100
0000
1001
0000
,  // measure 63
0101
0000
0001
0100
0010
0010
0100
0001
,  // measure 64
1000
0100
0010
0000
0100
1000
0000
0001
,  // measure 65
0000
0000
1000
0000
0001
0000
0100
0010
0100
0000
0100
0000
0100
0000
0000
0000
,  // measure 66
1020
0001
1000
1030
,  // measure 67
1001
0000
0001
0010
0100
0100
1000
0010
,  // measure 68
0100
0100
0201
0000
1000
0000
0001
0000
,  // measure 69
0301
0000
0010
0000
0100
1000
0001
1000
,  // measure 70
0010
1000
1200
0000
0001
0000
1000
0000
,  // measure 71
1300
0000
0010
1000
0001
0001
0100
0010
,  // measure 72
0100
0001
0011
0000
0100
0110
0000
1100
,  // measure 73
0000
0000
1000
0000
0010
0000
1000
0001
1000
0000
1000
0000
1000
0000
1001
0000
,  // measure 74
0000
0001
0010
0100
0010
0001
0000
0101
,  // measure 75
0000
0100
0010
1000
0100
0110
0000
0110
,  // measure 76
0000
0010
0001
1000
0010
0100
0000
0110
,  // measure 77
0000
0010
0100
0000
0001
1000
1001
1001
,  // measure 78
0000
0001
0010
0100
1000
0100
0000
1100
,  // measure 79
0000
1000
0010
0100
0010
0110
0000
0110
,  // measure 80
0000
0100
0001
1000
0100
0010
0000
0011
,  // measure 81
0000
0010
0100
0000
1000
0001
1001
1001
;

//---------------dance-single - ----------------
#NOTES:
     dance-single:
     :
     Beginner:
     2:
     0.131721,0.195538,0.071538,0.015897,0.000000,116.000000,107.000000,9.000000,2.000000,0.000000,0.000000,0.131721,0.195538,0.071538,0.015897,0.000000,116.000000,107.000000,9.000000,2.000000,0.000000,0.000000:
// measure 0
0000
0000
0000
0000
,  // measure 1
0000
0000
0000
0000
,  // measure 2
0000
0000
0000
0000
,  // measure 3
0000
0000
0000
0000
,  // measure 4
0001
0000
0001
0000
,  // measure 5
1000
0000
1000
0000
,  // measure 6
0010
0000
0000
0000
,  // measure 7
0200
0000
0000
0000
,  // measure 8
0000
0000
0000
0000
,  // measure 9
0000
0000
0300
0000
,  // measure 10
0001
0000
1000
0000
,  // measure 11
0001
0000
0000
0000
,  // measure 12
1000
0000
0001
0000
,  // measure 13
1000
0000
0000
0000
,  // measure 14
0010
0000
0100
0000
,  // measure 15
0010
0000
0000
0000
,  // measure 16
0100
0000
0000
0000
,  // measure 17
0110
0000
0000
0000
,  // measure 18
1000
0000
0001
0000
,  // measure 19
1000
0000
0000
0000
,  // measure 20
0001
0000
1000
0000
,  // measure 21
0001
0000
0000
0000
,  // measure 22
0010
0000
0100
0000
,  // measure 23
0010
0000
0000
0000
,  // measure 24
0100
0000
0000
0000
,  // measure 25
0110
0000
0000
0000
,  // measure 26
1000
0000
0000
0000
,  // measure 27
0100
0000
0000
0000
,  // measure 28
0010
0000
0000
0000
,  // measure 29
0001
0000
1000
0000
,  // measure 30
0001
0000
0000
0000
,  // measure 31
0100
0000
0000
0000
,  // measure 32
0010
0000
0000
0000
,  // measure 33
1000
0000
0001
0000
,  // measure 34
1000
0000
1000
0000
,  // measure 35
0001
0000
0001
0000
,  // measure 36
1000
0000
0001
0000
,  // measure 37
1000
0000
0001
0000
,  // measure 38
0100
0000
0100
0000
,  // measure 39
0010
0000
0010
0000
,  // measure 40
0100
0000
0010
0000
,  // measure 41
0100
0000
0010
0000
,  // measure 42
1000
0000
0000
0000
,  // measure 43
0001
0000
0000
0000
,  // measure 44
0010
0000
0000
0000
,  // measure 45
0010
0000
0000
0000
,  // measure 46
0100
0000
0000
0000
,  // measure 47
0100
0000
0000
0000
,  // measure 48
1000
0000
0000
0000
,  // measure 49
0001
0000
0000
0000
,  // measure 50
1000
0000
0000
0000
,  // measure 51
1000
0000
0000
0000
,  // measure 52
0001
0000
0000
0000
,  // measure 53
0001
0000
0000
0000
,  // measure 54
0100
0000
0000
0000
,  // measure 55
0100
0000
0000
0000
,  // measure 56
0100
0000
0100
0000
,  // measure 57
0200
0000
0000
0300
,  // measure 58
0001
0000
0001
0000
,  // measure 59
1000
0000
0000
0000
,  // measure 60
1000
0000
1000
0000
,  // measure 61
0001
0000
0000
0000
,  // measure 62
0010
0000
0010
0000
,  // measure 63
0100
0000
0000
0000
,  // measure 64
0110
0000
0000
0000
,  // measure 65
1001
0000
0000
0000
,  // measure 66
0001
0000
0001
0000
,  // measure 67
1000
0000
1000
0000
,  // measure 68
0100
0000
0100
0000
,  // measure 69
0010
0000
0010
0000
,  // measure 70
0001
0000
1000
0000
,  // measure 71
0001
0000
1000
0000
,  // measure 72
0100
0000
0000
0000
,  // measure 73
0110
0000
0000
0000
,  // measure 74
0001
0000
0000
0000
,  // measure 75
1000
0000
0000
0000
,  // measure 76
0010
0000
0000
0000
,  // measure 77
0100
0000
0110
0000
,  // measure 78
1001
0000
0000
0000
,  // measure 79
0001
0000
0000
0000
,  // measure 80
0010
0000
0000
0000
,  // measure 81
0100
0000
0110
0000
,  // measure 82
1001
0000
0000
0000
;
