#VERSION:0.83;
#TITLE:LOVE WILL... ;
#SUBTITLE:;
#ARTIST:riewo ;
#TITLETRANSLIT:;
#SUBTITLETRANSLIT:;
#ARTISTTRANSLIT:;
#GENRE:;
#CREDIT:KONAMI ;
#MUSIC:LOVE WILL....ogg;
#BANNER:love will bn .png;
#BACKGROUND:LOVE WILL BG.png;#PREVIEWVID:;#JACKET:LOVE WILL jacket .png;
#CDTITLE:;
#SAMPLESTART:33.856;
#SAMPLELENGTH:11.311;
#SELECTABLE:YES;
#OFFSET:-0.106;
#BPMS:0.000=144.000;
#STOPS:;
#BGCHANGES:;
#FGCHANGES:;

//--------------- dance-single - ----------------
#NOTEDATA:;
#STEPSTYPE:dance-single;
#DESCRIPTION:;
#DIFFICULTY:Hard;
#METER:7;
#RADARVALUES:0,0,0,0,0;
#NOTES:
0000
0000
0000
0000
,
0000
0000
0000
0000
,
0000
0000
0000
0000
,
0000
0000
0000
0000
,
0000
0000
0000
0000
1000
0000
0000
0010
0000
0000
0100
0000
0020
0000
0000
0000
,
0000
0000
0100
0100
,
0130
0000
0002
0000
0000
2000
0000
0000
,
0000
0000
0000
3003
0200
0000
0320
0000
,
0032
0000
2003
0000
3000
0020
0000
0000
,
0230
0000
0000
0302
,
2003
0000
3200
0000
0000
0000
0310
0001
,
0010
0100
1000
0001
0100
0001
1000
0100
,
0001
0000
0100
0000
1000
0000
0000
0010
0000
0000
1000
0000
0002
0000
0000
0000
,
0000
0000
0010
0010
,
0013
0000
0001
0000
0000
0102
0000
0000
,
0000
0000
0000
0100
0000
0100
0000
0100
,
0003
0000
0020
0000
0000
0230
0000
0000
,
0320
0000
0000
2030
,
3200
0000
0320
0000
0000
0000
0000
0031
,
1000
0100
0001
0100
1000
0100
0001
0010
,
1000
0000
0001
0000
1000
0000
0000
0001
0000
0000
0100
0000
0010
0000
0000
0000
,
0100
0101
1000
1100
,
0001
0000
0021
0000
0000
0000
0031
0100
,
0010
0220
0000
0000
0330
1000
0010
0100
,
0001
0202
0000
0000
0000
0303
0100
0001
,
1000
0100
1000
0000
0100
0000
1100
0000
,
0010
2000
0000
3200
,
0000
0000
0302
0000
0000
0000
0003
0010
,
1000
0000
0010
0000
0100
0000
0000
0001
0000
0000
0010
0000
0100
0000
0000
0000
,
1001
0000
1000
0010
1000
0000
0001
0000
,
0110
0000
1002
0000
0000
0000
0103
0001
,
1000
2020
0000
3030
0000
0010
1000
0100
,
0010
0022
0000
0000
0000
0033
0000
0100
,
0010
0100
0002
0000
0100
0000
1000
0000
,
0103
1020
0000
2030
,
0000
0000
3002
0000
1003
0100
1000
0010
,
1000
0000
0100
0000
2000
0000
0000
0000
0000
0000
3010
0000
1000
0000
0000
1000
,
0000
0000
1000
0000
0001
0000
0000
0100
0000
0000
1000
0000
0100
0000
0000
0001
,
0000
0000
1000
0000
0010
0000
0001
0000
0010
0000
1000
0000
0001
0000
0000
0100
,
0000
0010
1000
0000
0100
0000
0010
0000
,
0001
0000
0000
0000
2000
0000
0000
0000
0000
0000
3100
0000
1100
0000
0000
1000
,
0000
0000
0100
0000
0001
0000
0000
0100
0000
0000
1000
0000
0010
0000
0000
0100
,
0000
0000
0001
0000
0100
0000
1000
0000
0100
0000
0001
0000
1000
0000
0000
0100
,
0000
0010
0001
0000
0100
0000
0001
0000
,
1000
0000
0000
0000
0002
0000
0000
0000
0000
0000
0103
0000
0110
0000
0000
0010
,
0000
0000
1000
0000
0010
0000
0000
0100
0000
0000
1000
0000
0100
0000
0000
0001
,
0000
0000
0100
0000
1000
0000
0100
0000
0001
0000
0010
0000
0100
0000
0000
0001
,
0000
0100
1000
0000
0001
0000
0100
0000
,
0001
0000
0000
0000
2000
0000
0000
0000
0000
0000
3010
0000
1010
0000
0000
1000
,
0000
0000
0100
0000
0001
0000
0000
0010
0000
0000
1000
0000
0001
0000
0000
1000
,
0000
0010
0100
1000
0100
0001
0010
1000
,
0010
0001
1000
0010
0001
0100
1000
0010
,
0100
0220
0000
0000
,
0330
0000
0000
0000
;

//--------------- dance-single - ----------------
#NOTEDATA:;
#STEPSTYPE:dance-single;
#DESCRIPTION:;
#DIFFICULTY:Challenge;
#METER:9;
#RADARVALUES:0,0,0,0,0;
#NOTES:
0000
0000
0000
0000
,
0000
0000
0000
0000
,
0000
0000
0000
0000
,
0000
0000
0000
0000
,
0000
0000
0000
0000
0200
0000
0000
0010
0000
0000
1300
0000
0002
0000
0000
0000
,
0000
0000
0000
0000
0000
0000
0000
0003
0020
0000
0000
0000
2030
0000
0000
0000
,
3200
0000
0302
0000
0000
0023
0000
0000
,
0000
0000
0000
0030
0002
0000
0203
0000
,
0302
0000
2003
0000
3000
0020
0000
0000
,
0230
0000
0000
0302
,
0023
0000
0032
0000
0000
0000
1003
0001
,
1000
0000
0001
0000
1000
0100
1000
0100
1000
0100
1000
0100
1000
0100
1000
0100
,
2000
0000
0000
0000
3001
0000
0000
0010
0000
0000
0001
0000
2000
0000
0000
0000
,
0000
0000
0000
3000
0002
0000
0203
0000
,
0302
0000
0000
0000
0000
0000
2003
0000
0000
0000
0000
0000
0000
0000
3000
0020
0000
0000
0000
0000
0000
0000
0000
0000
,
0000
0000
2030
3200
,
0302
0000
0023
0000
0030
2000
0000
0000
,
3002
0000
0000
2003
,
3200
0000
0320
0000
0000
0000
0031
0100
,
0001
0000
0100
0000
0001
0010
0001
0010
0001
0010
0001
0010
0001
0010
0001
0010
,
0001
0000
0010
0000
0100
0000
0000
1000
0000
0000
0010
0000
1000
0000
0000
0000
,
0100
0001
0100
1000
,
1001
0000
0120
0000
0000
0000
0130
1000
,
0100
0010
0001
0000
0100
0001
0010
0001
,
1000
0002
0000
0000
0000
0000
0103
0010
,
0100
0001
0010
0000
1100
0000
0001
0000
,
1010
0020
0000
0230
,
0000
0000
0302
0000
0000
0000
0103
0010
,
1000
0000
0100
0000
1000
0000
0000
0010
0000
0000
0100
0000
0001
0000
0010
0000
,
1000
0010
0001
0000
0110
0000
1000
0000
,
1001
0000
0020
0000
0000
0000
1030
0100
,
0001
0100
1000
0000
0001
0100
1000
0100
,
0001
2002
0000
0000
0000
0000
3003
1000
,
0100
0010
0001
0000
1001
0000
0100
0000
,
0110
0020
0000
2030
,
0000
0000
0000
0000
3200
0000
0000
0000
0000
0000
0010
0300
0001
0100
0001
0100
,
0001
0100
0001
0100
0001
0000
0000
0010
0000
0000
0100
0000
1000
0000
0000
0010
,
0000
0000
0100
0000
0001
0000
0000
0010
0000
0000
0001
0000
1000
0000
0000
0010
,
0000
0000
0100
0000
0001
0000
1000
0000
0100
0000
0010
0000
0002
0000
0000
0100
,
0000
0103
0001
1000
0010
0100
0001
0010
,
0100
0000
0010
0000
0001
0000
0000
1000
0000
0000
0100
0000
0010
0000
0000
0001
,
0000
0001
0100
0000
0010
0000
0000
1000
0000
0000
0100
0000
1000
0000
0000
0010
,
0000
0010
0100
0000
0001
0000
0010
0000
1000
0000
0010
0000
0001
0000
0000
1000
,
0000
0010
1000
0100
0001
0100
1000
0100
,
0010
0000
0001
0000
2000
0000
0000
3100
0000
0100
0001
0000
0020
0000
0000
0130
,
0000
0100
0001
0000
2000
0000
0000
3010
0000
0010
0001
0000
0200
0000
0000
0310
,
0000
0010
0001
0000
0100
0000
1000
0000
0100
0000
0001
0000
1000
0000
0000
0100
,
0000
1000
0001
0010
1000
0010
0001
1000
,
0010
0000
0100
0000
0001
0000
1000
0010
0000
0100
0010
0000
1000
0000
0100
1000
,
0000
0001
1000
0000
0001
0000
0100
1000
0000
0100
0001
0000
1000
0000
0100
0001
,
0000
0100
1000
0000
0001
0000
0100
0000
0010
0000
1000
0000
0010
0000
0000
0100
,
0000
0001
0100
0010
1000
0001
0010
1000
,
0010
0001
0220
0000
0000
0000
0000
0000
,
0330
0000
0000
0000
;
