#TITLE:Heart Rabbit Coaster;
#SUBTITLE:;
#ARTIST:Nato;
#TITLETRANSLIT:;
#SUBTITLETRANSLIT:;
#ARTISTTRANSLIT:;
#GENRE:;
#CREDIT:;
#MUSIC:Heart Rabbit Coaster.ogg;
#BANNER:Heart Rabbit Coaster Banner.png;
#BACKGROUND:Heart Rabbit Coaster BG.png;
#CDTITLE:;
#SAMPLESTART:30.071;
#SAMPLELENGTH:12.000;
#SELECTABLE:YES;
#OFFSET:-0.071;
#BPMS:0.000=200.000;
#STOPS:;
#BGCHANGES:0.000=Heart Rabbit Coaster BGA.avi=1.000=0=0=0=StretchNoLoop====,
99999.000=-nosongbg-=1.000=0=0=0=StretchNoLoop====
;
#FGCHANGES:;

//--------------- dance-single - Maractus ----------------
#NOTES:
     dance-single:
     Maractus:
     Hard:
     10:
     0,0,0,0,0:
0000
0000
0000
0000
,
0000
0000
0000
0000
,
0000
0000
0000
0000
,
1000
0010
1000
0010
,
1000
0010
0100
0001
,
0010
0001
0010
0001
,
0010
0001
0100
0010
,
1000
0010
1000
0010
,
1000
0010
0100
0001
,
1000
0010
0100
0010
1000
0100
0010
0001
,
0100
0010
0100
0001
4000
0000
0000
0000
,
3001
0100
0001
0000
0100
0010
0000
0100
,
0001
0000
0010
0100
1000
0001
0100
0010
,
1000
0100
1000
0000
0100
0010
0000
0100
,
1000
0000
0010
0100
0001
0010
0100
1000
,
0010
0100
0001
0000
0010
0100
0000
1000
,
0100
0000
1000
0010
0100
0001
0010
0100
,
1000
0010
0100
0001
0010
0100
1000
0001
,
2000
0000
0002
3003
,
1000
0100
0010
0100
1000
0001
0100
0010
,
0100
0001
0010
0100
1000
0000
1000
0000
,
0001
0010
0100
0010
0001
1000
0010
0100
,
0010
1000
0010
0100
0001
0000
0001
0000
,
1000
0100
0010
0001
1000
0010
0100
0001
,
0010
0100
1000
0010
1000
0000
1000
0000
,
0100
0100
0010
0010
0001
0001
1000
1000
,
0001
0000
0000
1000
0000
0000
0001
0000
0100
0000
0010
0000
1000
0000
0000
0000
,
0001
0100
0010
0100
0001
1000
0100
0010
,
0100
1000
0100
0010
0001
0000
0001
0000
,
1000
0010
0100
0010
1000
0001
0010
0100
,
0010
0001
0100
0010
1000
0000
1000
0000
,
0001
0100
0010
1000
0001
0010
0100
1000
,
0010
0100
0001
0010
0001
0000
0001
0000
,
0100
0100
0010
0010
1000
1000
0001
0001
,
1000
0000
0000
0001
0000
0000
1000
0000
0100
0000
0010
0000
0001
0000
0000
0000
,
4000
0000
0000
0000
0000
0000
0000
3000
,
0001
0000
0000
0100
0000
0200
0000
0000
,
0000
0000
0310
0010
,
1000
0000
0000
0001
0000
0002
0000
0000
,
0000
0000
0000
0000
0000
0000
0000
0000
0013
0000
0000
0100
0000
0100
0000
0000
,
1000
0000
0000
0010
0000
0020
0000
0000
,
0000
0000
0130
0100
,
0001
0000
0000
1000
0000
2000
0000
0000
,
0000
0000
0000
0000
0000
0000
0000
0000
3010
0000
0000
0100
0000
0100
0000
0000
,
0001
0001
0001
0001
,
1000
1000
1000
1000
,
0100
0100
0100
0100
,
0010
0000
0000
0010
0000
0010
0000
0010
0000
0000
0100
0000
1000
0000
0001
0000
,
0010
0100
1000
0010
0100
0001
0010
0100
,
1000
0010
0100
0001
0010
0100
1000
0001
,
1000
0100
0010
0001
1000
0100
0010
0000
0001
0000
1000
0000
0010
0000
0100
0000
,
0001
0100
0010
1000
0001
0100
0010
1000
0001
0000
1000
0000
0001
0000
0100
0000
,
0200
0000
0000
0000
,
0000
0000
0000
0000
,
0000
0000
0000
0000
,
0020
0000
0000
0330
,
1000
0010
0100
0001
1000
0100
0010
0001
,
0100
0010
1000
0001
0010
0100
1000
0001
,
4000
0400
0000
0000
0000
0000
3300
0000
1000
0000
0100
0000
0010
0000
0001
0000
,
0100
0001
0200
0002
0000
0000
0000
0303
,
0100
0001
0010
0100
1000
0010
0100
0001
,
0100
0010
1000
0001
0010
0100
0010
0001
,
1000
0010
0100
0010
1000
0100
0010
0001
,
1000
0100
0010
0100
1000
0010
0100
0001
,
0010
0100
1000
0001
1000
0010
0100
0001
,
1000
0100
0010
0001
1000
0010
0100
0001
,
0100
0010
0100
0001
1000
0100
0010
0001
,
0100
0010
2000
0002
0000
0000
0000
3003
,
1000
0000
0000
0001
0000
0000
1000
0000
0001
0000
0100
0000
0010
0000
1000
0000
,
0100
0000
0010
0000
0001
0000
0100
0000
0010
0000
0100
0000
0001
1000
0001
0000
,
1000
0010
0100
0010
1000
0001
0010
0100
,
0010
0001
1000
0100
0100
0000
0000
0000
,
0011
0101
1001
1010
,
1100
1001
0110
1001
,
0101
0011
1001
1100
,
1010
1001
0110
1001
,
1100
1010
0011
0101
,
1001
0110
1001
0110
,
4001
0000
0000
0000
0000
0000
0000
3000
,
0001
0000
0000
1000
0000
0000
0001
0000
0010
0000
0100
0000
1000
0000
0000
0000
,
0001
1000
0010
0100
0010
1000
0001
0010
,
0100
0010
0001
1000
0001
0000
1000
0000
,
0001
1000
0001
0100
0010
0100
0001
1000
,
0100
0010
0100
1000
0001
0000
1000
0000
,
0001
1000
0100
0010
0100
1000
0001
0100
,
0010
0100
0001
1000
0001
0000
1000
1000
,
0001
0001
0100
0100
0010
0010
1000
1000
,
0001
0000
0000
1000
0000
0000
0100
0000
0010
0000
0010
0000
0100
0000
0000
0000
,
2002
0000
0000
0000
,
0000
0000
0000
0000
,
0000
0000
0000
0000
,
0000
3003
0000
0000
;

//--------------- dance-single - Maractus ----------------
#NOTES:
     dance-single:
     Maractus:
     Challenge:
     11:
     0.715478,0.977565,0.232116,0.089275,0.27229,561,535,26,10,0,0,0.715478,0.977565,0.232116,0.089275,0.27229,561,535,26,10,0,0:
0000
0000
0000
0000
,
0000
0000
0000
0000
,
0000
0000
0000
0000
,
1000
0010
1000
0010
,
1000
0000
0010
0000
0100
0001
1000
0100
,
0010
0001
0010
0001
,
0010
0000
0001
0000
0010
0001
0100
0010
,
1000
0010
1000
0010
,
1000
0000
0010
0000
0100
0001
0100
0010
,
1000
0010
0100
0010
1000
0100
0010
0001
,
0100
0010
0100
0001
4000
0000
0000
0000
,
3001
0100
0001
0000
0100
0010
0000
0100
,
0001
0000
0010
0100
1000
0001
0100
0010
,
1000
0100
1000
0000
0100
0010
0000
0100
,
1000
0000
0010
0100
0001
0010
0100
1000
,
0010
0100
0001
0000
0010
0100
0000
1000
,
0100
0000
1000
0010
0100
0001
0010
0100
,
1000
0010
0100
0001
0010
0100
1000
0001
,
2000
0000
0002
3003
,
1000
0100
0010
0100
1000
0001
0100
0010
,
0100
0000
0001
0000
0010
0000
0100
0010
0001
0000
0000
0000
1000
0000
0000
0000
,
0001
0010
0100
0010
0001
1000
0010
0100
,
0010
0000
1000
0000
0010
0000
0100
0010
1000
0000
0000
0000
0001
0000
0000
0000
,
1000
0100
0010
0001
1000
0010
0100
0001
,
0010
0000
0100
0000
1000
0000
0010
1000
0010
0000
0000
0000
1000
0000
0000
0000
,
0100
0100
0010
0010
0001
0001
1000
1000
,
0001
0000
0000
1000
0000
0000
0001
0000
0100
0000
0010
0000
1000
0000
0000
0000
,
0001
0100
0010
0100
0001
1000
0100
0010
,
0100
0000
1000
0000
0100
0000
0010
0001
1000
0000
0000
0000
0001
0000
0000
0000
,
1000
0010
0100
0010
1000
0001
0010
0100
,
0010
0000
0001
0000
0100
0000
0010
1000
0001
0000
0000
0000
1000
0000
0000
0000
,
0001
0100
0010
1000
0001
0010
0100
1000
,
0010
0000
0100
0000
0001
0000
0010
0001
0010
0000
0000
0000
0001
0000
0000
0000
,
0100
0100
0010
0010
1000
1000
0001
0001
,
1000
0000
0000
0001
0000
0000
1000
0000
0100
0000
0010
0000
0002
0000
0003
0000
,
4000
0001
0001
0001
0001
0001
0001
3000
,
0001
0000
0000
0100
0000
0200
0000
0000
,
0000
0000
0310
0010
,
1000
0000
0000
0001
0000
0002
0000
0000
,
0000
0000
0000
0000
0000
0000
0000
0000
0013
0000
0000
0100
0000
0100
0000
0000
,
1000
0000
0000
0010
0000
0020
0000
0000
,
0000
0000
0130
0100
,
0001
0000
0000
1000
0000
2000
0000
0000
,
0000
0000
0000
0000
0000
0000
0000
0000
3010
0000
0000
0100
0000
0100
0000
0000
,
0001
0001
0001
0001
,
1000
0100
1000
0100
1000
0100
1000
0100
,
1000
0100
0100
0100
,
0010
0000
0000
0010
0000
0010
0000
0010
0001
0000
1000
0000
0010
0100
0001
0000
,
0010
0100
1000
0010
0100
0001
0010
0100
,
1000
0010
0100
0001
0010
0100
1000
0001
0010
0100
0010
0001
1000
0010
0100
0010
,
1000
0000
0100
0000
0010
0000
0001
0000
1000
0100
0010
0100
1000
0001
0100
0010
,
0100
0001
1000
0001
1000
0010
0100
0000
0001
0000
1000
0000
0001
0000
0100
0000
,
0200
0000
0000
0000
,
0000
0000
0000
0000
,
0000
0000
0000
0000
,
0020
0000
0000
0330
,
1000
0000
0001
0000
0010
0100
1000
0000
0001
0000
1000
0000
0010
0100
0001
0000
,
1000
0000
0100
0000
1000
0010
1000
0000
0001
0000
0010
0000
0001
0100
0001
0000
,
1000
0010
0100
0001
0010
0001
0010
0000
0100
0000
1000
0000
0010
1000
0010
0000
,
0100
0000
0010
0000
1000
0001
1000
0000
0010
0000
0100
0000
0010
0100
0010
0000
,
0100
0000
0001
0000
0100
0000
0010
0000
1000
0100
0010
0001
1000
0010
1000
0010
,
1000
0000
0100
0000
0010
0001
1000
0000
0010
0000
0100
0000
0001
1000
0100
0000
,
0010
0000
0100
0000
1000
0001
0010
0000
0100
0000
0010
0000
0001
1000
0010
0000
,
0100
0000
0010
0000
1000
0001
0100
0000
0010
0000
0100
0000
0001
0100
0010
0000
,
1000
0000
0001
0000
0100
0010
0100
0000
0001
0000
1000
0000
0100
0010
0100
0000
,
1000
0000
0001
0000
0010
0100
1000
0000
0001
0000
1000
0000
0010
0100
0001
0000
,
1000
0000
0010
0000
0100
0000
0010
0000
1000
0100
0010
0001
0100
0010
1000
0000
,
0001
0000
0100
0000
0010
0100
0001
0000
0100
0000
0001
0000
0010
0000
0100
0000
,
1000
0000
0000
1000
0000
0000
1000
0000
0001
0100
0010
1000
0100
0010
0001
0000
,
1000
0000
0010
0000
0100
0001
1000
0000
0010
0000
0100
0000
0001
1000
0001
0000
,
1000
0010
0100
0010
1000
0001
0010
0100
,
0010
0001
1000
0100
0100
0000
0000
0000
,
0001
0010
0001
0010
0100
1000
0100
1000
,
0001
0000
1000
0000
0001
0000
0010
0100
1000
0000
0000
0000
1001
0000
0000
0000
,
0010
1000
0010
1000
0001
0100
0001
0100
,
0001
0000
1000
0000
0001
0000
0100
0010
1000
0000
0000
0000
1001
0000
0000
0000
,
1000
0100
0010
0001
1000
0010
0100
0001
,
0010
0100
1000
0001
0100
0010
1000
0001
,
4000
0000
0000
0000
0000
0000
0000
3000
,
0001
0000
0000
1000
0000
0000
0001
0000
0010
0000
0100
0000
1000
0000
0000
0000
,
0001
1000
0010
0100
0010
1000
0001
0010
,
0100
0000
0010
0000
0001
0000
1000
0010
0100
0000
0000
0000
0001
0000
0000
0000
,
1000
0001
1000
0010
0100
0010
1000
0001
,
0010
0000
0100
0000
0010
0000
0001
0010
0100
0000
0000
0000
1000
0000
0000
0000
,
0001
1000
0100
0010
0100
1000
0001
0100
,
0010
0000
0100
0000
0001
0000
1000
0010
0100
0000
0000
0000
0001
0000
0000
0000
,
1000
0100
0010
0001
1000
0100
0010
0001
0100
0010
1000
0001
0100
0010
1000
0001
,
1000
0000
0000
0001
0000
0000
1000
0000
0010
0000
0010
0000
0100
0000
0000
0000
,
2002
0000
0000
0000
,
0000
0000
0000
0000
,
0000
0000
0000
0000
,
0000
3003
0000
0000
;
